#VERSION:0.83;
#TITLE:Ghost;
#SUBTITLE:;
#ARTIST:Mystery Skulls;
#TITLETRANSLIT:;
#SUBTITLETRANSLIT:;
#ARTISTTRANSLIT:;
#GENRE:;
#ORIGIN:;
#CREDIT:;
#BANNER:Ghost.png;
#BACKGROUND:Ghost-bg.png;
#PREVIEWVID:;
#JACKET:Ghost-jacket.png;
#CDIMAGE:;
#DISCIMAGE:;
#LYRICSPATH:;
#CDTITLE:;
#MUSIC:Ghost.ogg;
#OFFSET:-0.985840;
#SAMPLESTART:46.967102;
#SAMPLELENGTH:15.999992;
#SELECTABLE:YES;
#DISPLAYBPM:120.000000;
#BPMS:0.000=120.000;
#STOPS:;
#DELAYS:;
#WARPS:;
#TIMESIGNATURES:0.000=4=4;
#TICKCOUNTS:0.000=4;
#COMBOS:0.000=1;
#SPEEDS:0.000=1.000=0.000=0;
#SCROLLS:0.000=1.000;
#FAKES:;
#LABELS:0.000=Song Start;
#BGCHANGES:;
#KEYSOUNDS:;
#ATTACKS:
;

//---------------dance-single - ----------------
#NOTEDATA:;
#CHARTNAME:;
#STEPSTYPE:dance-single;
#DESCRIPTION:;
#CHARTSTYLE:;
#DIFFICULTY:Hard;
#METER:12;
#RADARVALUES:0.484549,0.574005,0.347882,0.231921,0.181188,468.000000,420.000000,48.000000,32.000000,0.000000,0.000000,0.000000,0.000000,0.000000,0.484549,0.574005,0.347882,0.231921,0.181188,468.000000,420.000000,48.000000,32.000000,0.000000,0.000000,0.000000,0.000000,0.000000;
#CREDIT:Daniel Van Eden;
#DISPLAYBPM:120.000000;
#NOTES:
0000
0000
0000
0000
,
0000
0000
0000
0000
,
0000
0000
0000
0000
,
0000
0000
0000
0000
,
0000
0000
0000
0000
,
0000
0000
0000
0000
,
0000
0000
0000
0000
,
0000
0000
0000
0000
0000
0010
0001
2000
,
0000
3100
1000
0000
0010
1000
0010
0100
,
0010
0000
0101
0000
0001
0100
0010
2000
,
0000
3010
0100
0000
0001
0100
1000
0100
,
0001
0000
0101
0000
0010
0100
0010
0002
,
0000
0000
0013
0000
0100
0000
0000
0000
1000
0000
0000
0010
0000
0000
1000
0000
,
0000
0100
0100
0010
0010
0001
1000
0000
,
0010
1000
0010
0100
0010
0000
0110
0000
,
1000
0010
0100
0000
0001
0100
0110
2000
,
0000
3100
0010
0000
0001
0010
0001
1000
,
0100
0000
0101
0000
0100
0001
0100
0020
,
0000
1030
0100
0000
0010
0000
0110
0100
,
1000
0010
1000
0000
0100
0010
0100
2000
,
0000
3100
0001
0010
0001
0100
0001
0100
,
1000
0100
0010
0100
0001
0010
0100
1000
,
0010
1000
0100
0010
0100
1000
0001
0010
,
0100
0010
0100
0010
0001
0010
0100
1000
0100
1000
0010
0100
0001
0000
0000
0000
,
1100
1000
0010
0000
0110
0000
0101
0001
,
0010
0001
0010
0000
2002
0000
3003
0000
0100
0010
0100
1000
0002
0000
0000
0003
,
1000
0000
0010
1000
0001
0000
1000
0000
0010
0000
0100
0000
0001
0000
0010
0000
,
0100
0000
0010
0000
0010
0000
0100
0000
1000
0000
0100
0000
1200
0000
0310
0001
,
0010
0100
1100
1000
1001
0000
1001
0001
,
0101
0000
0100
0000
0110
0000
0000
0000
0010
0100
0001
0010
2000
0000
0000
3000
,
0010
0000
0001
0010
0100
0000
1000
0000
1001
0000
0000
0000
0101
0000
0100
0000
,
0010
0000
0100
0000
0001
0000
0100
0000
1000
0000
0100
0000
0001
0010
0001
0010
,
0001
0000
1001
0000
0101
0000
0100
0010
,
1000
0100
0010
0000
0022
0000
0033
0000
0010
0001
0010
0100
2000
0000
0000
0000
,
3010
0000
0100
0010
0100
0000
0001
0000
0100
0000
0010
0000
1000
0000
0001
0000
,
0100
0000
1000
0000
1000
0000
0100
0000
0001
0000
0010
0000
0002
0000
1003
0010
,
1000
0010
0110
0100
0101
0000
1001
0010
,
1010
0000
1000
0000
1100
0000
0000
0000
0100
1000
0100
0010
0002
0000
0000
0000
,
1003
0000
0010
1000
0010
0000
0100
0000
0001
0000
0100
0000
1000
0000
0100
0000
,
0001
1000
0010
0001
1000
0100
0001
0010
,
2000
0100
0000
3001
,
0020
0000
1000
0000
0000
0030
1001
0000
,
0200
0010
0000
0301
,
0100
0010
0010
1000
0010
0100
0002
0000
,
1003
0100
0001
0100
1000
0000
0001
0100
,
1000
0000
0100
0000
0001
0000
0000
0000
0001
0000
0000
2000
0000
0000
3000
0000
,
1000
0010
0001
0010
1000
0100
0001
0100
,
1000
0100
1000
0010
1000
0100
0010
0100
0010
0001
0010
0100
0010
0000
0000
0000
,
0011
0001
0100
0000
0110
0000
1010
1000
,
0100
1000
0100
0000
2002
0000
3003
0000
0010
0100
0010
0001
2000
0000
0000
3000
,
0001
0000
0100
0001
1000
0000
0001
0000
0100
0000
0010
0000
1000
0000
0100
0000
,
0010
0000
0100
0000
0100
0000
0010
0000
0001
0000
0010
0000
0021
0000
0130
1000
,
0100
0010
0011
0001
1001
0000
1001
1000
,
1010
0000
0010
0000
0110
0000
0000
0000
0100
0010
1000
0100
0002
0000
0000
0003
,
0100
0000
1000
0100
0010
0000
0001
0000
1001
0000
0000
0000
1010
0000
0010
0000
,
0100
0000
0010
0000
1000
0000
0010
0000
0001
0000
0010
0000
1000
0100
1000
0100
,
1000
0000
1001
0000
1010
0000
0010
0100
,
0001
0010
0100
0000
2200
0000
3300
0000
0100
1000
0100
0010
0002
0000
0000
0000
,
0103
0000
0010
0100
0010
0000
1000
0000
0010
0000
0100
0000
0001
0000
1000
0000
,
0010
0000
0001
0000
0001
0000
0010
0000
1000
0000
0100
0000
2000
0000
3001
0100
,
0001
0100
0110
0010
1010
0000
1001
0100
,
0101
0000
0001
0000
0011
0000
0000
0000
0010
0001
0010
0100
2000
0000
0000
0000
,
3001
0000
0100
0001
0100
0000
0010
0000
1000
0000
0010
0000
0001
0000
0010
0000
,
1000
0001
0100
0001
0010
0000
1010
1000
,
0200
0000
0000
0000
,
0000
0000
0000
0000
,
0300
0000
0000
0000
;

//---------------dance-single - ----------------
#NOTEDATA:;
#CHARTNAME:;
#STEPSTYPE:dance-single;
#DESCRIPTION:;
#CHARTSTYLE:;
#DIFFICULTY:Medium;
#METER:9;
#RADARVALUES:0.350988,0.430503,0.108713,0.188436,0.007248,339.000000,324.000000,15.000000,26.000000,0.000000,0.000000,0.000000,0.000000,0.000000,0.350988,0.430503,0.108713,0.188436,0.007248,339.000000,324.000000,15.000000,26.000000,0.000000,0.000000,0.000000,0.000000,0.000000;
#CREDIT:Daniel Van Eden;
#DISPLAYBPM:120.000000;
#NOTES:
0000
0000
0000
0000
,
0000
0000
0000
0000
,
0000
0000
0000
0000
,
0000
0000
0000
0000
,
0000
0000
0000
0000
,
0000
0000
0000
0000
,
0000
0000
0000
0000
,
0000
0000
0000
0000
,
0100
0000
1000
0000
0010
1000
0010
0000
,
0100
0000
0001
0000
0100
0010
0100
0001
,
1000
0000
0010
0000
0100
0010
0100
0000
,
1000
0000
0001
0000
0100
0010
0100
0010
,
1000
0000
0100
0000
1000
0100
0010
0000
,
0001
0000
0000
0000
1000
0000
0001
0000
1000
0000
0000
0001
0000
0000
0000
0000
,
0001
0100
0010
0100
,
0001
0000
1000
0000
0100
0010
0001
0010
,
0001
0000
1010
0000
0100
0000
0010
0100
,
0010
0000
1001
0000
0100
0000
0010
0001
,
0010
0000
1100
0000
1000
0000
0001
0010
,
1000
0000
0011
0000
0100
1000
0100
1000
,
0010
0100
0001
1000
,
0010
1000
0100
0010
,
0001
0010
0001
0010
0001
0010
0001
0010
,
0100
1000
1000
0001
1000
0100
0010
0001
,
1001
0000
0101
0000
0110
0000
0100
0010
,
1000
0000
0002
0000
0013
0100
2000
0000
,
3010
0000
0100
0010
0100
0000
0001
0000
,
1000
0001
0001
0010
0100
1000
0020
0000
,
1030
0100
0001
0100
1000
0000
0001
0100
,
1000
0100
0002
0000
0103
0000
2020
3030
,
0010
0100
0001
0100
0010
0000
1000
0001
,
0000
0100
0100
0010
0100
0010
0100
0001
,
0010
0000
0110
0000
0100
0000
0100
1000
,
0010
0000
2000
0000
3100
0010
0002
0000
,
0103
0000
0001
0010
0001
0000
0010
0000
,
0000
0010
0010
0001
0010
1000
0020
0000
,
0031
1000
0100
1000
0001
0000
1000
0001
,
0100
0001
2000
0000
3001
0010
0200
0000
,
0310
0100
1000
0100
0010
0000
0001
1000
,
0000
1000
0010
1000
0010
0100
0001
0010
,
0200
0010
0000
0310
,
0020
0001
0000
0031
,
0002
1000
0000
1003
,
2000
0100
0000
3100
,
0010
0100
0010
0001
0010
0000
0100
1000
,
0100
0000
0010
0000
0100
0000
0000
0000
1000
0000
0000
0020
0000
0000
0030
0000
,
1000
0001
1000
0001
1000
0001
1000
0001
,
1000
0010
0010
1000
0001
0010
0100
1000
,
0010
0000
1010
0000
0110
0000
0100
0001
,
0100
0000
0020
0000
1030
0100
0002
0000
,
0103
0000
0011
0000
0010
0000
0100
1000
,
0100
0010
0010
0100
0010
0010
0002
0000
,
1003
0010
0100
0010
0001
0000
0001
0010
,
0100
0010
2000
0000
3010
0100
0002
0000
,
1003
0010
0001
0010
1000
0000
1000
0001
,
0000
0001
0001
1000
1000
0010
1000
0100
,
0010
0000
0011
0000
1100
0000
1000
0010
,
1000
0001
0200
0000
0310
0100
0002
0000
,
0013
0000
0100
0010
0001
0000
0010
0100
,
1000
0010
0010
1000
1000
0100
0010
0001
,
0100
0001
0010
0001
0100
0000
0010
1000
,
0100
1000
0020
0000
1030
0100
0002
0000
,
0103
0010
0001
0010
0100
0000
1000
0001
,
1000
0001
1000
0001
1000
0000
0110
0000
,
2000
0000
0000
0000
,
0000
0000
0000
0000
,
3000
0000
0000
0000
;

//---------------dance-single - ----------------
#NOTEDATA:;
#CHARTNAME:;
#STEPSTYPE:dance-single;
#DESCRIPTION:;
#CHARTSTYLE:;
#DIFFICULTY:Easy;
#METER:6;
#RADARVALUES:0.222603,0.310919,0.144951,0.173941,0.000000,215.000000,195.000000,20.000000,24.000000,0.000000,0.000000,0.000000,0.000000,0.000000,0.222603,0.310919,0.144951,0.173941,0.000000,215.000000,195.000000,20.000000,24.000000,0.000000,0.000000,0.000000,0.000000,0.000000;
#CREDIT:Daniel Van Eden;
#DISPLAYBPM:120.000000;
#NOTES:
0000
0000
0000
0000
,
0000
0000
0000
0000
,
0000
0000
0000
0000
,
0000
0000
0000
0000
,
0000
0000
0000
0000
,
0000
0000
0000
0000
,
0000
0000
0000
0000
,
0000
0000
0000
0000
,
1000
0010
1000
0100
,
0010
0100
0000
0100
,
0010
0100
1000
0001
,
0010
0001
0000
0001
,
0100
1000
0100
0001
,
0010
0100
0010
0001
,
1000
1001
0000
0101
,
0000
0011
0000
0100
,
0010
0100
1000
0001
,
0010
0001
0000
1001
,
1000
0010
1000
0100
,
0010
0011
0000
0101
,
0001
0001
1000
1000
,
0010
0010
0100
0100
,
0010
1000
0001
1000
,
0200
0000
0020
0330
,
1000
0101
0001
0010
,
0000
2000
3000
0002
,
0003
0101
0100
0010
,
0100
0001
1000
0010
,
1000
0001
1000
0001
1000
0000
1000
0001
,
1000
0001
2000
0000
3000
0000
0020
0000
,
0030
0100
0110
0100
,
1000
0010
0100
0000
,
1000
0011
0000
0110
,
0000
2000
3000
0002
,
0003
0110
0010
0100
,
0001
1000
0010
1000
,
0100
0010
0100
0010
0100
0000
0100
0010
,
0100
0010
0200
0000
0300
0000
0002
0000
,
1003
0010
1000
0001
,
0100
0001
0010
0100
,
2200
0000
0000
3300
,
0020
0000
0000
0030
,
2000
0000
0000
3000
,
0002
0000
0000
0003
,
0001
0100
1000
1000
,
0100
0001
0000
0000
,
1000
0001
0010
0100
,
0010
0010
0010
1001
,
0000
1100
0000
0101
,
0000
0020
0030
2000
,
3000
0100
0010
0100
,
1000
0001
0001
0100
,
0010
1000
0010
1000
0010
0000
0100
0001
,
0100
0001
0200
0000
0300
0000
0020
0000
,
1030
0100
0010
0010
,
0001
1000
0010
1001
,
0000
0011
0000
1100
,
0000
2000
3000
0002
,
0003
0011
0001
0100
,
0010
0100
0001
0010
,
0001
0010
0001
0010
0001
0000
1000
0100
,
1000
0100
2000
0000
3000
0000
0020
0000
,
0130
0001
1000
0010
,
0100
0001
0010
1000
,
0200
0000
0000
0000
,
0000
0000
0000
0000
,
0300
0000
0000
0000
;

//---------------dance-single - ----------------
#NOTEDATA:;
#CHARTNAME:;
#STEPSTYPE:dance-single;
#DESCRIPTION:;
#CHARTSTYLE:;
#DIFFICULTY:Beginner;
#METER:2;
#RADARVALUES:0.126314,0.184812,0.014495,0.000000,0.000000,122.000000,120.000000,2.000000,0.000000,0.000000,0.000000,0.000000,0.000000,0.000000,0.126314,0.184812,0.014495,0.000000,0.000000,122.000000,120.000000,2.000000,0.000000,0.000000,0.000000,0.000000,0.000000,0.000000;
#CREDIT:Daniel Van Eden;
#DISPLAYBPM:120.000000;
#NOTES:
// measure 0
0000
0000
0000
0000
,  // measure 1
0000
0000
0000
0000
,  // measure 2
0000
0000
0000
0000
,  // measure 3
0000
0000
0000
0000
,  // measure 4
0000
0000
0000
0000
,  // measure 5
0000
0000
0000
0000
,  // measure 6
0000
0000
0000
0000
,  // measure 7
0000
0000
0000
0000
,  // measure 8
1000
0000
0010
0000
,  // measure 9
0100
0000
0100
0000
,  // measure 10
0001
0000
0010
0000
,  // measure 11
0001
0000
1000
0000
,  // measure 12
0010
0000
1000
0000
,  // measure 13
0001
0000
0001
0000
,  // measure 14
0010
0000
0100
0000
,  // measure 15
0010
0000
0000
0000
,  // measure 16
1000
0000
0100
0000
,  // measure 17
1000
0000
0010
0000
,  // measure 18
0001
0000
0010
0000
,  // measure 19
1000
0000
0001
0000
,  // measure 20
0100
0000
0100
0000
,  // measure 21
0010
0000
0010
0000
,  // measure 22
1000
1000
1000
0000
,  // measure 23
0001
0001
0001
0000
,  // measure 24
1001
0000
0010
0000
,  // measure 25
0000
1000
0000
0001
,  // measure 26
0000
0010
0000
0100
,  // measure 27
0000
0010
0000
0000
,  // measure 28
1000
1000
0001
0001
,  // measure 29
1000
1000
0000
0000
,  // measure 30
0001
0001
1000
1000
,  // measure 31
0001
0000
0010
0000
,  // measure 32
0000
0100
0000
0010
,  // measure 33
0000
1000
0000
0001
,  // measure 34
0000
0100
0000
0010
,  // measure 35
0000
0100
0000
0000
,  // measure 36
0001
0001
1000
1000
,  // measure 37
0001
0001
0000
0000
,  // measure 38
0010
0010
0100
0100
,  // measure 39
0010
0000
1000
0000
,  // measure 40
0100
0000
0000
0000
,  // measure 41
0010
0000
0000
0000
,  // measure 42
1000
0000
0000
0000
,  // measure 43
0001
0000
0000
0000
,  // measure 44
1000
0000
0000
0000
,  // measure 45
0001
0000
0000
0000
,  // measure 46
0100
0000
0010
0000
,  // measure 47
0100
0100
0100
0000
,  // measure 48
0110
0000
0000
0010
,  // measure 49
0000
0100
0000
0001
,  // measure 50
0000
0010
0000
0100
,  // measure 51
0000
1000
0000
0000
,  // measure 52
1000
1000
0100
0100
,  // measure 53
1000
1000
0000
0000
,  // measure 54
0010
0010
0001
0001
,  // measure 55
0000
0100
0000
0001
,  // measure 56
0000
1000
0000
0010
,  // measure 57
0000
0001
0000
1000
,  // measure 58
0000
0100
0000
1000
,  // measure 59
0000
0010
0000
0000
,  // measure 60
0001
0001
0100
0100
,  // measure 61
0001
0001
0000
0000
,  // measure 62
0010
0010
1000
1000
,  // measure 63
0000
1000
0000
0100
;

//---------------dance-single - Duet 1----------------
#NOTEDATA:;
#CHARTNAME:;
#STEPSTYPE:dance-single;
#DESCRIPTION:Duet 1;
#CHARTSTYLE:;
#DIFFICULTY:Edit;
#METER:1;
#RADARVALUES:0.401720,0.518199,0.449347,0.260911,0.097842,388.000000,326.000000,62.000000,36.000000,0.000000,0.000000,0.000000,0.000000,0.000000,0.401720,0.518199,0.449347,0.260911,0.097842,388.000000,326.000000,62.000000,36.000000,0.000000,0.000000,0.000000,0.000000,0.000000;
#CREDIT:;
#DISPLAYBPM:120.000000;
#NOTES:
0000
0000
0000
0000
,
0000
0000
0000
0000
,
0000
0000
0000
0000
,
0000
0000
0000
0000
,
0000
0000
0000
0000
,
0000
0000
0000
0000
,
0000
0000
0000
0000
,
0000
0000
0000
0000
,
1000
0001
0100
0001
0010
0100
0010
0000
,
0001
1000
0010
1000
0100
0010
0001
0000
,
0100
0010
0100
0001
1000
0100
0001
0000
,
0100
1000
0010
1000
0001
0010
1000
0000
,
0010
0001
0101
0000
0100
0010
1010
0000
,
1000
0100
0110
0000
0010
0100
1001
0000
,
1000
0100
0001
0100
1000
0010
0100
0010
,
1000
0001
0010
0001
0100
0010
1000
0002
,
0000
0000
0013
0000
1000
0000
0001
0100
,
0000
0000
0110
0000
0010
0100
0001
2000
,
0000
0000
3100
0000
0010
0000
0001
0100
,
0010
1000
0001
0000
1000
0001
0100
0020
,
0000
0000
0000
0000
0130
0000
0000
0000
0001
0000
0000
1000
0000
0000
0002
0000
,
0000
2003
3200
0320
,
0230
0000
0300
0000
,
0000
0100
0100
0010
0001
0100
1001
1000
,
0020
0000
0000
1000
0000
0000
1030
0000
0100
0000
0000
0000
0011
0000
0000
0002
,
0000
0003
2000
0000
3000
0000
0202
0000
,
0303
0000
0010
0001
0010
0000
0100
1000
,
0000
1000
1000
0010
1000
0100
0220
0330
,
0001
0100
1100
0100
0101
0000
1100
0010
,
0101
0000
0011
0000
1100
0000
0000
0000
0020
0000
0000
1030
0000
0000
0000
0000
,
1100
0100
0110
0010
0011
0000
1001
0000
,
0001
0000
0100
0000
1000
0000
0100
0000
0001
0000
0000
0000
0001
0010
0001
0010
,
0100
0000
0011
0000
0001
0000
1100
1000
,
0010
0100
0001
0000
0000
0000
0000
0000
0001
0010
0100
1000
0000
0000
0000
0000
,
0010
0000
1000
0100
1000
0000
0000
0000
0101
0000
0000
0000
1100
0000
1000
0000
,
0010
0000
0000
0000
1001
0000
0000
0000
0100
0000
0000
0000
0010
0000
0100
0010
,
0100
1000
1010
0000
0101
0000
0011
0010
,
0000
0010
2002
0000
3003
0000
2020
3030
,
0100
0000
0010
1000
0010
0000
0000
0000
1000
0000
0000
0000
0101
0000
0100
0000
,
0110
0001
1100
0010
0101
0000
1001
0000
,
0000
0100
0000
0100
,
0000
0100
0000
1001
,
0000
0000
0010
0001
0020
0000
0230
0000
,
0300
1000
1000
0001
0001
1000
0020
0000
,
1030
0100
0001
0100
1000
0000
0001
0100
,
1000
0000
0100
0000
0001
0000
0000
0000
0010
0000
0000
0002
0000
0000
0003
0000
,
0010
0100
0010
0001
0010
0100
1000
0010
,
0100
0001
0100
0001
0010
0100
0010
0100
0010
0001
1000
0100
0010
0000
0000
0000
,
0010
0000
1100
0000
1000
0000
0011
0001
,
0100
0010
1000
0000
0000
0000
0000
0000
1000
0100
0010
0001
0000
0000
0000
0000
,
0100
0000
0001
0010
0001
0000
0000
0000
1010
0000
0000
0000
0011
0000
0001
0000
,
0100
0000
0000
0000
1001
0000
0000
0000
0010
0000
0000
0000
0100
0000
0010
0100
,
0010
0001
0101
0000
1010
0000
1100
0100
,
0000
0100
2002
0000
3003
0000
0202
0303
,
0010
0000
0100
0001
0100
0000
0000
0000
0001
0000
0000
0000
1010
0000
0010
0000
,
1001
0010
0010
0100
1000
0010
1001
0001
,
0200
0000
0000
0001
0000
0000
0301
0000
0010
0000
0000
0000
1100
0000
0110
0000
,
0000
0010
0002
0000
0003
0000
2020
0000
,
3030
0000
0100
1000
0100
0000
0010
0001
,
0000
0001
0001
0100
0001
0010
0220
0330
,
1000
0100
0110
0010
0011
0000
0101
0010
,
1100
0000
0011
0000
0101
0000
0000
0000
0200
0000
0000
0301
0000
0000
0000
0000
,
0011
0001
0101
0100
0110
0000
1001
0000
,
1000
0010
0001
0010
1000
0000
1000
0001
,
2000
0000
0000
0000
,
3000
0000
0000
0000
;

//---------------dance-single - Duet 2----------------
#NOTEDATA:;
#CHARTNAME:;
#STEPSTYPE:dance-single;
#DESCRIPTION:Duet 2;
#CHARTSTYLE:;
#DIFFICULTY:Edit;
#METER:1;
#RADARVALUES:0.414145,0.541753,0.434852,0.239169,0.115961,400.000000,340.000000,60.000000,33.000000,0.000000,0.000000,0.000000,0.000000,0.000000,0.414145,0.541753,0.434852,0.239169,0.115961,400.000000,340.000000,60.000000,33.000000,0.000000,0.000000,0.000000,0.000000,0.000000;
#CREDIT:;
#DISPLAYBPM:120.000000;
#NOTES:
0000
0000
0000
0000
,
0000
0000
0000
0000
,
0000
0000
0000
0000
,
0000
0000
0000
0000
,
0000
0000
0000
0000
,
0000
0000
0000
0000
,
0000
0000
0000
0000
,
0000
0000
0000
0000
0000
0100
1000
0002
,
0000
0000
0000
0000
0013
0000
0000
0000
0100
0000
0000
0010
0000
0000
1000
0000
,
0000
0000
1100
0000
0010
0100
0001
2000
,
0000
0000
0000
0000
3010
0000
0000
0000
0100
0000
0000
0001
0000
0000
1000
0000
,
0100
0010
0001
0000
0100
0010
0100
0002
,
0000
0000
0000
0000
1003
0000
0000
0000
0010
0000
0000
0100
0000
0000
0001
0000
,
0000
0000
0010
0000
0010
0000
0100
0000
0100
0000
0000
0020
0000
0000
0000
0000
,
0030
0000
0110
0000
0000
0000
1010
2000
,
0000
3002
0000
0003
0010
0100
0110
0000
,
0010
0001
0100
0001
1000
0100
0010
0000
,
0010
0100
0010
0001
1000
0010
0100
0000
,
0010
1000
0001
0100
0010
0100
0001
0000
,
1000
0100
1000
0010
0100
0010
1000
0001
,
1000
1000
1000
0001
,
0010
0010
0010
0001
,
0100
0010
0100
0010
1000
0001
1000
0100
,
0010
0001
0010
0001
1000
0100
1000
0100
0010
0001
1000
0100
0010
0000
0000
0000
,
1001
0000
1100
0000
1000
0000
0011
0001
,
0100
0010
1000
0000
0000
0000
0000
0000
1000
0100
0010
0001
0000
0000
0000
0000
,
0100
0000
0001
0010
0001
0000
0000
0000
1010
0000
0000
0000
0011
0000
0001
0000
,
0100
0000
0000
0000
1001
0000
0000
0000
0010
0000
0000
0000
0100
0000
0010
0100
,
0010
1000
0101
0000
1010
0000
1100
0100
,
0000
0100
2002
0000
3003
0000
0202
0303
,
0010
0000
0100
0001
0100
0000
0000
0000
0001
0000
0000
0000
1010
0000
0010
0000
,
1001
0010
0010
0100
1000
0010
1001
0001
,
0200
0000
0000
0001
0000
0000
0301
0000
0010
0000
0000
0000
1100
0000
0110
0000
,
0000
0010
0002
0000
0003
0000
2020
0000
,
3030
0000
0100
1000
0100
0000
0010
0001
,
0000
0001
0001
0100
0001
0010
0220
0330
,
1000
0010
0110
0010
1010
0000
0101
0010
,
1001
0000
0110
0000
1100
0000
0000
0000
0200
0000
0000
0301
0000
0000
0000
0000
,
0011
0001
0101
0100
0110
0000
1001
0000
,
0010
0001
0010
0100
0010
0010
0010
0001
,
1000
0000
0010
0000
1000
0000
0010
0000
1000
0000
0000
0010
0000
0000
0100
0000
,
0001
0000
0100
0000
0001
0000
0100
0000
0001
0000
0000
0100
0000
0000
0010
0000
,
0100
0000
0010
0000
0100
0000
0010
0000
0100
0000
0000
0001
0000
0000
1000
0000
,
0001
1000
1000
0001
0001
1000
2000
3000
,
0001
0100
1000
0100
0001
0000
1000
0100
,
0001
0100
1000
0000
0100
0000
1001
0000
,
0010
0100
0010
1000
0020
0000
0230
0000
,
0300
0001
0001
0100
0010
0100
0001
1000
,
0020
0000
0000
1000
0000
0000
1030
0000
0100
0000
0000
0000
0011
0000
0000
0002
,
0000
0003
2000
0000
3000
0000
0202
0000
,
0303
0000
0010
0001
0010
0000
0100
1000
,
0000
1000
1000
0010
1000
0100
0220
0330
,
0010
0001
1001
0010
0101
0000
1100
0001
,
1010
0000
0110
0000
0101
0000
0000
0000
0020
0000
0000
1030
0000
0000
0000
0000
,
1100
1000
1001
0001
0011
0000
1001
0000
,
0001
0000
0100
0000
1000
0000
0100
0000
0001
0000
0000
0000
0001
0010
0001
0010
,
0100
0000
0011
0000
0001
0000
1100
1000
,
0010
0100
0001
0000
0000
0000
0000
0000
0001
0010
0100
1000
0000
0000
0000
0000
,
0010
0000
1000
0100
1000
0000
0000
0000
0101
0000
0000
0000
1100
0000
1000
0000
,
0010
0000
0000
0000
1001
0000
0000
0000
0100
0000
0000
0000
0010
0000
0100
0010
,
0100
0001
1010
0000
0101
0000
0011
0010
,
0000
0010
2002
0000
3003
0000
2020
3030
,
0100
0000
0010
1000
0010
0000
0000
0000
1000
0000
0000
0000
0101
0000
0100
0000
,
0110
0001
1100
0010
0101
0000
0001
1000
,
0002
0000
0000
0000
,
0003
0000
0000
0000
;
