#TITLE:Gas Gas Gas;
#SUBTITLE:but every other beat is Deja Vu;
#ARTIST:Initial D;
#TITLETRANSLIT:;
#SUBTITLETRANSLIT:;
#ARTISTTRANSLIT:;
#GENRE:;
#CREDIT:;
#BANNER:banner.png;
#BACKGROUND:background.png;
#LYRICSPATH:;
#CDTITLE:;
#MUSIC:gas gas gas deja vu.ogg;
#OFFSET:-0.900185;
#SAMPLESTART:77.262627;
#SAMPLELENGTH:14.022423;
#SELECTABLE:YES;
#BPMS:0.000000=154.039001
;
#STOPS:
;
#BGCHANGES:;
#KEYSOUNDS:;
#ATTACKS:;

//---------------dance-single - ----------------
#NOTES:
     dance-single:
     :
     Challenge:
     1:
     0.561828,0.758921,0.262791,0.489334,0.199358,434.000000,405.000000,29.000000,54.000000,0.000000,0.000000,0.561828,0.758921,0.262791,0.489334,0.199358,434.000000,405.000000,29.000000,54.000000,0.000000,0.000000:
0000
0000
0000
0000
,
0000
0000
0000
0000
,
0000
0000
0000
0000
,
0000
0000
0000
0000
,
0000
0000
0000
0000
,
0000
0000
0000
0000
,
0000
0000
0000
0000
,
0000
0000
0000
0000
,
0000
0000
0000
0000
,
0000
0000
0000
0000
,
0000
0000
0000
0000
,
0000
0000
0000
0000
,
0000
0000
0000
0000
,
0000
0000
0000
0000
,
0000
0000
0000
0000
,
0000
0000
0000
0000
,
0000
0000
0000
0000
,
1001
0000
0200
0000
0301
0010
0100
1000
,
0002
0000
1003
1000
0020
2030
3100
0100
,
0010
0000
1001
0000
1000
0010
0100
0001
,
1000
0010
1000
0100
0010
0001
0100
0100
,
0002
0000
0000
0000
1003
0000
0010
0000
0010
0000
2000
0000
3100
0000
0010
0001
,
0200
0000
0300
0000
0010
0100
0001
0000
2000
0000
3020
0000
0230
0000
0000
0000
,
0302
0000
2003
3200
0310
0001
1000
0010
,
1000
1000
0100
0011
0200
0000
0302
2003
,
3010
0000
0000
0000
0202
0000
0303
0000
1000
0000
0100
0000
1000
0010
0100
0001
,
0010
0000
0100
0000
0010
0001
1000
0100
0010
0000
0100
0000
1000
0010
0100
0001
,
1000
0000
0100
0000
0010
0100
1000
0001
0100
0000
0010
0000
2000
0000
3001
0010
,
0001
0000
0100
0000
0010
0100
0001
1000
0010
0000
1000
0000
0001
1000
0100
0000
,
0010
0000
0000
0000
0100
0010
0100
1000
0001
0000
0100
0000
0020
0000
1030
0100
,
1000
0000
0001
0000
0010
0100
0010
0001
1000
0000
0100
0000
1000
0001
0100
0010
,
0200
0000
0300
0000
0001
0010
0100
1000
0001
0000
0010
0000
0001
1000
0010
0000
,
0200
0000
0000
0300
0010
1000
0010
0100
0001
0000
0011
0000
1000
0100
0010
0001
,
2000
0000
0000
0000
3010
0100
0001
1000
0100
0000
0010
0000
0101
0000
0000
0000
,
1001
0000
0100
1000
0010
0001
0010
1000
,
0100
0010
0001
1000
0100
1000
0001
0010
,
0110
0000
0000
0000
0100
0000
1000
0000
0001
1000
0001
0000
1000
0000
0010
0100
,
0020
1030
1000
0001
1000
0100
0011
0000
,
1000
0000
0001
0100
0010
1000
0010
0001
,
2000
0000
3010
0010
0101
0101
1000
0001
,
0010
0001
1000
0100
0010
0000
0001
0000
1001
0000
0000
0000
0220
0000
0330
0000
,
1001
0010
2000
0000
3010
0100
0001
0001
,
1000
0010
1100
0001
0010
0100
1100
1000
,
0002
0003
0010
0100
0010
0001
1000
1000
,
0001
0100
0020
2030
3001
0010
0001
1000
,
0100
2000
3010
0010
1000
0100
0010
0001
,
0000
0100
0010
0001
1000
0010
0020
0031
,
1000
0000
1000
0000
0200
0000
0000
0300
0010
0000
0100
0000
0010
0000
0001
0000
,
1000
0000
1000
0000
0001
0100
0001
0000
0010
0000
0000
0000
0200
0000
1300
0000
,
1001
0000
0000
1000
0200
0000
0300
0000
0010
0000
0001
0000
0100
0000
1000
0000
,
0001
2000
3010
0101
1000
0100
0010
0001
,
1000
0010
1000
0001
0010
0001
0200
2300
,
3100
0001
0020
0230
1300
0010
2000
3001
,
0001
0100
0110
0000
0010
1000
1001
0001
,
0010
1100
0001
1000
0010
1000
0100
0100
,
0000
0010
0001
2000
3001
0100
0110
1010
,
0001
0200
0310
1000
0001
1000
0100
0010
,
0001
0001
0200
0300
0010
0000
1000
1000
,
0101
0000
0000
0001
0100
0000
0010
0000
1001
0000
0000
0000
0010
0000
0001
0000
,
0011
0000
0001
0100
0100
0010
2000
3002
,
0013
0100
2000
3200
0310
0001
0101
0000
,
1000
0000
0010
0000
1000
0001
1000
0000
0100
0000
0010
0000
0001
0000
0200
0000
,
0301
0010
1000
0020
0031
1000
0100
0100
,
0010
0001
1000
0100
0010
0110
0001
1000
,
0010
1000
0100
0010
0002
2003
3010
0110
,
1000
0000
0100
0000
0010
0000
0100
0010
0001
0000
1000
0000
0010
0000
0100
0001
,
1000
0000
1000
0000
0100
1000
0100
0010
0002
0000
0003
0000
0100
0010
0100
0001
,
1000
0000
0000
0000
;

//---------------dance-single - Gas Gas Gas----------------
#NOTES:
     dance-single:
     :
     Edit:
     1:
     0.311983,0.515585,0.135926,0.289976,0.176704,241.000000,226.000000,15.000000,32.000000,0.000000,0.000000,0.311983,0.515585,0.135926,0.289976,0.176704,241.000000,226.000000,15.000000,32.000000,0.000000,0.000000:
0000
0000
0000
0000
,
0000
0000
0000
0000
,
0000
0000
0000
0000
,
0000
0000
0000
0000
,
0000
0000
0000
0000
,
0000
0000
0000
0000
,
0000
0000
0000
0000
,
0000
0000
0000
0000
,
0000
0000
0000
0000
,
0000
0000
0000
0000
,
0000
0000
0000
0000
,
0000
0000
0000
0000
,
0000
0000
0000
0000
,
0000
0000
0000
0000
,
0000
0000
0000
0000
,
0000
0000
0000
0000
,
0000
0000
0000
0000
,
0000
0000
0200
0000
0300
0000
0100
1000
,
0000
0000
1000
1000
0000
0000
0100
0100
,
0000
0000
1001
0000
0000
0000
0100
0001
,
0000
0000
1000
0100
0000
0000
0100
0100
,
0000
0000
0000
0000
1000
0000
0010
0000
0000
0000
0000
0000
0100
0000
0010
0001
,
0000
0000
0000
0000
0010
0100
0001
0000
0000
0000
0000
0000
0200
0000
0000
0000
,
0300
0000
2000
3200
0300
0000
1000
0010
,
0000
0000
0100
0011
0000
0000
0002
2003
,
3000
0000
0000
0000
0202
0000
0303
0000
0000
0000
0000
0000
1000
0010
0100
0001
,
0000
0000
0000
0000
0010
0001
1000
0100
0000
0000
0000
0000
1000
0010
0100
0001
,
0000
0000
0000
0000
0010
0100
1000
0001
0000
0000
0000
0000
2000
0000
3001
0010
,
0000
0000
0000
0000
0010
0100
0001
1000
0000
0000
0000
0000
0001
1000
0100
0000
,
0000
0000
0000
0000
0100
0010
0100
1000
0000
0000
0000
0000
0020
0000
1030
0100
,
0000
0000
0000
0000
0010
0100
0010
0001
0000
0000
0000
0000
1000
0001
0100
0010
,
0000
0000
0000
0000
0001
0010
0100
1000
0000
0000
0000
0000
0001
1000
0010
0000
,
0000
0000
0000
0000
0010
1000
0010
0100
0000
0000
0000
0000
1000
0100
0010
0001
,
0000
0000
0000
0000
0010
0100
0001
1000
0000
0000
0000
0000
0101
0000
0000
0000
,
0000
0000
0100
1000
0000
0000
0010
1000
,
0000
0000
0001
1000
0000
0000
0001
0010
,
0000
0000
0000
0000
0100
0000
1000
0000
0000
0000
0000
0000
1000
0000
0010
0100
,
0000
0000
1000
0001
0000
0000
0011
0000
,
0000
0000
0001
0100
0000
0000
0010
0001
,
0000
0000
0010
0010
0000
0000
1000
0001
,
0000
0000
0010
0001
0000
0000
0220
0330
,
0000
0000
2000
0000
3000
0000
0001
0001
,
0000
0000
1100
0001
0000
0000
1100
1000
,
0000
0000
0010
0100
0000
0000
1000
1000
,
0000
0000
0020
2030
3000
0000
0001
1000
,
0000
0000
0010
0010
0000
0000
0010
0001
,
0000
0000
0010
0001
0000
0000
0020
0031
,
0000
0000
0000
0000
0200
0000
0000
0300
0000
0000
0000
0000
0010
0000
0001
0000
,
0000
0000
0000
0000
0001
0100
0001
0000
0000
0000
0000
0000
0200
0000
1300
0000
,
0000
0000
0200
0300
0000
0000
0100
1000
,
0000
0000
0010
0101
0000
0000
0010
0001
,
0000
0000
1000
0001
0000
0000
0200
2300
,
3000
0000
0020
0230
0300
0000
2000
3001
,
0000
0000
0110
0000
0000
0000
1001
0001
,
0000
0000
0001
1000
0000
0000
0100
0100
,
0000
0000
0001
2000
3000
0000
0110
1010
,
0000
0000
0010
1000
0000
0000
0100
0010
,
0000
0000
0200
0300
0000
0000
1000
1000
,
0000
0000
0100
0010
0000
0000
0010
0001
,
0000
0000
0001
0100
0000
0000
2000
3002
,
0003
0000
2000
3200
0300
0000
0101
0000
,
0000
0000
0000
0000
1000
0001
1000
0000
0000
0000
0000
0000
0001
0000
0200
0000
,
0300
0000
1000
0020
0030
0000
0100
0100
,
0000
0000
1000
0100
0000
0000
0001
1000
,
0000
0000
0100
0010
0000
0000
0010
0110
,
0000
0000
0000
0000
0010
0000
0100
0010
0000
0000
0000
0000
0010
0000
0100
0001
,
0000
0000
0000
0000
0100
1000
0100
0010
0000
0000
0000
0000
0100
0010
0100
0001
;

//---------------dance-single - Deja Vu----------------
#NOTES:
     dance-single:
     :
     Edit:
     1:
     0.249845,0.424996,0.126864,0.199358,0.022654,193.000000,179.000000,14.000000,22.000000,0.000000,0.000000,0.249845,0.424996,0.126864,0.199358,0.022654,193.000000,179.000000,14.000000,22.000000,0.000000,0.000000:
// measure 0
0000
0000
0000
0000
,  // measure 1
0000
0000
0000
0000
,  // measure 2
0000
0000
0000
0000
,  // measure 3
0000
0000
0000
0000
,  // measure 4
0000
0000
0000
0000
,  // measure 5
0000
0000
0000
0000
,  // measure 6
0000
0000
0000
0000
,  // measure 7
0000
0000
0000
0000
,  // measure 8
0000
0000
0000
0000
,  // measure 9
0000
0000
0000
0000
,  // measure 10
0000
0000
0000
0000
,  // measure 11
0000
0000
0000
0000
,  // measure 12
0000
0000
0000
0000
,  // measure 13
0000
0000
0000
0000
,  // measure 14
0000
0000
0000
0000
,  // measure 15
0000
0000
0000
0000
,  // measure 16
0000
0000
0000
0000
,  // measure 17
1001
0000
0000
0000
0001
0010
0000
0000
,  // measure 18
0002
0000
0003
0000
0020
2030
3000
0000
,  // measure 19
0010
0000
0000
0000
1000
0010
0000
0000
,  // measure 20
1000
0010
0000
0000
0010
0001
0000
0000
,  // measure 21
0002
0000
0003
0000
0010
2000
3000
0000
,  // measure 22
0200
0300
0000
0000
2000
3020
0030
0000
,  // measure 23
0002
0000
0003
0000
0010
0001
0000
0000
,  // measure 24
1000
1000
0000
0000
0200
0000
0300
0000
,  // measure 25
0010
0000
0000
0000
1000
0100
0000
0000
,  // measure 26
0010
0100
0000
0000
0010
0100
0000
0000
,  // measure 27
1000
0100
0000
0000
0100
0010
0000
0000
,  // measure 28
0001
0100
0000
0000
0010
1000
0000
0000
,  // measure 29
0010
0000
0000
0000
0001
0100
0000
0000
,  // measure 30
1000
0001
0000
0000
1000
0100
0000
0000
,  // measure 31
0200
0300
0000
0000
0001
0010
0000
0000
,  // measure 32
0200
0000
0000
0300
0000
0000
0000
0000
0001
0000
0011
0000
0000
0000
0000
0000
,  // measure 33
2000
0000
3000
0000
0100
0010
0000
0000
,  // measure 34
1001
0000
0000
0000
0010
0001
0000
0000
,  // measure 35
0100
0010
0000
0000
0100
1000
0000
0000
,  // measure 36
0110
0000
0000
0000
0000
0000
0000
0000
0001
1000
0001
0000
0000
0000
0000
0000
,  // measure 37
0020
1030
0000
0000
1000
0100
0000
0000
,  // measure 38
1000
0000
0000
0000
0010
1000
0000
0000
,  // measure 39
2000
0000
3000
0000
0101
0101
0000
0000
,  // measure 40
0010
0001
1000
0100
0000
0000
0000
0000
1001
0000
0000
0000
0000
0000
0000
0000
,  // measure 41
1001
0010
0000
0000
0010
0100
0000
0000
,  // measure 42
1000
0010
0000
0000
0010
0100
0000
0000
,  // measure 43
0002
0003
0000
0000
0010
0001
0000
0000
,  // measure 44
0001
0100
0000
0000
0001
0010
0000
0000
,  // measure 45
0100
2000
3000
0000
1000
0100
0000
0000
,  // measure 46
0000
0100
0000
0000
1000
0010
0000
0000
,  // measure 47
1000
1000
0000
0000
0010
0100
0000
0000
,  // measure 48
1000
1000
0000
0000
0010
0000
0000
0000
,  // measure 49
1001
0000
0000
1000
0000
0000
0000
0000
0010
0000
0001
0000
0000
0000
0000
0000
,  // measure 50
0001
2000
3000
0000
1000
0100
0000
0000
,  // measure 51
1000
0010
0000
0000
0010
0001
0000
0000
,  // measure 52
0100
0001
0000
0000
1000
0010
0000
0000
,  // measure 53
0001
0100
0000
0000
0010
1000
0000
0000
,  // measure 54
0010
1100
0000
0000
0010
1000
0000
0000
,  // measure 55
0000
0010
0000
0000
0001
0100
0000
0000
,  // measure 56
0001
0200
0300
0000
0001
1000
0000
0000
,  // measure 57
0001
0001
0000
0000
0010
0000
0000
0000
,  // measure 58
0101
0000
0000
0001
0000
0000
0000
0000
1001
0000
0000
0000
0000
0000
0000
0000
,  // measure 59
0011
0000
0000
0000
0100
0010
0000
0000
,  // measure 60
0010
0100
0000
0000
0010
0001
0000
0000
,  // measure 61
1000
0010
0000
0000
0100
0010
0000
0000
,  // measure 62
0001
0010
0000
0000
0001
1000
0000
0000
,  // measure 63
0010
0001
0000
0000
0010
0110
0000
0000
,  // measure 64
0010
1000
0000
0000
0002
2003
3000
0000
,  // measure 65
1000
0100
0000
0000
0001
1000
0000
0000
,  // measure 66
1000
1000
0000
0000
0002
0003
0000
0000
,  // measure 67
1000
0000
0000
0000
;
