#VERSION:0.83;
#TITLE:GT40;
#SUBTITLE:;
#ARTIST:Lindsay Lowend;
#TITLETRANSLIT:;
#SUBTITLETRANSLIT:;
#ARTISTTRANSLIT:;
#GENRE:;
#ORIGIN:;
#CREDIT:;
#BANNER:GT40.png;
#BACKGROUND:GT40-bg.png;
#PREVIEWVID:;
#JACKET:GT40-jacket.png;
#CDIMAGE:;
#DISCIMAGE:;
#LYRICSPATH:;
#CDTITLE:;
#MUSIC:GT40.ogg;
#OFFSET:2.841410;
#SAMPLESTART:103.740425;
#SAMPLELENGTH:11.636368;
#SELECTABLE:YES;
#BPMS:0.000=82.500,
34.500=165.000;
#STOPS:34.500=0.545;
#DELAYS:;
#WARPS:;
#TIMESIGNATURES:0.000=4=4;
#TICKCOUNTS:0.000=4;
#COMBOS:0.000=1;
#SPEEDS:0.000=1.000=0.000=0;
#SCROLLS:0.000=1.000;
#FAKES:;
#LABELS:0.000=Song Start;
#BGCHANGES:;
#KEYSOUNDS:;
#ATTACKS:
;

//---------------dance-single - ----------------
#NOTEDATA:;
#CHARTNAME:;
#STEPSTYPE:dance-single;
#DESCRIPTION:;
#CHARTSTYLE:;
#DIFFICULTY:Beginner;
#METER:3;
#RADARVALUES:0.170666,0.213313,0.037333,0.000000,0.000000,160.000000,155.000000,5.000000,0.000000,0.000000,0.000000,0.000000,0.000000,0.000000,0.170666,0.213313,0.037333,0.000000,0.000000,160.000000,155.000000,5.000000,0.000000,0.000000,0.000000,0.000000,0.000000,0.000000;
#CREDIT:Daniel Van Eden;
#NOTES:
// measure 0
0000
0000
0000
0000
,  // measure 1
0000
0000
0000
0000
,  // measure 2
0000
0000
0000
0000
,  // measure 3
0000
0000
0000
0000
,  // measure 4
0000
0000
0000
0000
0000
0000
0000
0010
,  // measure 5
0000
1000
0000
0001
,  // measure 6
0000
0010
0000
0010
,  // measure 7
0000
0100
0000
0010
,  // measure 8
0000
0100
0000
0000
,  // measure 9
1001
0000
0001
0000
,  // measure 10
1000
0000
1000
0000
,  // measure 11
0010
0010
0010
0000
,  // measure 12
0000
0000
0110
0000
,  // measure 13
1000
0000
1000
0000
,  // measure 14
0001
0000
0001
0000
,  // measure 15
0010
0000
0100
0000
,  // measure 16
0100
0000
1000
1000
,  // measure 17
1000
0000
1000
0000
,  // measure 18
0001
0000
0001
0000
,  // measure 19
0100
0100
0100
0000
,  // measure 20
0000
0000
0110
0000
,  // measure 21
0001
0000
0001
0000
,  // measure 22
1000
0000
1000
0000
,  // measure 23
0010
0000
0000
0000
,  // measure 24
1000
0000
0100
0000
,  // measure 25
0010
0000
0000
0000
,  // measure 26
0001
0000
0000
0000
,  // measure 27
1000
0000
0000
0000
,  // measure 28
0100
0000
0100
0000
,  // measure 29
0100
0000
0000
0000
,  // measure 30
0010
0000
0001
0000
,  // measure 31
1000
1000
0000
0000
,  // measure 32
0000
0000
1000
0000
,  // measure 33
0001
0000
0000
0000
,  // measure 34
0010
0010
0010
0000
,  // measure 35
0001
0000
0001
0000
,  // measure 36
1000
0000
1000
0000
,  // measure 37
0010
0000
0010
0000
,  // measure 38
0100
0100
0100
0000
,  // measure 39
0010
0000
0010
0000
,  // measure 40
0010
0000
1000
0000
,  // measure 41
0100
0000
0100
0000
,  // measure 42
0010
0010
0010
0000
,  // measure 43
0001
0000
0001
0000
,  // measure 44
0001
0000
1000
0000
,  // measure 45
0100
0000
0100
0000
,  // measure 46
1000
1000
1000
0000
,  // measure 47
0010
0000
1000
0000
,  // measure 48
0100
0000
0001
0000
,  // measure 49
1001
0000
0010
0000
,  // measure 50
0010
0000
0100
0000
,  // measure 51
0100
0100
0100
0000
,  // measure 52
0000
0000
0000
0000
,  // measure 53
1000
0000
0100
0000
,  // measure 54
0100
0000
0010
0000
,  // measure 55
0001
0000
1000
1000
,  // measure 56
1000
0000
0001
0000
,  // measure 57
0100
0000
0010
0000
,  // measure 58
1000
0000
0001
0001
,  // measure 59
0001
0000
0010
0000
,  // measure 60
0001
0000
0100
0000
,  // measure 61
0010
0000
1000
0000
,  // measure 62
0001
0000
0100
0000
,  // measure 63
0010
0000
0100
0100
,  // measure 64
0100
0000
0000
0000
,  // measure 65
1001
0000
0010
0000
,  // measure 66
0001
0000
1000
0000
,  // measure 67
0100
0100
0100
0000
,  // measure 68
0010
0000
0100
0000
,  // measure 69
1000
0000
0001
0000
,  // measure 70
0100
0000
0010
0000
,  // measure 71
1000
0000
0001
0001
,  // measure 72
0001
0000
1000
1000
,  // measure 73
1000
0000
0100
0000
,  // measure 74
0010
0000
0001
0000
,  // measure 75
0100
0100
0100
0000
,  // measure 76
0010
0000
0100
0000
,  // measure 77
0001
0000
1000
0000
,  // measure 78
0100
0000
0010
0000
,  // measure 79
0001
0000
0000
0000
0000
0000
0000
0010
,  // measure 80
0000
0000
0000
0100
,  // measure 81
0000
0000
0000
0000
0000
1000
0000
0000
;

//---------------dance-single - ----------------
#NOTEDATA:;
#CHARTNAME:;
#STEPSTYPE:dance-single;
#DESCRIPTION:;
#CHARTSTYLE:;
#DIFFICULTY:Hard;
#METER:15;
#RADARVALUES:0.694398,0.878077,0.216533,0.216533,0.526398,651.000000,622.000000,29.000000,29.000000,0.000000,0.000000,0.000000,0.000000,0.000000,0.694398,0.878077,0.216533,0.216533,0.526398,651.000000,622.000000,29.000000,29.000000,0.000000,0.000000,0.000000,0.000000,0.000000;
#CREDIT:Daniel Van Eden;
#NOTES:
0000
0000
0000
0000
,
0000
0000
0000
0000
,
0000
0000
0000
0000
,
0000
0000
0000
0000
,
0000
0000
0000
0000
0000
0000
0000
0010
,
1001
0000
0000
1000
0001
0000
0000
0001
0010
0001
0100
0000
0110
0000
0000
1000
,
0010
0000
0000
0010
1000
0000
0000
1000
0100
1000
0010
0000
0101
0000
0000
0100
,
0001
1000
0010
1000
0100
0000
0010
0001
0010
0100
1000
0000
0001
0000
0100
0010
,
0100
0001
0100
0010
1000
0000
0002
0000
1003
0000
0000
0000
0000
0000
0000
0000
,
1100
0000
0000
0000
0000
0000
1000
0000
0010
0000
0000
0000
0110
0000
0000
0100
,
0010
1000
0100
0010
0100
1000
0010
0010
,
0200
0000
0000
0000
0301
0000
0002
0000
0000
0000
1003
0000
0100
0000
0000
0100
,
1000
0001
0000
0000
0100
0000
1010
1000
,
0100
0000
0000
0000
1000
0000
0001
0000
0010
0000
0000
0000
0110
0000
0000
0100
,
0010
0001
0100
0010
0100
0001
1000
0000
,
1000
0000
0100
0000
0010
0000
0001
0000
0001
0000
0000
0000
0010
0000
0000
0010
,
0001
1000
0010
0100
0001
0010
0001
1000
,
1000
0000
0000
0000
0001
0000
0010
0000
0100
0000
0000
0000
0011
0000
0000
0001
,
0100
1000
0100
0010
0100
0001
0010
0000
,
0200
0000
0000
0000
1300
0000
2000
0000
0000
0000
3010
0000
0100
0000
0000
0100
,
0001
1000
0000
0000
0100
0000
0011
0010
,
0001
0000
0000
0000
1000
0000
0010
0000
0100
0000
0001
0000
0010
0000
0010
0100
,
0010
0001
1000
0100
0001
0100
1000
0010
,
0100
0010
1000
0100
0100
0010
0001
1000
,
0100
1000
0001
0110
1000
0110
0001
0001
,
2002
0000
0000
0003
0200
0000
0000
3300
,
0022
0000
0000
0030
0200
0000
0000
0303
,
2020
0000
0000
0030
0002
0000
0000
3003
,
1100
0000
1000
0000
0100
0000
1000
0000
0010
0000
0100
0000
0001
1000
0001
1000
,
0001
0100
1000
0100
0010
0100
0001
0100
,
0010
0000
0000
1000
0000
0000
0000
0000
0000
0001
0000
0000
0000
0000
0000
0000
0000
0000
0000
0000
0000
0000
0000
0000
1000
0000
0000
0000
0100
0000
0000
0000
0010
0000
0000
0000
0001
0000
0000
0000
0010
0000
0000
0000
0100
0000
0000
0000
,
1000
0000
1020
0200
0030
0301
0010
0100
,
0001
0000
0100
0000
1000
0000
0010
0000
0100
0001
1000
0010
1000
0001
0100
0001
,
1000
0000
0000
1000
0000
1000
0000
0000
0000
0000
0000
1000
0001
0000
0100
0000
,
1010
0000
0000
0010
0000
0010
0100
0000
0001
0000
0000
1000
0001
0000
0010
0000
,
0100
0000
0000
0010
0000
0010
0001
0000
0100
0000
0000
0010
1000
0000
1000
0000
,
0010
0000
1000
0001
0000
0100
0001
0000
1000
0000
0100
1000
0100
0000
0010
0000
,
0001
0000
1000
0001
0000
0001
0100
0000
0010
0000
1000
0001
1000
0000
0100
0000
,
0010
0000
0001
0010
0000
0010
0001
0000
1000
0000
0001
0010
0001
0000
0100
0000
,
0010
0000
0000
0100
0000
0100
0001
0000
0010
0000
0000
0100
1000
0000
1000
0000
,
0001
0000
0000
0010
0000
0010
0100
0000
1000
0000
0000
0010
0100
0000
0100
0000
,
0001
0000
1000
0010
0000
0010
1000
0000
0001
0000
1000
0100
1000
0000
0001
0000
,
1000
0000
0001
0100
0000
0100
0001
0000
1000
0000
0001
0010
0001
0000
1000
0000
,
0001
0000
0100
0010
0000
0100
0010
0000
1000
0000
0001
0100
0010
0000
1000
0000
,
0001
0000
1000
0100
0010
0100
1000
0000
0001
0000
0100
0001
1000
0000
0010
0000
,
1000
0000
0001
0010
0000
0010
0001
0000
1000
0000
0001
0100
0001
0000
1000
0000
,
0001
0000
1000
0100
0000
0100
1000
0000
0001
0000
1000
0010
1000
0000
0001
0000
,
1000
0000
0001
0100
0010
0100
0001
0000
0010
0000
0100
1000
0001
1000
0001
0000
,
0010
0001
0100
0010
1000
0100
0010
0001
1000
0001
1000
0010
0100
0000
0001
1000
,
0001
0100
0000
0100
0010
0000
1000
0010
,
0100
0000
0001
1000
0000
0100
0010
0010
,
0002
0000
1003
2000
0000
3001
0000
0000
,
0000
0000
0000
1001
,
0010
0100
1000
0001
1000
0000
0010
0100
,
0010
1000
0001
0010
0100
1000
0100
0010
,
0001
1000
0010
0100
0100
0001
2000
0000
,
3010
0100
0010
1000
0100
0010
0100
0100
,
0011
0000
0000
0000
0001
0000
0100
0000
0101
0000
0000
0000
0001
0000
0100
0010
,
0100
0001
1000
0100
0010
0001
1000
0001
,
0102
0000
0000
0000
1003
0000
2000
0000
0000
0000
3010
0000
0010
0100
0001
0000
,
0000
0000
1001
0000
0000
0000
0000
0000
0100
0010
1000
0100
0010
0001
1000
0001
,
0100
0000
0000
0000
0010
0000
1000
0000
1100
0000
0000
0000
0100
0000
1000
0001
,
1000
0010
0100
0001
0010
0110
0100
1000
,
0010
1000
0001
0100
0110
0000
0002
0000
,
0013
0000
0100
0000
0000
0000
0000
0000
0002
0003
2000
3000
0010
0000
0010
1000
,
0001
0000
1000
0001
0000
0100
0001
0000
1000
0000
0001
0010
0100
0000
1000
0000
,
0010
0000
1000
0100
0000
0010
0100
0000
1000
0000
0010
0100
0001
0000
1000
0000
,
0010
0000
1000
0010
0100
0000
0100
0000
0010
0100
0001
1000
0001
0000
0001
0000
,
1000
0000
0010
1000
0000
1000
0100
0000
0010
0000
0000
0010
0001
0000
0001
0000
,
1000
0000
0001
1000
0000
0100
1000
0000
0001
0000
1000
0010
0100
0000
0001
0000
,
0010
0000
0001
0100
0000
0010
0100
0000
0001
0000
0010
0100
1000
0000
0001
0000
,
0010
0000
0100
1000
0000
1000
0100
0000
0010
0000
0001
1000
0010
0000
0010
0000
,
1000
0000
0010
1000
0100
0010
0001
0000
1000
0000
0001
0000
1000
0000
0010
0000
,
0010
0000
1000
0010
0000
0100
0001
0000
1000
0000
0001
0010
0001
0000
1000
0000
,
0010
0000
1000
0100
0000
0010
0001
0000
1000
0000
0001
0100
0001
0000
1000
0000
,
0010
0000
1000
0100
0010
0000
0010
0000
0100
0010
0001
1000
0001
0000
0100
0000
,
0010
0000
1000
0010
0000
0010
0100
0000
0001
0100
0010
1000
0100
0010
0001
1000
,
0100
0000
0010
0001
0000
1000
0100
0000
0010
0000
0001
1000
0001
0000
0100
0000
,
0010
0000
1000
0001
0000
0100
0010
0000
1000
0000
0001
1000
0100
0000
0010
0000
,
0012
0000
0000
0000
0013
0100
1000
2010
,
0000
0000
3001
0100
0001
0000
0010
0000
0000
0000
0010
0000
2100
0000
0000
0000
,
3100
0000
1000
0000
0001
0000
1000
0010
1000
0000
0202
0000
0000
0000
0000
0000
,
0000
0000
0000
0000
,
0000
0000
0000
0000
,
0303
0000
0000
0000
;

//---------------dance-single - ----------------
#NOTEDATA:;
#CHARTNAME:;
#STEPSTYPE:dance-single;
#DESCRIPTION:;
#CHARTSTYLE:;
#DIFFICULTY:Medium;
#METER:12;
#RADARVALUES:0.491732,0.602931,0.104533,0.291199,0.138133,461.000000,447.000000,14.000000,39.000000,0.000000,0.000000,0.000000,0.000000,0.000000,0.491732,0.602931,0.104533,0.291199,0.138133,461.000000,447.000000,14.000000,39.000000,0.000000,0.000000,0.000000,0.000000,0.000000;
#CREDIT:Daniel Van Eden;
#NOTES:
0000
0000
0000
0000
,
0000
0000
0000
0000
,
0000
0000
0000
0000
,
0000
0000
0000
0000
,
0000
0000
0000
0000
0000
0000
0000
1000
,
0001
0000
0000
0001
1000
0000
0100
0000
0010
0000
0010
0000
0100
0000
0000
0000
,
1000
0000
0000
1000
0010
0000
0100
0000
0001
1000
0001
0000
0010
0000
0000
0010
,
0100
0000
0000
0100
0010
0000
0001
0000
1000
0000
1000
0000
0010
0000
0000
0010
,
1000
0000
0001
1000
0001
0000
0020
0000
0230
0000
0300
0000
0000
0000
0000
0000
,
1001
0000
0000
0010
0100
0000
1000
0000
,
1000
0000
0010
0100
0000
0100
0010
1000
,
0002
0000
1003
2000
0000
3001
0010
0000
,
0001
1000
0000
0000
1010
0000
1000
1000
,
1000
0000
0001
0010
0100
0000
1000
0000
,
0010
0000
0010
0100
0000
0100
0010
0000
,
1000
0010
0100
0001
1000
0001
0100
0000
,
0010
1000
0100
0010
0001
1000
0001
0100
,
0010
0000
0100
0001
0000
1000
0001
0000
,
0010
0000
0100
0010
0000
0010
0001
0000
,
2000
0000
3001
0002
0000
1003
0010
0000
,
1000
0001
0000
0000
0011
0000
0001
0001
,
0001
0000
0010
0100
1000
0000
0010
0010
,
0000
1000
0000
0001
0000
0001
0100
0010
,
0000
0010
1000
0001
0001
1000
0100
0010
,
0001
0010
0100
1000
0010
0100
0001
1000
,
2002
0000
3003
0000
,
0220
0000
0330
0000
,
2020
0000
3030
0000
,
2200
3300
0220
0330
,
0012
0100
0010
1000
,
1003
0000
0000
0000
0000
0000
0000
0000
0000
0010
0000
0000
0000
0000
0000
0000
0000
0000
0000
0000
0000
0000
0000
0000
0010
0000
0000
0000
1000
0000
0000
0000
0010
0000
0000
0000
0100
0000
0000
0000
0010
0000
0000
0000
0100
0000
0000
0000
,
0001
0000
2100
0001
0000
0000
3100
0010
,
0001
0000
1000
0000
0010
0000
0100
0000
0001
0000
0000
0001
0000
0000
0001
0000
,
0020
0000
0000
0230
0000
0000
1300
0001
,
1000
0000
0010
0100
0010
0100
0000
0000
,
0110
0000
0000
0010
0000
0000
0010
0000
1000
0000
0000
1000
0000
0000
1000
0000
,
0001
0000
0000
0001
0000
0000
0001
0000
0100
0000
0001
0000
0100
0000
0000
0000
,
1020
0000
0000
0230
0000
0000
0301
1000
,
0001
0000
0010
0100
1000
0001
0000
0000
,
0100
0000
0000
0100
0000
0000
0100
0000
0001
0000
0000
0001
0000
0000
0001
0000
,
1000
0000
0000
1000
0000
0000
1000
0000
0010
0000
0000
0010
0000
0000
0010
0000
,
1000
0001
1000
0100
0010
0100
1000
0010
,
0200
0000
0301
1000
0001
1000
0010
0010
,
0010
0000
0000
1000
0000
0000
0010
0000
0100
0000
0000
0001
0000
0000
0100
0000
,
0001
0000
0000
1000
0000
0000
0001
0000
0010
0000
0100
0000
0010
0000
0001
0000
,
0001
1000
0100
0010
0100
1000
0010
0100
,
0002
0000
1003
0010
0100
0001
1000
1000
,
1000
0000
0000
0100
0000
0000
1000
0000
0001
0000
0000
0010
0000
0000
0001
0000
,
0100
0000
0000
0010
0000
0000
0100
0000
0010
0000
1000
0000
0100
0000
0010
0001
,
1000
0000
0000
0001
0010
0000
0100
0000
,
0100
0000
0000
1000
0000
0000
0001
0001
,
2000
0000
3010
0020
0000
1030
0100
0000
,
0010
0010
0001
1001
,
1000
0000
0010
1000
0100
0000
0010
0100
,
0010
0000
0000
0100
0000
1000
0001
0000
,
0000
0010
0001
0100
0010
1000
0002
0000
,
0103
0010
1000
0100
0010
0001
0010
0010
,
0010
0000
0001
1000
0001
0000
1000
0010
,
1000
0100
1000
0000
0001
0001
1000
0001
,
0200
0000
0310
0020
0000
0130
0001
0000
,
1000
0001
1000
0000
0001
0100
0010
1000
,
0100
0000
0010
0100
0010
0000
0001
1000
,
0010
1000
0001
0000
0100
0001
1000
0010
,
1000
0100
0010
0001
0001
1000
0020
0000
,
0130
0001
0000
0000
0000
0000
0000
0000
,
1001
0000
0000
0001
0000
0000
1000
0000
0010
0000
1000
0000
0100
0000
0010
0000
,
0001
0000
0000
1000
0000
0000
1000
0000
0010
0000
0100
0000
0010
0000
0010
0000
,
2000
0000
3001
0002
0000
1003
0100
0100
,
0100
0000
0000
0010
0000
0000
0010
0000
0001
0000
0000
0000
1000
0000
0001
0000
,
1000
0000
0000
1000
0000
0000
0010
0000
1000
0000
0100
0000
0010
0000
0001
0000
,
0100
0000
0000
0001
0000
0000
0001
0000
1000
0000
0100
0000
0010
0000
0001
0000
,
1000
0001
0100
0010
0010
1000
0002
0000
,
0013
0100
1000
0100
0010
0001
1000
0001
,
1000
0000
0000
0001
0000
0000
1000
0000
0010
0000
1000
0000
0001
0000
0100
0000
,
0001
0000
0000
1000
0000
0000
0001
0000
0010
0000
0001
0000
1000
0000
0100
0000
,
0020
0000
0130
0200
0000
0310
0001
0001
,
0001
0000
0000
0100
0000
0000
0100
0000
0010
0000
1000
0000
0100
0000
0010
0000
,
0001
0000
0000
0100
0000
0000
0001
0000
0100
0000
0010
0000
1000
0000
0010
0000
,
1000
0000
0000
0100
0000
0000
1000
0000
0010
0000
1000
0000
0100
0000
0010
0000
,
0002
0000
0000
0000
0013
0100
1000
0020
,
0000
0000
0000
1030
0001
0010
0200
0000
,
0000
0000
0310
1000
0100
0020
0000
0000
,
0000
0000
0000
0000
,
0000
0000
0000
0000
,
0000
0000
0000
0000
,
0030
0000
0000
0000
;

//---------------dance-single - ----------------
#NOTEDATA:;
#CHARTNAME:;
#STEPSTYPE:dance-single;
#DESCRIPTION:;
#CHARTSTYLE:;
#DIFFICULTY:Easy;
#METER:7;
#RADARVALUES:0.255999,0.380799,0.074666,0.112000,0.000000,240.000000,230.000000,10.000000,15.000000,0.000000,0.000000,0.000000,0.000000,0.000000,0.255999,0.380799,0.074666,0.112000,0.000000,240.000000,230.000000,10.000000,15.000000,0.000000,0.000000,0.000000,0.000000,0.000000;
#CREDIT:Daniel Van Eden;
#NOTES:
0000
0000
0000
0000
,
0000
0000
0000
0000
,
0000
0000
0000
0000
,
0000
0000
0000
0000
,
0000
0000
0000
0000
0000
0000
0000
0010
,
0000
0000
1000
0001
1000
0000
0100
0000
,
0010
0000
0001
0000
1000
0001
0100
0000
,
0010
0000
1000
0000
0100
0010
0001
0000
,
1000
0000
0010
0010
0010
0000
0000
0000
,
1001
0000
0001
1000
,
1000
0000
0000
0100
0000
0000
0010
0000
,
0001
0000
0000
1000
0000
0000
0000
0000
,
0010
0000
1000
0001
,
1000
0010
0100
0001
,
0010
0000
0000
0100
0000
0000
0010
0000
,
0000
0001
1000
0100
,
0010
0001
1000
0010
,
1000
0010
0100
0001
,
0001
0000
0000
1000
0000
0000
0001
0000
,
0010
0000
0000
0010
0000
0000
0000
0000
,
0100
0000
0010
0100
,
1000
0010
1000
0001
,
1000
0100
0010
0001
,
1000
0010
1000
0100
,
0010
0001
0010
0100
,
2000
0000
3000
0000
,
0200
0000
0300
0000
,
0020
0000
0030
0000
,
0002
0003
2000
3000
,
0220
0000
0000
0000
,
0000
0330
1000
0010
,
0100
2002
0000
0000
,
0000
0000
3003
0000
,
0010
0000
0000
0001
0000
0000
0010
0000
,
0100
0100
0100
0000
,
1000
0000
1010
0000
,
1000
0000
0101
0000
,
0100
0000
0000
0001
0000
0000
0100
0000
,
0010
0010
0010
0000
,
1000
0000
0011
0000
,
0001
0000
1100
0000
,
1000
0000
0000
0100
0000
0000
0010
0000
,
0001
0001
0001
0000
,
0010
0000
1001
0000
,
0100
0000
1001
0000
,
0001
0000
0000
0100
0000
0000
0010
0000
,
1000
1000
1000
0000
,
0001
0000
0010
0000
,
0100
0100
1000
0010
,
0100
0000
0010
0001
,
0001
0000
0000
1000
0000
0000
0001
0000
,
0100
0000
0000
0100
0000
0000
0000
0000
,
0000
0000
0000
0000
,
0000
0010
1000
0001
,
1000
0000
0000
0100
0000
0000
0010
0000
,
0001
1000
0010
1000
,
0100
0010
0001
1000
,
1000
0000
0010
1000
,
1000
0000
0000
0001
0000
0000
1000
0000
,
0010
0000
0000
0010
0000
0000
0200
0300
,
0000
0001
0000
0000
0010
0000
0001
0000
,
0100
0010
1000
0001
,
0001
0000
0000
1000
0000
0000
0001
0000
,
0010
0100
1000
0020
,
0130
0000
0000
0000
,
1000
0100
1000
0100
,
0010
0001
1000
0001
,
0100
0000
0000
0100
0000
0000
0010
0000
,
0010
0000
1001
0000
,
0010
0001
0010
0001
,
0100
0010
1000
0001
,
1000
0100
0100
0010
,
0001
1000
0010
0100
,
0100
0001
1000
0010
,
1000
0001
1000
0001
,
0010
0000
0000
0010
0000
0000
0010
0000
,
0001
0000
1000
0100
,
0010
0100
0010
0100
,
0010
0000
0000
0001
0000
0000
0001
0000
,
2000
0000
0000
0000
3010
0000
0000
0020
,
0000
0000
0000
0130
0000
0100
0200
0000
,
0000
0000
0301
0001
0001
0002
0000
0000
,
0000
0000
0000
0000
,
0000
0000
0000
0000
,
0000
0000
0000
0000
,
0003
0000
0000
0000
;
