#VERSION:0.83;
#TITLE:GT40;
#SUBTITLE:(Maxo Bootleg);
#ARTIST:Lindsay Lowend;
#TITLETRANSLIT:;
#SUBTITLETRANSLIT:;
#ARTISTTRANSLIT:;
#GENRE:;
#ORIGIN:;
#CREDIT:;
#BANNER:GT40 (Maxo Bootleg).png;
#BACKGROUND:GT40 (Maxo Bootleg)-bg.png;
#PREVIEWVID:;
#JACKET:GT40 (Maxo Bootleg)-jacket.png;
#CDIMAGE:;
#DISCIMAGE:;
#LYRICSPATH:;
#CDTITLE:;
#MUSIC:GT40 (Maxo Bootleg).ogg;
#OFFSET:-0.116253;
#SAMPLESTART:95.213753;
#SAMPLELENGTH:10.500000;
#SELECTABLE:YES;
#DISPLAYBPM:100.000000:400.000000;
#BPMS:0.000=200.000,
64.000=400.000,
194.000=200.000,
194.500=100.000,
194.750=200.000,
195.250=400.000,
195.750=800.000,
196.750=400.000,
198.750=200.000,
199.250=100.000,
199.500=200.000,
200.000=400.000,
200.500=800.000,
201.500=400.000,
203.500=200.000,
204.000=100.000,
204.250=200.000,
204.750=400.000,
205.250=800.000,
205.750=400.000,
214.000=200.000,
228.000=400.000,
296.000=200.000,
312.000=100.000,
312.250=200.000,
312.500=400.000,
313.000=200.000,
420.000=400.000,
453.000=200.000,
461.000=400.000,
525.000=100.000,
525.500=200.000,
526.000=400.000,
528.000=200.000,
529.000=100.000,
529.500=200.000,
530.000=400.000,
533.000=200.000,
533.500=100.000,
534.000=200.000,
535.000=400.000,
537.000=200.000,
537.500=100.000,
541.500=90.000,
541.750=80.000,
542.000=70.000,
542.250=60.000,
542.500=50.000,
542.750=40.000;
#STOPS:194.750=0.300,
199.500=0.300,
204.250=0.300,
420.000=1.050;
#DELAYS:;
#WARPS:;
#TIMESIGNATURES:0.000=4=4;
#TICKCOUNTS:0.000=4;
#COMBOS:0.000=1;
#SPEEDS:0.000=1.000=0.000=0;
#SCROLLS:0.000=1.000;
#FAKES:;
#LABELS:0.000=Song Start;
#BGCHANGES:;
#KEYSOUNDS:;
#ATTACKS:
;

//---------------dance-single - ----------------
#NOTEDATA:;
#CHARTNAME:;
#STEPSTYPE:dance-single;
#DESCRIPTION:;
#CHARTSTYLE:;
#DIFFICULTY:Challenge;
#METER:18;
#RADARVALUES:0.947449,1.457544,0.578144,0.437738,0.276683,803.000000,733.000000,70.000000,53.000000,0.000000,0.000000,0.000000,0.000000,0.000000,0.947449,1.457544,0.578144,0.437738,0.276683,803.000000,733.000000,70.000000,53.000000,0.000000,0.000000,0.000000,0.000000,0.000000;
#CREDIT:Daniel Van Eden;
#DISPLAYBPM:100.000000:400.000000;
#NOTES:
// measure 0
0000
0000
0000
0000
,  // measure 1
0000
0000
0000
0000
,  // measure 2
0000
0000
0000
0000
,  // measure 3
0000
0000
0000
0000
,  // measure 4
0000
0000
0000
0000
,  // measure 5
0000
0000
0000
0000
,  // measure 6
0000
0000
0000
0000
,  // measure 7
0000
0000
0000
0000
,  // measure 8
0010
1000
0001
1000
0000
0100
1000
0000
,  // measure 9
0000
0100
1000
0100
0001
0100
0010
0001
,  // measure 10
0100
0010
0100
0001
0000
0001
1000
0100
,  // measure 11
0010
0001
0010
0100
0000
0100
1000
0010
,  // measure 12
1000
0001
1000
0010
1000
0100
0010
0100
,  // measure 13
0010
0000
0001
0000
1000
0000
0001
0000
0100
0001
0100
0001
1000
0001
1000
0001
,  // measure 14
0010
0100
0010
0001
0001
1001
0000
2200
,  // measure 15
0000
3300
0001
1000
0001
0000
1000
0010
,  // measure 16
2000
0000
3000
0010
,  // measure 17
1000
2002
3003
0010
,  // measure 18
0001
0000
0010
0100
0010
0001
1000
0000
,  // measure 19
0010
0000
0100
0000
0010
0000
1000
0001
,  // measure 20
1000
0000
0000
1000
0001
0000
0100
0001
,  // measure 21
0100
1010
0000
1100
,  // measure 22
0000
0000
1000
0000
0001
0000
1000
0100
,  // measure 23
0010
0000
0100
0000
0010
0001
1000
0100
,  // measure 24
0010
0000
0001
0100
0010
0000
1000
0001
,  // measure 25
1000
0001
0100
0010
,  // measure 26
1000
0100
1000
0000
0001
0000
0100
0001
,  // measure 27
0100
0010
1000
0001
,  // measure 28
2000
0000
3001
0100
0010
0000
2000
0000
,  // measure 29
3100
0010
0001
0000
0010
0001
0010
0001
,  // measure 30
2000
0000
3010
0000
0100
0001
1000
0000
,  // measure 31
0010
0000
1000
0000
0001
1000
0001
0100
,  // measure 32
0010
0000
0100
0100
,  // measure 33
0001
0000
1010
0000
0000
1000
0010
0000
,  // measure 34
0100
0000
0001
0000
0100
0000
0001
1000
,  // measure 35
0001
0000
0010
0100
0010
0001
1000
0010
,  // measure 36
0100
0000
0010
1000
0001
0000
1001
0000
,  // measure 37
0002
0013
0100
0000
0010
0100
0010
0100
,  // measure 38
1000
0000
0010
1000
0001
0000
1000
0000
,  // measure 39
0102
0000
1003
1000
,  // measure 40
1100
0000
1000
0100
1000
0000
0010
0000
,  // measure 41
0100
0000
0001
0100
0001
0000
0001
0000
,  // measure 42
0100
0010
0100
0010
0100
0000
0010
0100
,  // measure 43
0001
1000
0001
1000
0010
1000
0010
1000
,  // measure 44
0002
0000
0003
0000
,  // measure 45
0010
0001
0010
0001
0010
0000
0001
0100
,  // measure 46
0001
0000
1000
0001
1000
0000
0010
1000
,  // measure 47
0010
1000
0100
0010
0001
0100
0010
1000
,  // measure 48
0200
0000
0300
0000
,  // measure 49
0000
0000
0000
0022
0000
0000
0000
0000
0000
0000
0000
0033
0000
0000
0000
0000
,  // measure 50
0000
0000
0000
2002
0000
0000
0000
3003
,  // measure 51
0000
0000
0220
0000
,  // measure 52
0000
0330
2020
0000
,  // measure 53
0000
0000
3030
0000
1001
1000
0100
0010
,  // measure 54
0001
0000
1000
0000
0100
0000
1000
0000
0001
0010
0000
0200
0000
0000
0000
0000
,  // measure 55
0310
0001
1000
0001
0100
0010
0000
0000
0000
2010
0000
0000
,  // measure 56
0000
3001
1000
0100
0010
0100
1000
0001
,  // measure 57
0100
0001
0100
0001
1000
0010
1000
0100
,  // measure 58
0010
0000
0000
0010
0001
0010
0100
0000
,  // measure 59
1001
0000
0000
0000
0020
0030
0000
0000
,  // measure 60
0010
0000
0001
0000
1000
0010
0000
0000
,  // measure 61
0010
1000
0010
1000
0100
0010
0001
0010
,  // measure 62
0100
0000
1000
0001
0000
1000
0010
0000
,  // measure 63
0010
0000
0100
0001
0100
0000
0010
0000
,  // measure 64
1000
0000
0001
1000
0010
0000
1000
0000
,  // measure 65
0100
0000
0010
0000
0100
0000
0010
0001
,  // measure 66
1000
0000
0001
1000
0000
0001
0100
0000
,  // measure 67
0010
1000
0010
1000
0001
0000
0000
0000
,  // measure 68
1000
0000
0100
1000
0001
0000
0010
0000
,  // measure 69
0100
0000
0010
0001
1000
0000
0010
0000
,  // measure 70
0100
0001
0100
0010
0000
0000
1000
0000
,  // measure 71
0001
0000
1000
0000
0100
0010
0001
0000
,  // measure 72
1000
0000
0000
0001
0000
0000
0001
0000
,  // measure 73
1000
0000
0001
0010
0100
0000
1000
0000
,  // measure 74
0010
0000
1000
0001
0010
0000
0100
0000
1000
0001
0010
0000
0100
0000
0010
0001
,  // measure 75
0100
0000
0010
0000
1000
0100
0010
0000
0100
1000
0010
0000
0100
0001
1000
0000
,  // measure 76
1002
0000
0000
0000
0000
0000
0100
0000
0000
0000
1003
0000
0100
1000
0100
0000
,  // measure 77
0020
0000
0000
0000
0031
0000
0100
0000
0001
0000
1000
0000
0001
0100
0001
0000
,  // measure 78
0022
0033
0000
0000
0010
0000
0001
0000
0100
0000
0001
0000
0010
0100
1000
0000
,  // measure 79
1010
0000
0000
0000
0010
0000
1000
0000
0100
0000
1000
0000
0010
0100
0001
0000
,  // measure 80
1000
0001
1000
0001
1000
0010
0100
0000
0010
0000
0100
0000
0001
1000
0001
0000
,  // measure 81
0022
0000
0033
0000
0220
0000
0330
0000
2200
0000
3300
0000
1000
0001
1000
0000
,  // measure 82
0101
0000
0100
0000
0000
0000
0100
0000
0001
0010
0100
0000
0100
0000
0000
0000
,  // measure 83
0100
1000
0010
0000
0010
0000
0000
0000
0110
0000
0000
0000
0010
0100
0001
0000
,  // measure 84
2100
0000
0000
0000
3010
0000
0100
0000
0000
0000
0010
0000
1000
0100
1000
0000
,  // measure 85
0010
0000
0100
0000
1000
0000
0100
0000
0001
0000
0010
0000
0100
0010
0001
0000
,  // measure 86
0101
0000
0000
0000
0100
0000
0001
0000
1000
0000
0000
0000
0100
1000
0010
0000
,  // measure 87
1010
0000
0000
0000
0010
0000
1000
0000
0001
0000
0000
0000
0010
0001
1000
0000
,  // measure 88
0100
0000
0010
0001
0100
0000
0010
1000
,  // measure 89
0100
0000
1000
0000
0010
0100
0001
0000
0100
0010
1000
0100
0010
0001
0100
0000
,  // measure 90
0220
0000
0000
0000
,  // measure 91
0000
0000
0000
0000
,  // measure 92
0330
0000
0000
0000
,  // measure 93
0000
0000
0000
0000
,  // measure 94
0010
1000
0100
0001
0000
0100
0010
0001
,  // measure 95
0100
1000
0000
0100
0010
1000
0001
0010
,  // measure 96
0100
0010
0002
1000
1003
0000
2010
0000
,  // measure 97
3100
0010
0001
1000
0001
0100
0010
0010
,  // measure 98
1000
0000
0000
0000
0010
0000
0100
0010
0100
0000
0001
0000
0010
0000
0000
0000
,  // measure 99
0110
0000
0000
0000
0001
0000
0010
0100
0010
0000
0001
0100
0001
1000
0100
0010
,  // measure 100
0001
0000
1000
0000
1000
0010
0001
0000
0010
0000
1000
0000
1000
0100
0001
0100
,  // measure 101
1000
0000
0010
1000
0100
0000
0010
0000
0001
0010
0100
1000
0100
0010
0001
0100
,  // measure 102
0010
0000
1000
0010
0100
0000
0001
0000
0010
0000
0001
0010
0100
0000
0010
0000
,  // measure 103
0001
0000
1000
0001
0100
0000
0001
1000
0010
0000
1000
0000
0001
0000
1000
0000
,  // measure 104
0100
0000
0010
0000
0010
0000
0001
0000
0001
1000
0001
0000
1000
0100
0010
0001
,  // measure 105
1000
0000
1010
0000
0010
1000
0001
0000
,  // measure 106
0101
0000
0100
0001
1000
0000
0100
0000
,  // measure 107
1100
0001
0001
1001
,  // measure 108
1000
1010
0010
0100
,  // measure 109
0010
0000
0100
0000
0001
0100
0001
0000
,  // measure 110
0010
0110
0011
0110
,  // measure 111
0010
0001
1000
0000
1010
0000
1010
0000
,  // measure 112
1001
0000
1010
0000
0010
0100
0001
0000
,  // measure 113
1000
0000
0000
0000
0010
0000
1000
0001
0100
0000
0010
1000
0100
0000
0010
0001
,  // measure 114
0100
0000
0010
0100
0001
0000
0010
0100
2000
0000
3002
0000
0203
0000
0310
0000
,  // measure 115
1000
1000
1010
0000
0010
1000
0001
0000
,  // measure 116
0101
0101
0110
0101
,  // measure 117
0100
0001
0010
0000
0110
0000
0110
0000
,  // measure 118
1100
0000
0110
0000
0000
0100
0010
0000
,  // measure 119
0100
0010
0001
0000
1000
0010
0100
0000
,  // measure 120
0001
0000
1000
0100
1000
0000
0001
0000
,  // measure 121
0010
0110
0100
1100
,  // measure 122
1000
0010
1010
0110
,  // measure 123
1000
0000
1001
0000
0000
0001
0100
0000
,  // measure 124
0010
1010
1001
1010
,  // measure 125
0010
0100
0001
0000
0022
0033
0022
0033
,  // measure 126
2020
3030
2002
3003
0100
0000
1001
0000
,  // measure 127
0010
0000
0011
0000
0001
0010
0100
0000
,  // measure 128
1000
0000
0010
0000
1000
0010
0100
0000
,  // measure 129
0001
0000
1000
0000
0001
0100
0010
0000
,  // measure 130
1000
0000
0001
0010
0100
1000
0001
0010
,  // measure 131
0001
1000
0200
0010
0310
0000
0011
0000
,  // measure 132
0000
0011
0000
0000
0000
0000
0102
0000
0000
1000
0000
0000
1003
0000
0000
0010
0000
0000
0100
0000
0000
0010
0000
0000
,  // measure 133
0100
0000
0000
0000
0000
0000
0000
0000
0101
0000
0000
0000
0001
0100
0010
1000
0001
0000
0000
0000
1000
0000
0100
0000
0010
0000
0000
0000
0000
0000
0000
0000
,  // measure 134
0010
0001
0100
2002
0000
0000
0000
0000
,  // measure 135
0000
0000
0000
3003
;
