#TITLE:GT40;
#SUBTITLE:(ABSRDST Remix);
#ARTIST:Lindsay Lowend;
#TITLETRANSLIT:;
#SUBTITLETRANSLIT:;
#ARTISTTRANSLIT:;
#GENRE:;
#CREDIT:;
#BANNER:GT40 (ABSRDST Remix).png;
#BACKGROUND:GT40 (ABSRDST Remix)-bg.png;
#LYRICSPATH:;
#CDTITLE:;
#MUSIC:GT40 (ABSRDST Remix).ogg;
#OFFSET:-0.148825;
#SAMPLESTART:46.283875;
#SAMPLELENGTH:11.707317;
#SELECTABLE:YES;
#DISPLAYBPM:164.000000;
#BPMS:0.000000=164.000000
,342.000000=82.000000
,346.000000=164.000000
,372.500000=20.500000
,373.812500=164.000000
;
#STOPS:120.000000=1.829000,
307.000000=1.829000
;
#BGCHANGES:;
#KEYSOUNDS:;
#ATTACKS:;

//---------------dance-single - ----------------
#NOTES:
     dance-single:
     :
     Challenge:
     15:
     0.602463,0.800618,0.274020,0.227236,0.334171,631.000000,590.000000,41.000000,34.000000,0.000000,0.000000,0.602463,0.800618,0.274020,0.227236,0.334171,631.000000,590.000000,41.000000,34.000000,0.000000,0.000000:
// measure 0
0000
0000
0000
0000
,  // measure 1
0000
0000
0000
0000
,  // measure 2
0000
0000
0000
0000
,  // measure 3
0000
0000
0000
0000
,  // measure 4
0000
0000
0000
0000
,  // measure 5
0000
0000
0000
0000
,  // measure 6
0000
0000
0000
0000
,  // measure 7
0000
0000
0000
0000
,  // measure 8
1001
0000
0001
0100
0010
0000
1000
0000
,  // measure 9
1000
0000
0000
0001
0000
0000
1000
0000
,  // measure 10
0010
0000
0100
0010
0000
0000
1000
0100
,  // measure 11
0010
0100
0001
0100
1000
0010
0100
0001
,  // measure 12
1000
0000
0010
1000
0001
0000
0100
0000
,  // measure 13
0010
0000
1000
0010
0000
1000
0100
0000
,  // measure 14
0000
0010
0001
1000
1000
0000
0010
0000
,  // measure 15
0100
0001
0000
1000
0000
0001
0100
0010
,  // measure 16
1000
0000
0001
0010
0100
0000
1000
0000
,  // measure 17
1000
0000
1000
0001
0100
0010
1000
0000
,  // measure 18
0001
0000
0100
0010
0000
0000
1000
0010
,  // measure 19
0100
0010
0001
0010
1000
0100
0010
0001
,  // measure 20
1000
0000
0010
0100
0001
0000
1000
0000
,  // measure 21
0010
0000
0100
0010
0000
1000
0100
0000
,  // measure 22
0000
0010
0001
0100
0100
0000
0001
0000
,  // measure 23
1000
0100
0000
0010
0000
0100
1000
0001
,  // measure 24
0010
0000
0001
0010
0100
0000
1000
0000
,  // measure 25
1000
0000
0000
0010
0000
0000
1000
0000
,  // measure 26
0010
0000
0100
0010
0000
0000
1000
0001
,  // measure 27
0100
0001
0010
0001
1000
0010
0100
0001
,  // measure 28
1000
0000
0010
1000
0100
0000
0010
0000
,  // measure 29
0001
0000
0010
0001
0000
0100
0010
0000
,  // measure 30
2002
3003
0000
0000
0000
0000
0000
0000
0010
0000
0001
0000
0010
0000
0100
0000
0010
0000
0100
0000
1000
0000
0001
0000
1000
0000
0000
0000
0010
0000
0000
0000
,  // measure 31
1000
0000
1001
0000
0000
0000
0100
0000
0001
0000
0000
0001
1000
0000
0010
1000
,  // measure 32
0010
0000
0010
0000
0100
0000
0101
0000
0000
1100
0000
0000
1001
0000
1000
0000
,  // measure 33
0010
1010
1000
0100
0010
0110
0100
0010
,  // measure 34
0001
0000
0100
0000
0001
0100
0010
1000
0100
1000
0010
0100
0001
0000
0010
0000
,  // measure 35
0001
0000
1001
0000
0000
0000
1000
0000
0010
0000
0000
0010
1000
0000
0001
0100
,  // measure 36
0000
0100
0010
1000
0100
0000
0011
0001
,  // measure 37
0100
0010
1000
1000
0001
0010
1000
0010
,  // measure 38
0001
0000
0100
0000
0010
0100
0001
1000
0010
0100
0001
0010
0100
0000
1000
0100
,  // measure 39
1000
0000
0010
1000
0020
0000
0000
0130
0000
0000
0001
0100
0001
0010
0100
1000
,  // measure 40
0100
0000
0010
0000
0001
0010
0001
0010
0100
1000
0100
1000
0010
0000
1000
0000
,  // measure 41
0001
1001
1000
0100
0000
0110
0010
0001
,  // measure 42
0100
0000
0001
0000
1000
0010
0100
0001
0010
0100
1000
0100
0010
0000
0100
0000
,  // measure 43
0010
0000
0001
0000
0000
0000
0100
0000
0010
0000
0000
0010
0100
0000
0010
0100
,  // measure 44
0000
0100
0000
0010
1000
0000
1000
0100
,  // measure 45
0010
0100
1100
0000
0022
0000
0033
0010
,  // measure 46
0001
0100
0010
0100
0001
0010
0200
0000
,  // measure 47
0000
0000
0000
0000
0000
0000
0000
0000
0000
0000
0000
0000
0000
0000
0000
0000
0300
0000
0000
0010
0000
0000
0000
0000
0002
0000
0000
0000
0000
0000
0000
0000
,  // measure 48
0000
0000
0000
0000
0000
0000
0000
0000
0000
0000
0000
0000
0000
0000
0000
0000
0003
0100
0000
0000
0000
0000
0000
0000
0020
0000
0000
0000
0000
0000
0000
0000
,  // measure 49
2030
0000
0000
0000
0000
0000
3001
0000
0000
0000
0001
0000
0010
0000
0100
0000
0000
0000
1000
0000
0000
0010
0000
0000
,  // measure 50
0100
0001
1001
0000
0000
0100
1100
0000
,  // measure 51
0010
0001
0100
0000
0010
0000
1000
0000
0001
0000
0000
0000
1000
0100
0000
1000
,  // measure 52
0000
0000
0000
0010
1000
0100
0010
0001
0200
0000
0000
0000
,  // measure 53
0320
0000
0000
0000
0030
0000
1000
0010
,  // measure 54
1000
0000
0000
0010
0000
0000
1000
0000
0100
0000
1000
0000
0100
0000
0010
0000
0001
0000
0100
0000
0000
0010
0000
0000
,  // measure 55
0100
0001
1000
0010
1000
0001
1000
0010
,  // measure 56
0100
0000
0001
0000
0011
0000
0100
0000
0000
0000
0100
0000
1000
0000
0001
1000
,  // measure 57
0000
0001
1000
0000
0010
0000
0000
0010
1000
0000
0010
0000
0100
0000
0000
0100
,  // measure 58
0001
0010
0100
1000
0100
0010
0010
0100
,  // measure 59
0010
0001
1000
0100
1000
0001
1000
0001
,  // measure 60
0100
0010
1010
0100
0000
0100
0100
0000
,  // measure 61
0110
0010
0110
0000
1010
1000
1010
0000
,  // measure 62
0110
0000
0101
0001
0101
1000
2000
0000
,  // measure 63
0000
0000
3200
0000
0000
0000
0000
0000
0302
0000
0000
0000
0000
0000
0103
1000
,  // measure 64
0020
0000
0000
0000
0000
0000
1030
0000
0000
0000
1000
0000
0001
0000
0100
0001
,  // measure 65
0000
0100
0001
0000
0010
0000
0000
0010
0100
0000
1000
0000
0010
0000
0000
0010
,  // measure 66
0100
0001
1000
0010
1000
0001
0002
0000
,  // measure 67
0000
2003
0000
0000
3020
0000
0000
0032
,  // measure 68
0000
0000
0023
1000
0000
1030
0100
0000
,  // measure 69
1100
0000
0000
1000
0100
0000
0010
0000
1001
0000
0000
0000
0100
0000
0000
0000
,  // measure 70
0011
0000
0000
0000
0000
0000
0000
0000
0000
0001
0000
0000
1000
0000
0000
0000
0001
0000
0000
0000
1000
0000
0000
0000
0001
0000
0000
0000
1000
0000
0000
0000
0001
0000
0000
0000
1000
0000
0000
0000
0000
0000
0000
0000
0000
0000
0000
0000
,  // measure 71
0010
1000
0100
0000
0010
0000
0010
0000
,  // measure 72
0001
0100
0000
0100
0001
0000
1000
0000
,  // measure 73
0001
1000
0000
0000
0010
1000
0100
0010
,  // measure 74
0100
0001
0100
1000
0010
0100
0001
0000
,  // measure 75
0001
0010
0100
0000
0010
0000
0001
0000
,  // measure 76
0010
0000
0000
0000
0001
0000
0000
0000
0000
0000
0000
0000
0010
0000
0000
0000
0100
0000
0000
0000
0000
0000
0000
0000
2002
3003
0000
0000
0000
0000
0000
0000
,  // measure 77
0010
1000
0100
0010
0001
0010
0100
1000
0001
0000
0010
0000
0100
0000
1100
0000
,  // measure 78
0000
0000
0100
0000
0010
0000
0000
0010
0001
0100
0001
1000
0001
0100
0010
0000
,  // measure 79
0010
1000
0001
1000
0010
0100
0010
1000
0100
0000
0010
0000
0001
0000
0101
0000
,  // measure 80
0100
0010
0000
1010
1000
0001
0010
0100
,  // measure 81
1000
0100
0010
0001
0010
0001
0100
0010
1000
0000
0001
0000
0100
0000
0001
1000
,  // measure 82
0001
0000
0010
0000
0100
0000
0010
0100
0010
0000
0001
0010
0100
0000
1000
0000
,  // measure 83
0010
0100
0010
0000
1000
0001
1000
0000
1010
0000
0000
0000
0010
0000
0100
0000
,  // measure 84
0001
1000
0000
1100
0000
0010
0001
0100
,  // measure 85
0010
0000
0000
0000
0000
0000
0000
0000
0000
0000
0000
0000
0100
0000
0000
0000
0000
0000
0000
0000
0000
0000
0000
0000
0001
0000
0000
0000
0000
0000
0000
0000
0000
0000
0000
0000
0010
0000
0000
0000
0000
0000
0000
0000
0000
0000
0000
0000
0100
0000
0000
0000
0000
0000
0000
0000
0000
0000
0000
0000
1000
0000
0000
0000
0000
0000
0000
0000
0000
0000
0000
0000
0100
0000
0000
0000
0000
0000
0000
0000
0000
0000
0000
0000
0010
0000
0000
0000
0000
0000
0000
0000
0000
0000
0000
0000
0001
0000
0000
0000
0000
0000
0000
0000
0000
0000
0000
0000
0000
0000
0000
0000
0000
0000
0000
0000
0000
0000
0000
0000
0200
0000
0300
0000
0000
0000
0000
0000
0000
0000
0000
0000
0020
0000
0030
0000
0000
0000
0000
0000
0000
0000
0000
0000
2000
0000
3000
0000
0000
0000
0000
0000
0000
0000
0000
0000
0000
0000
0000
0000
0000
0000
0000
0000
0000
0000
0000
0000
0002
0000
0003
0000
0000
0000
0000
0000
0000
0000
0000
0000
0000
0000
0000
0000
0000
0000
0000
0000
0000
0000
0000
0000
,  // measure 86
0002
0000
0000
0000
0000
0000
0000
0000
0000
2003
0000
0000
0000
0000
0000
3010
0000
0000
0100
0000
0001
0000
0100
0000
0001
0000
0000
0000
0000
0000
0010
0000
0000
0000
0000
0000
0100
0000
0000
0000
0000
0000
1100
0000
0000
0000
0000
0000
,  // measure 87
1000
0010
0000
0110
0100
0001
1000
0001
,  // measure 88
0010
0001
1000
0100
1000
0010
0100
0001
1000
0000
0010
0000
1000
0000
0002
0000
,  // measure 89
0000
0000
1003
0000
0010
0000
0000
0010
1000
0000
0100
1000
0000
0000
0010
0000
,  // measure 90
0000
0010
0100
0000
0102
0000
0000
0100
,  // measure 91
0013
0000
0100
2100
0000
0000
0010
3000
,  // measure 92
0000
0001
0021
0000
0000
0130
0000
0000
,  // measure 93
0100
0000
0000
0000
0000
0000
0000
0000
0110
0000
0000
0000
0000
0000
0000
0000
0000
0000
0000
0000
0000
0000
0000
0000
0000
0000
0000
0000
0000
2002
0000
0000
0000
0000
0000
0000
0000
0000
0000
0000
0000
0000
0000
0000
0000
0000
0000
0000
0000
0000
0000
0000
0000
0000
0000
0000
0000
0000
0000
0000
0000
0000
0000
0000
,  // measure 94
0000
0000
0000
0000
,  // measure 95
0000
0000
0000
0000
0000
0000
0000
0000
0000
0000
3003
0000
;
