#TITLE:GOODRAGE;
#SUBTITLE:;
#ARTIST:EBIMAYO;
#TITLETRANSLIT:;
#SUBTITLETRANSLIT:;
#ARTISTTRANSLIT:;
#GENRE:;
#CREDIT:;
#BANNER:GOODRAGE.png;
#BACKGROUND:GOODRAGE-bg.png;
#LYRICSPATH:;
#CDTITLE:;
#MUSIC:GOODRAGE.ogg;
#OFFSET:0.856304;
#SAMPLESTART:91.030891;
#SAMPLELENGTH:17.297295;
#SELECTABLE:YES;
#BPMS:0.000000=222.000000
,98.750000=111.000000
,146.500000=222.000000
;
#STOPS:67.000000=0.135000,
98.500000=0.203000,
130.250000=0.135000,
241.375000=0.135000
;
#BGCHANGES:3.250=GOODRAGE.avi=1.000=0=0=0=StretchNoLoop====,
99999=-nosongbg-=1.000=0=0=0 // don't automatically add -songbackground-
;
#KEYSOUNDS:;
#ATTACKS:;

//---------------dance-single - ----------------
#NOTES:
     dance-single:
     :
     Challenge:
     18:
     1.049765,1.485690,0.291271,0.282949,0.923745,883.000000,848.000000,35.000000,34.000000,0.000000,0.000000,1.049765,1.485690,0.291271,0.282949,0.923745,883.000000,848.000000,35.000000,34.000000,0.000000,0.000000:
0000
0000
0000
0000
,
0000
0000
0000
0000
,
0000
0000
0000
0000
,
0000
0000
0000
0000
,
0000
0000
0000
0000
,
0000
0000
0000
0000
,
0000
0000
0000
0000
,
0000
0000
0000
0000
,
0000
0000
0000
0000
,
0010
0000
0000
0000
1010
0000
0000
0000
0010
1000
0010
1000
0001
0100
0001
0100
,
0010
0000
0000
0000
1010
0000
1000
0000
0000
0000
0001
0000
1000
0100
1000
0000
,
0010
0000
0000
0000
0011
0000
0000
0000
0001
0010
0001
0010
0100
1000
0100
1000
,
0001
1000
0010
1000
0001
0100
0001
0001
,
1000
0000
0000
0000
1100
0000
0000
0000
1000
0100
1000
0100
0010
0001
0010
0001
,
0100
0000
0000
0000
0101
0000
0010
0000
0000
0000
1000
0000
0001
0100
0001
0100
,
0010
0000
0000
0000
1000
0000
0001
0100
0010
0000
0000
0000
1000
0000
0001
0100
,
0010
0000
1000
0000
0010
0000
1000
0000
0100
0010
0100
0010
0000
0000
0100
0000
,
0001
0000
1000
0000
0001
0000
0010
0001
0010
0000
0100
0010
0100
0000
1000
0000
,
0010
1000
0001
0010
0001
1000
1000
0100
,
0010
0000
0001
0000
1000
0000
0010
1000
0010
0000
0100
0001
0100
0000
0010
0000
,
0100
0000
0001
0000
1000
0000
0100
0000
0010
0001
0010
0000
0010
0000
0001
0000
,
1000
0000
0100
0000
0010
0000
0001
0000
0100
0010
0100
0000
1000
0000
0001
0000
,
0010
0000
1000
0000
0100
0000
0001
0000
0100
0010
0100
0000
1000
0000
0001
0100
,
0001
0100
0010
1000
0001
1000
0100
1000
0001
1000
0001
0100
0010
1000
0010
0000
,
0000
0000
0000
0000
0000
0000
0000
0000
0010
0000
0000
0000
0000
0000
0000
0000
0000
0000
0000
0000
0000
0000
0000
0000
1000
0000
0000
0000
0000
0000
0000
0000
0000
0000
0000
0000
0000
0000
0000
0000
0000
0000
0000
0000
0000
0000
0000
0000
0000
0000
0000
0000
0000
0000
0000
0000
1000
0000
0000
0000
0000
0000
0000
0000
0000
0000
0000
0000
0000
0000
0000
0000
0100
0000
0000
0000
0000
0000
0000
0000
0000
0000
0000
0000
0000
0000
0000
0000
0000
0000
0000
0000
0000
0000
0000
0000
0000
0000
0000
0000
0000
0000
0000
0000
0100
0000
0000
0000
0000
0000
0000
0000
0000
0000
0000
0000
0000
0000
0000
0000
0010
0000
0000
0000
0000
0000
0000
0000
0000
0000
0000
0000
0011
0000
0000
0000
0000
0000
0000
0000
0000
0000
0000
0000
0000
0000
0000
0000
0000
0000
0000
0000
0000
0000
0000
0000
0100
0000
0000
0000
0000
0000
0000
0000
0000
0000
0000
0000
0100
0000
0000
0000
0000
0000
0000
0000
0000
0000
0000
0000
1000
0000
0000
0000
0000
0000
0010
0000
0000
0000
0000
0000
,
1000
1000
1000
1010
0000
0010
0010
0100
0001
0001
0001
1001
0000
1000
1000
0010
,
0010
0000
0200
0000
0000
0000
0301
0000
1000
0010
1000
0000
0001
0000
1000
0000
0001
0000
0020
0000
0030
0000
1001
0000
0000
0000
1000
0000
1000
0000
0001
0100
,
0001
0001
0001
0012
0000
0013
0010
0100
0100
2000
0000
3010
1000
0001
0100
0010
,
0100
0000
0001
0000
0010
0000
0100
0000
1000
0000
0100
0000
0010
0001
1000
0000
0001
0010
0100
0000
1000
0000
0101
0000
0000
0000
0010
0000
0010
0000
1000
0100
,
1000
1000
1000
1100
0000
0100
0100
0010
0001
0001
0001
1001
0000
1000
1000
0100
,
0100
0000
0020
0000
0000
0000
0031
0000
1000
0100
1000
0000
0001
0000
1000
0000
0001
0000
0200
0000
0300
0000
1001
0000
0000
0000
1000
0000
1000
0000
0001
0010
,
0001
0001
0001
0102
0000
0103
0100
0010
0010
2000
0000
3100
1000
0001
0010
0100
,
0010
0000
0001
0000
0100
0000
0010
0000
1000
0000
0010
0000
0100
0001
1000
0000
0100
0000
0000
0000
1100
0000
0000
0000
0010
0000
0010
0000
0001
0100
0001
0000
,
0001
0001
0101
0000
0100
0100
0010
1000
1000
1000
1001
0000
0001
0001
0100
0100
,
0020
0000
0000
0000
1030
0000
0001
0100
0001
0000
1000
0000
0001
0000
1000
0000
0200
0000
0300
0000
1001
0000
0000
0000
0001
0000
0001
0000
1000
0010
1000
0000
,
1000
1000
2100
0000
3100
0100
0010
0010
0002
0000
0103
0001
1000
0010
0100
0010
,
1000
0000
0100
0000
0010
0000
0001
0000
0010
0000
0100
1000
0001
0000
1000
0100
0010
0000
0100
0000
1000
0000
0000
0000
0001
0000
0000
0000
1000
0000
0000
0000
,
0001
0000
0100
0001
0100
0000
0001
0000
1000
0000
0001
0000
0010
0000
0100
0000
,
0010
0001
1000
0100
0010
0100
0010
0100
,
0001
0000
0100
0000
0100
0000
0100
0000
1000
0000
0100
0000
0010
0001
1000
0000
,
0001
0000
1000
0000
0010
1000
0001
0000
1000
0000
0100
0000
0010
0000
0001
0000
,
1000
0000
0010
1000
0010
0000
0100
0000
0010
0000
1000
0000
0001
0000
0100
0000
,
0001
0000
0010
0000
0100
0000
0010
0000
0001
0000
1000
0001
1000
0000
0001
0000
,
0010
0000
0001
0100
0001
0000
1000
0000
0100
0000
1000
0010
1000
0000
0010
0100
,
0010
0000
1000
0010
1000
0001
0100
0001
0010
0100
1000
0000
0001
0000
0001
0000
,
1000
0100
0100
1000
0100
0010
0001
0001
,
0010
0100
0100
1000
0010
0100
0010
0010
,
0100
0001
0001
0100
0010
1000
0100
0100
,
0010
0100
0100
0010
0001
2000
0000
3000
,
0010
0000
0100
0001
1000
0100
0010
0000
0002
0000
0000
0000
0013
0000
0100
0000
,
1000
0100
1000
0000
0001
0010
0001
0000
0010
0100
0010
0000
0001
0000
0100
0000
,
1000
0001
0010
1000
0100
0020
0030
0010
,
0010
0000
0001
0000
0001
0000
1000
0001
1000
0001
2000
0000
0000
0000
3010
0000
,
0100
0000
0010
1000
0100
0010
0001
0000
0020
0000
0000
0000
0031
0000
1000
0000
,
0100
0010
0100
0000
0010
0001
0010
0000
0001
0100
0001
0000
2000
0000
0000
0000
,
3001
0000
0100
0010
2000
0000
3100
0001
,
0200
0000
1300
0010
0010
2000
0000
3001
,
0010
0000
0001
0100
0010
1000
0001
0000
0200
0000
0000
0000
0301
0000
0010
0000
,
0100
1000
0100
0000
1000
0010
1000
0000
0001
0100
0001
0000
0010
0000
1000
0000
,
0001
0100
1000
0010
1000
0020
0030
0010
,
0010
1000
1000
0000
0200
0000
1000
1300
,
0010
1000
0010
0000
0100
0000
0001
0000
1000
0000
0001
0000
0010
0000
0001
0000
,
0100
0010
0010
0010
0200
0000
0001
0301
,
0010
0000
0001
0000
0020
0000
0000
0000
0130
0000
1000
0100
1000
0000
0010
0000
,
1000
0001
1010
0000
0120
0000
1000
1030
,
0100
1000
0100
0000
0010
0000
0001
0000
0200
0000
0000
0000
0310
0000
0010
0000
,
1000
0010
0100
0001
0020
0000
0001
0031
,
1000
0000
0001
0000
2000
0000
0000
0000
3010
0000
0100
0010
0100
0000
0001
0000
,
0100
0010
2000
3000
0001
0100
1000
0100
,
0001
1000
0001
1000
0010
0001
0010
1000
,
0100
0000
0010
0000
0001
0000
0010
0000
0100
0010
0100
0010
0001
0010
0001
0010
,
0001
0100
0001
0100
0010
1000
0010
1000
0001
0100
0010
0000
1000
0000
0100
0000
,
0010
0000
0001
0010
0100
0000
1000
0000
1001
0000
0000
0000
0010
0000
1000
0000
,
0100
1000
0100
1000
0001
0000
0010
0000
0001
0000
1000
0000
0001
0000
0010
0001
,
0010
0000
0100
1000
0100
0000
0010
0100
0010
0000
0001
0000
0100
0000
0001
0000
,
1000
0010
0100
0010
1000
0001
1000
0100
,
0010
0001
0101
0000
1001
0000
1000
0010
,
0100
0001
0100
0001
0010
0000
0100
0000
0010
0000
0001
0000
1000
0000
0010
1000
,
0001
0000
0100
0001
1000
0000
0100
0010
0001
0000
0010
0000
0100
0000
0001
0000
,
0100
0000
1000
0000
0010
0000
1000
0000
0010
1000
0010
0000
1000
0001
1000
0000
,
0001
0010
0001
0010
0100
1000
0100
1000
0100
0000
0000
0000
0010
0000
0001
0000
,
1000
0100
1000
0100
0010
0000
0001
0000
0100
0000
0010
0000
0100
0000
0001
0100
,
0001
0000
1000
0010
1000
0000
0100
1000
0100
0000
0010
0000
0001
0000
0010
0000
,
1000
0010
0001
0100
0010
0100
1000
0100
,
0001
1000
1001
0000
1100
0000
0001
0100
,
0011
0000
0010
0110
0000
1100
1000
1010
,
0000
0110
0100
0001
0020
0031
0100
1000
,
0200
0310
0001
1000
0100
0100
0010
0010
,
0001
0001
2000
0000
3010
0000
1001
0000
,
0010
1000
0001
0100
0001
1000
0010
0100
0001
0000
0000
0000
1000
0000
0100
0000
,
1000
0010
1000
1000
1000
0000
0011
0000
,
0010
0001
1000
0100
1000
0001
0010
0100
1000
0000
0000
0000
0010
0000
1000
0000
,
0010
0000
1000
0001
1000
0000
0100
0000
0010
0000
0001
0000
0100
0000
0001
0000
,
1000
0100
0001
0100
1000
0010
1000
0010
,
0001
0000
0010
0000
1000
0000
0100
0000
0010
0001
0010
0001
1000
0100
1000
0100
,
0010
0000
0000
0100
0000
0000
0010
0000
0000
0001
0000
0000
1000
0000
0000
0001
0000
0000
1000
0000
0000
0001
0000
0000
0100
0000
0000
0000
0000
0000
0000
0000
0100
0000
0000
0000
0010
0000
0000
0000
0000
0000
0000
0000
0010
0000
0000
0000
,
1000
0000
1000
0001
0000
0000
1001
0000
0000
0000
0000
0000
;

//---------------dance-single - ----------------
#NOTES:
     dance-single:
     :
     Hard:
     15:
     0.860736,1.204614,0.191407,0.316237,0.553415,724.000000,701.000000,23.000000,38.000000,0.000000,0.000000,0.860736,1.204614,0.191407,0.316237,0.553415,724.000000,701.000000,23.000000,38.000000,0.000000,0.000000:
0000
0000
0000
0000
,
0000
0000
0000
0000
,
0000
0000
0000
0000
,
0000
0000
0000
0000
,
0000
0000
0000
0000
,
0000
0000
0000
0000
,
0000
0000
0000
0000
,
0000
0000
0000
0000
,
0000
0000
0000
0000
,
0100
0000
0000
0000
1010
0000
0000
0000
0010
1000
0010
0000
1000
0001
1000
0000
,
0100
0000
0010
0001
0000
0001
0100
0001
,
1000
0000
0000
0000
0101
0000
0000
0000
0001
0010
0001
0000
0010
0100
0010
0000
,
0001
0000
0010
0100
0000
1100
0000
0000
,
1000
0000
0000
0000
1001
0000
0000
0000
0001
0100
0001
0000
0100
0010
0100
0000
,
0010
0000
0100
0001
0000
0001
1000
0010
,
1000
0011
0001
0101
,
1000
0000
0001
0000
1000
0010
0000
0010
,
0100
0001
0100
0010
1000
0100
0010
0001
,
0000
1001
0000
0010
0001
1000
1000
1000
,
0100
1000
0010
0100
1000
0100
0001
1000
,
0000
0000
0010
0000
1000
0000
0010
0000
1000
0001
1000
0000
0100
0000
0010
0000
,
0001
0010
0001
0100
0001
0100
0010
0100
,
0010
1000
0001
1000
0001
0010
0100
0010
,
0010
0100
0100
1000
1000
0010
0010
1000
,
0000
0000
0001
0000
0000
0000
0000
0000
0000
0000
0000
0000
0000
0000
0001
0000
0000
0000
0010
0000
0000
0000
0000
0000
0000
0000
0000
0000
0000
0000
0100
0000
0000
1001
0000
0000
0000
0000
0000
0010
0000
0000
1000
0000
0000
0100
0000
0000
,
1000
0100
0010
0001
0000
0001
0100
0000
0010
1000
0010
1000
0000
0001
0010
0100
,
0100
2000
0000
3010
0100
0001
0100
0001
0100
0001
0000
0010
0000
0100
1000
0100
,
0010
1000
0010
0002
0000
0103
0100
0010
0010
2000
0000
3010
0100
0001
0100
0010
,
1000
0001
1000
0100
1000
0001
0010
0001
0010
0100
0010
0001
0000
0100
0001
1000
,
0010
1000
0010
0100
0000
0010
0020
0000
1030
0100
1000
0001
0000
1000
0001
1000
,
0100
0020
0000
0031
1000
0100
1000
0100
1000
0100
0000
0010
0000
0100
1000
0010
,
1000
0010
0100
0002
0000
1003
0001
1000
0001
2000
0000
3100
0010
0001
0010
1000
,
0010
0001
0100
0010
1000
0001
0010
0100
1000
0000
1001
0000
0010
1000
0100
0010
,
0100
0010
0002
0000
1003
2000
0000
3010
0100
0010
2000
0000
3100
0010
0001
0100
,
0002
0000
1003
0010
0100
0010
0100
0010
0100
0000
0020
0000
1030
0001
0100
0001
,
0100
0001
2000
0000
3010
0100
0001
0100
0020
0000
1030
0001
0100
0001
0010
0001
,
1000
0100
1000
0010
0100
0010
1000
0100
0010
0001
0010
0000
0000
0000
0001
0000
,
0100
0001
1000
0001
0010
0100
0000
0100
,
1000
0100
0010
0001
1000
0001
0000
0100
,
0010
0100
0010
1000
0001
1000
0000
1000
,
0100
1000
0010
1000
0001
0100
0001
1000
,
0100
0010
0001
0010
0100
1000
0010
1000
,
0001
0000
1000
0000
0001
0000
0100
0000
0010
0000
0100
0000
0001
0100
0001
0000
,
1000
0000
0010
0000
1000
0100
1000
0000
0001
0000
0100
0000
0001
0100
0001
0000
,
1000
0010
1000
0000
0001
0010
0001
0000
1000
0100
1000
0000
0000
0000
0001
0000
,
1000
0000
0001
0100
0000
0100
0000
0010
,
0100
0000
0010
1000
0001
1000
0000
0100
,
0010
0000
0100
0010
0000
0001
0000
0010
,
0001
0000
0100
0001
1000
0020
0000
0000
,
1030
0000
0100
1000
0100
0000
0010
0000
0002
0000
0000
0000
1003
0000
0001
0000
,
0000
0001
0100
0000
0000
0100
0010
0000
0000
0010
1000
0000
0010
0000
0100
0000
,
0001
0100
0010
1000
0010
0200
0000
0010
,
0010
0010
0010
0310
0000
1000
0000
0001
,
0010
0000
0001
0010
0001
0000
0010
0000
0200
0000
0000
0000
1300
0000
0010
0000
,
0000
0010
1000
0000
0000
1000
0001
0000
0000
0001
0100
0000
0001
0000
0000
0000
,
1001
0000
0100
1000
0100
0000
0010
0001
,
0010
0000
0100
0100
0000
1000
0000
0001
,
1000
0000
0001
0100
0001
0000
1000
0000
0020
0000
0000
0000
1030
0000
0100
0000
,
0000
0100
0010
0000
0000
0010
0001
0000
0000
0001
1000
0000
0100
0000
0010
0000
,
0001
0010
0100
1000
0010
0200
0000
0001
,
0001
0001
0301
0000
0200
0000
1300
0001
,
0010
0001
0010
0001
0200
0000
0310
0020
,
0000
1030
0001
1000
0200
0000
0310
0100
,
0010
0010
0002
0000
1003
1000
0001
1000
,
0001
1000
0010
0000
0200
0000
0301
0010
,
0001
1000
0100
1000
0020
0000
1030
2000
,
0000
3001
0100
0001
0020
0000
0031
0100
,
0010
1000
0020
0000
1030
0001
1000
0100
,
0010
0100
0020
0030
0001
0000
0101
0000
,
1001
0000
1000
0010
1000
0000
1100
0000
,
0110
0000
0010
0001
0010
0100
0010
0100
,
1000
0000
0100
0000
1000
0000
0010
0000
1000
0010
1000
0000
0001
0000
0010
0000
,
0100
0000
1000
0100
1000
0000
0100
0000
0010
0000
0001
0000
0010
0000
0001
0000
,
0100
0001
0100
0000
0010
0000
0100
0000
0001
0000
1000
0000
0010
0000
0000
0010
,
1000
0000
0000
1000
0001
0000
0000
0001
0100
0000
0010
0000
1000
0000
0001
0000
,
1000
0001
0100
0010
1000
0010
1000
0100
,
0010
0100
1000
0001
0010
0001
0100
0010
,
1000
0010
1000
0000
0100
0000
0010
0000
0001
0000
1000
0000
0100
0000
0000
0100
,
0001
0000
0000
0001
0100
0000
0000
0100
1000
0000
0010
0000
1000
0000
0001
0000
,
0100
0001
1000
0010
0200
0000
0010
0010
,
0010
0010
0310
0000
0010
1000
0001
1000
,
0010
0100
0010
0000
1000
0000
0100
0000
0010
0000
0001
0000
0010
0000
0000
0010
,
0100
0000
0000
0100
1000
0000
0000
1000
0010
0000
0100
0000
0001
0000
0100
0000
,
0001
0010
0100
0010
0001
1000
0010
1000
,
0001
0010
0100
0010
0002
0003
0001
0100
,
2000
3000
1000
0100
0001
0011
0000
1100
,
0000
1010
0000
0002
2003
0000
0001
0001
,
3020
0000
0100
0100
0130
0010
0001
0010
,
0001
1000
0002
0003
1000
0001
1000
0010
,
1000
0100
1000
0000
0011
0000
0101
0000
,
0110
0000
0010
0100
0001
1000
0001
0010
,
0001
0100
0001
0000
1010
0000
1100
0000
,
0010
0000
0001
0010
0001
0000
0100
0000
0010
0000
0100
0000
0010
0000
0100
0000
,
0001
1000
0001
1000
0010
0100
0001
1000
,
0010
0000
0100
0000
0001
0000
0010
0000
0100
0000
0010
0001
0010
0000
0100
0010
,
0100
0000
0000
0000
0000
0000
1000
0000
0000
0100
0000
0000
1000
0000
0000
0000
0000
0000
0001
0000
0000
0100
0000
0000
0001
0000
0000
0000
0000
0000
0000
0000
1000
0000
0000
0000
0000
0000
0000
0000
0000
0000
0000
0000
1000
0000
0000
0000
,
0001
0100
1001
0000
;

//---------------dance-single - ----------------
#NOTES:
     dance-single:
     :
     Beginner:
     7:
     0.341203,0.562153,0.158119,0.066576,0.149797,287.000000,268.000000,19.000000,8.000000,0.000000,0.000000,0.341203,0.562153,0.158119,0.066576,0.149797,287.000000,268.000000,19.000000,8.000000,0.000000,0.000000:
// measure 0
0000
0000
0000
0000
,  // measure 1
0000
0000
0000
0000
,  // measure 2
0000
0000
0000
0000
,  // measure 3
0000
0000
0000
0000
,  // measure 4
0000
0000
0000
0000
,  // measure 5
0000
0000
0000
0000
,  // measure 6
0000
0000
0000
0000
,  // measure 7
0000
0000
0000
0000
,  // measure 8
0000
0000
0000
0000
,  // measure 9
0010
0000
1000
0000
,  // measure 10
0001
1000
0001
0010
,  // measure 11
0001
0000
0100
0000
,  // measure 12
0010
0100
0010
1000
,  // measure 13
0010
0000
1000
0000
,  // measure 14
0001
1000
0001
0100
,  // measure 15
0001
0000
1000
0000
,  // measure 16
0010
0000
0010
0000
0010
0000
0000
0100
,  // measure 17
0000
0000
0000
0001
0000
0000
0000
1000
,  // measure 18
0000
0010
0000
1000
0000
0010
0000
0100
,  // measure 19
0000
0000
0000
0010
0000
0000
0000
1000
,  // measure 20
0000
0100
0000
1000
0000
0100
0000
0020
,  // measure 21
0000
0000
0000
0032
0000
0000
0000
0203
,  // measure 22
0000
0000
0000
0320
0000
0000
0000
1030
,  // measure 23
0000
0001
0000
1000
0000
0001
0000
0000
,  // measure 24
0000
0000
0000
0000
0000
0000
0000
0000
0000
0000
0000
1000
0000
0000
0000
0010
,  // measure 25
0000
0000
0000
0100
0000
0000
0100
0000
0000
0100
0000
0001
0000
0000
0000
0010
,  // measure 26
0000
0000
0000
0001
0000
0001
0000
0001
0000
0000
0000
1000
0000
0000
0000
0010
,  // measure 27
0000
0000
0000
1000
0000
0000
1000
0000
0000
1000
0000
0100
0000
0000
0000
0011
,  // measure 28
0000
0000
0000
0101
0000
0000
0000
1001
0000
0000
0000
1010
0000
0000
0000
0010
,  // measure 29
0000
0000
0000
0100
0000
0000
0100
0000
0000
0100
0000
0001
0000
0000
0000
1000
,  // measure 30
0000
0000
0000
0010
0000
0010
0000
0010
0000
0000
0000
0100
0000
0000
0000
0001
,  // measure 31
0000
0000
0000
0010
0000
0000
0010
0000
0000
0010
0000
0100
0000
0000
0000
1010
,  // measure 32
0000
0000
0000
0110
0000
0000
0000
1001
0000
0000
1000
0000
0000
0000
0010
0000
,  // measure 33
0000
0000
0100
0000
0000
0001
0000
0000
0100
0000
0010
0000
0000
0000
1000
0000
,  // measure 34
0000
0001
0001
0001
0000
0010
0000
0001
,  // measure 35
0000
0000
0100
0000
0000
0010
0000
0000
0100
0000
0001
0000
0000
0000
1100
0000
,  // measure 36
0000
0101
0000
0110
0000
1000
0000
0000
,  // measure 37
0000
0001
0000
0000
0000
0010
0000
0100
,  // measure 38
0000
0010
0000
0001
0000
0100
0000
0000
,  // measure 39
0000
0010
0000
0000
0000
1000
0000
0001
,  // measure 40
0000
1000
0000
1000
0000
0010
0000
0000
,  // measure 41
0000
0100
0000
0000
0000
0010
0000
0100
,  // measure 42
0000
0010
0000
0000
0000
1000
0000
0100
,  // measure 43
0000
1000
0000
0000
0000
0001
0000
0010
,  // measure 44
0000
0001
0000
0000
0000
2000
0000
0000
,  // measure 45
0000
0000
0000
0000
0000
3020
0000
0000
,  // measure 46
0000
0000
0000
0000
0000
0230
0000
0000
,  // measure 47
0000
0000
0000
0000
0000
0302
0000
0000
,  // measure 48
0000
0000
0000
0000
0000
0103
0000
0000
,  // measure 49
0000
0010
0000
0000
1000
0000
0000
1000
,  // measure 50
0000
0010
0000
0100
0000
0001
0000
0000
,  // measure 51
0001
0000
0000
0001
0000
1000
0000
0000
,  // measure 52
0000
1000
0000
1001
0000
0010
0000
0000
,  // measure 53
0000
0001
0000
0000
0010
0000
0000
0010
,  // measure 54
0000
0001
0000
1000
0000
0001
0000
0000
,  // measure 55
0000
0100
0000
0000
0000
0010
0000
0100
,  // measure 56
0000
0010
0000
0000
0000
1000
0000
0000
,  // measure 57
0000
0100
0000
0000
0010
0000
0000
0010
,  // measure 58
0000
0100
0000
1000
0000
0001
0000
0000
,  // measure 59
0100
0000
0000
0001
0000
0010
0000
0010
,  // measure 60
0000
0010
0000
0000
0100
0000
0000
0000
,  // measure 61
0010
0000
0000
0000
1001
0000
0000
1001
,  // measure 62
0000
0001
1000
0000
,  // measure 63
0010
0000
0100
0100
,  // measure 64
0100
0000
0010
0000
,  // measure 65
1000
0000
0000
0000
0101
0000
0000
0101
,  // measure 66
0000
0001
0010
0000
,  // measure 67
0100
0000
1000
1000
,  // measure 68
1000
0000
0010
0000
,  // measure 69
1000
0000
0001
0000
,  // measure 70
0010
0000
0001
1000
,  // measure 71
0100
1000
0001
1000
,  // measure 72
0001
1000
0010
0000
,  // measure 73
1000
0000
0010
0100
,  // measure 74
0010
0100
0001
0000
,  // measure 75
1000
0000
0100
0010
,  // measure 76
0100
0010
0001
0000
,  // measure 77
0010
0000
0100
1000
,  // measure 78
0100
1000
0001
0000
,  // measure 79
0100
0000
0010
1000
,  // measure 80
0010
1000
0001
0000
,  // measure 81
1100
0000
0010
1000
,  // measure 82
0010
0100
0010
0000
,  // measure 83
0101
0000
0010
0001
,  // measure 84
1000
0001
0010
0000
,  // measure 85
0110
0000
1000
0001
,  // measure 86
1000
0000
0010
0010
,  // measure 87
1000
1000
0001
0001
,  // measure 88
1000
0000
0010
0000
,  // measure 89
1000
0000
0100
0000
0010
0000
0000
0010
,  // measure 90
0000
0010
0001
0100
,  // measure 91
0001
0000
0000
0000
1000
0000
0000
1000
,  // measure 92
0000
1000
0010
0010
,  // measure 93
0100
0100
0001
0001
,  // measure 94
0100
0100
0010
0010
,  // measure 95
1000
1000
0100
0000
,  // measure 96
0000
0000
1001
0000
;

//---------------dance-single - ----------------
#NOTES:
     dance-single:
     :
     Medium:
     13:
     0.769193,1.217097,0.233017,0.108186,0.353686,647.000000,619.000000,28.000000,13.000000,0.000000,0.000000,0.769193,1.217097,0.233017,0.108186,0.353686,647.000000,619.000000,28.000000,13.000000,0.000000,0.000000:
0000
0000
0000
0000
,
0000
0000
0000
0000
,
0000
0000
0000
0000
,
0000
0000
0000
0000
,
0000
0000
0000
0000
,
0000
0000
0000
0000
,
0000
0000
0000
0000
,
0000
0000
0000
0000
,
0000
0000
0000
0000
,
0010
0000
1000
0000
0100
1000
0100
0000
,
0010
0000
0001
0100
0000
0010
0000
0010
,
1000
0000
0001
0000
0010
0001
0010
0000
,
0100
0000
0010
0001
0000
0100
0010
0100
,
0010
0000
1000
0000
0001
1000
0001
0000
,
0100
0000
0010
0100
0000
0001
0000
0001
,
0010
1001
0100
1001
,
0001
1000
0001
1000
0010
0100
0000
1100
,
0000
0110
0000
1001
0000
0101
0000
0100
,
0001
0100
0010
1000
0100
0010
0001
0010
,
0000
0011
0000
1001
0000
1010
0000
0010
,
0100
0001
1000
0100
0010
0001
0100
0001
,
0100
0010
0000
1000
0010
0100
0000
0001
,
1000
0100
0000
1000
0100
0010
0000
0001
,
0010
0100
0000
0010
0001
0100
0000
0010
,
0000
0000
0010
0000
0000
0000
0110
0000
0000
0000
1001
1000
0000
0010
1000
0001
,
0010
0001
0010
0100
0000
0010
0100
0000
0010
0001
0010
0001
0000
0100
0010
1000
,
1000
1000
0000
0001
0001
0100
0010
0100
1000
0100
0000
0001
0000
0100
0010
1000
,
0001
1000
0100
0010
0000
0100
0010
0100
0010
0001
0000
0010
0001
0100
0010
0100
,
0001
0010
0100
1000
0100
0010
0001
0100
0010
1000
0001
0100
0000
0001
0100
0010
,
1000
0010
1000
0100
0000
0010
0100
0000
1000
0010
1000
0010
0000
0100
0001
0010
,
0010
0010
0000
0100
0100
0010
0001
1000
0001
0100
0000
0010
0000
1000
0001
0100
,
0010
0100
0010
1000
0000
0001
0010
0001
0100
0010
0000
0001
0100
1000
0100
0001
,
1000
0001
0010
1000
0010
0001
0100
0010
1000
0000
0001
0000
1000
0001
0010
0100
,
0010
0100
1000
0000
0010
1000
0000
0001
0100
0001
0100
0000
0010
1000
0001
0001
,
0001
0000
0010
0010
0100
0010
0001
1000
0100
0000
0010
0000
0001
0100
0010
1000
,
0010
1000
0100
0000
0010
0001
0010
0001
0100
0000
0001
1000
0100
0010
0001
0100
,
0010
1000
0001
0010
0100
1000
0010
0100
0001
1000
0010
0000
0000
0000
0010
0000
,
1000
0010
1000
0010
0100
0010
0000
1000
,
0001
1000
0100
1000
0001
1000
0000
0100
,
0010
0001
0010
0001
0000
0100
0100
0001
,
0100
0001
0100
0001
0000
1000
0010
1000
,
0000
0001
0100
0001
0000
0010
0100
0010
,
0000
0001
0010
0001
0000
0100
0010
1000
,
0010
0100
0001
0100
0010
1000
0100
0010
,
0001
0010
0100
1000
0001
0020
0000
0000
,
0001
0000
0000
0031
0000
0002
0000
0000
,
0100
0000
0000
0103
0000
0200
0000
0000
,
0010
0000
0000
0310
0000
0020
0000
0000
,
1000
0000
0000
1030
0000
0010
0000
0000
,
0010
1000
0000
1000
0100
0000
0100
0110
,
0000
0011
0000
1001
0000
0001
0100
0001
,
1000
0100
1000
0001
0100
0002
0000
2003
,
0000
3002
0000
1003
0000
0010
0000
1000
,
0000
0001
0000
0010
0001
0000
0001
0100
,
0000
0010
0000
1000
0000
0001
1000
0000
,
0011
0000
0010
0100
0010
0000
0001
1000
,
0001
0000
0010
0010
0000
0001
0000
0100
,
0000
0010
0000
0010
1000
0000
1000
1100
,
0000
0110
0000
1001
0000
0010
0001
0010
,
0000
0001
0100
0001
0000
1000
0000
0010
,
1000
0010
1000
0000
1001
0000
0001
0000
,
1000
0010
1000
0010
1000
0000
0100
1000
,
0000
0100
0010
0100
0010
0000
0010
0001
,
0100
0001
0100
0000
0001
1000
0100
1000
,
0100
1000
0100
0000
0010
0000
0001
1000
,
0010
0100
0010
0100
0001
0000
1000
0001
,
0000
1000
0100
1000
0100
0000
0010
0100
,
1000
0010
1000
0000
0001
0100
0001
0010
,
0001
0010
0002
0003
1000
0100
1000
0000
,
0010
0100
0010
0000
1000
0001
1000
0000
,
0001
0010
0001
0000
0100
0010
0100
0010
,
1000
0001
1000
0001
1000
0000
1001
0000
,
0110
0000
1001
0000
0010
1000
0100
1000
,
0010
0100
0001
0010
0001
1000
0010
0100
,
0001
1000
0100
0010
0001
0100
0010
0100
,
0001
1000
0100
1000
0010
0100
0001
0010
,
0100
0010
0001
1000
0010
0000
0100
0010
,
1000
0010
0100
0001
1000
0001
0010
0100
,
0010
0001
1000
0010
1000
0100
0010
0001
,
0100
0010
1000
0100
0010
0000
0010
0001
,
0010
0001
0010
0001
0100
0001
1000
0010
,
1000
0100
0001
0100
1000
0010
0100
0001
,
1000
0100
0010
0100
1000
0001
0010
0100
,
1000
0010
0100
0010
1000
0001
0010
1000
,
0010
0001
0100
0010
1010
0000
1000
0001
,
1001
0000
0100
1000
0100
0001
0100
1000
,
0100
0010
0001
0100
0020
0030
0010
0100
,
0020
0030
0010
0001
0010
1000
0010
0100
,
0010
1000
0200
0300
0010
0000
1001
0000
,
0001
0100
0001
0000
1000
0000
0010
1000
,
0000
0100
0000
0100
0010
0000
1001
0000
,
0100
1000
0100
0000
0010
0000
0001
0100
,
0000
0010
0000
0010
1000
0001
1000
0000
,
0010
1000
0010
0000
1000
0100
1000
0000
,
0001
0010
0001
0000
0010
0100
0010
0100
,
1000
0001
1000
0001
1000
0000
0010
0000
,
0100
0110
2002
0000
,
0000
0000
3003
0000
;

//---------------dance-single - ----------------
#NOTES:
     dance-single:
     :
     Easy:
     10:
     0.496944,0.811398,0.133152,0.191407,0.262144,418.000000,402.000000,16.000000,23.000000,0.000000,0.000000,0.496944,0.811398,0.133152,0.191407,0.262144,418.000000,402.000000,16.000000,23.000000,0.000000,0.000000:
0000
0000
0000
0000
,
0000
0000
0000
0000
,
0000
0000
0000
0000
,
0000
0000
0000
0000
,
0000
0000
0000
0000
,
0000
0000
0000
0000
,
0000
0000
0000
0000
,
0000
0000
0000
0000
,
0000
0000
0000
0000
,
0010
1000
0100
0010
,
0002
0003
0000
2000
3000
0000
0000
0000
,
0010
0100
0001
0010
,
0200
0300
0000
0200
0300
2000
3000
0000
,
0010
1000
0001
0100
,
0020
0030
0000
2000
3000
0000
0000
0000
,
0001
0001
1000
1000
,
0001
0000
1000
0000
0001
1000
0000
1000
,
0000
0010
0000
0100
0000
0001
0000
0020
,
0030
0000
0002
0003
0000
0001
0000
0100
,
0000
0001
0000
1000
0000
0010
0000
2000
,
3000
0000
2000
3000
0200
0300
0000
0010
,
0000
0100
0000
1000
0000
0010
0000
0100
,
0000
0001
0000
0010
0000
0001
0000
1000
,
0001
1000
0001
1000
0001
1000
0002
0000
,
0000
0000
0000
0000
0000
0000
0000
0000
0000
0000
0003
1000
0000
1000
0000
0010
,
1000
0010
0000
0100
0000
0000
0100
0000
0000
0100
0000
0001
0000
0001
0000
0010
,
0001
0010
0000
0001
0000
1000
0000
0001
0000
1000
0000
0010
0000
0100
0000
0001
,
0010
0001
0000
1000
0000
1000
0010
0000
0010
1000
0000
0001
0000
0100
0000
1000
,
0000
0100
0000
0010
0000
0100
0000
0001
0000
0010
0000
0100
0000
0010
0000
0001
,
1000
0001
0000
0010
0000
0000
0010
0000
0000
0010
0000
0100
0000
1000
0000
0010
,
1000
0010
0000
0100
0000
0001
0000
1000
0000
0010
0000
1000
0000
0100
0000
0010
,
0100
0010
0000
0001
0000
0001
1000
0000
1000
0001
0000
0100
0000
0010
0000
1000
,
0000
0100
0000
0010
0000
0001
0000
1000
0000
0000
0010
0000
1000
0000
0001
0100
,
0001
0000
1000
0000
0000
1000
0000
0000
1000
0000
0010
0000
0100
0000
0001
0010
,
0001
0000
1000
0000
0100
0000
1000
0000
0010
0000
0100
0000
0001
0000
0010
0100
,
0010
0000
0100
0000
0100
1000
0000
1000
0010
0000
1000
0000
0001
0000
0100
0000
,
0010
1000
0100
0010
0001
0010
0000
1000
,
0000
0010
0000
0001
0000
1000
0000
0100
,
0000
0001
0000
0100
0000
1000
0000
0010
,
0000
0100
0000
0001
0000
1000
0000
0100
,
0000
0001
0000
0100
0000
1000
0000
0001
,
0000
0010
0000
0100
0000
0010
0000
1000
,
0000
0010
0000
0001
0000
1000
0100
0010
,
0000
0100
0010
0001
0000
0001
0010
0100
,
0000
0010
0100
1000
0000
0020
0000
0000
,
0000
0000
0000
0000
0000
2030
0000
0000
,
0000
0000
0000
0000
0000
3002
0000
0000
,
0000
0000
0000
0000
0000
0203
0000
0000
,
0000
0320
0000
0000
0000
1030
0000
0000
,
0000
0100
0000
1000
0000
0010
0000
0100
,
0000
0010
0000
0100
0000
0001
0000
0000
,
1000
0000
0000
0001
0000
0010
0000
0001
,
1000
0001
1000
0002
0000
0103
0000
0010
,
0000
1000
0000
0100
0010
0000
0000
0010
,
0000
0001
0000
0100
0000
0010
0000
1000
,
0000
0001
0000
1000
0000
0100
0000
0010
,
0000
0001
1000
0100
0000
1000
0000
0010
,
0000
0100
0000
0001
1000
0000
0000
0010
,
0000
1000
0000
0100
0000
0010
0000
0000
,
0010
0000
0000
0010
0000
0001
0000
0001
,
0000
0001
0000
0000
1001
0000
1001
0000
,
0010
0000
1000
0000
0100
0000
0000
0100
,
0000
0100
0011
0011
,
0001
0000
0100
0000
0010
0100
0001
0100
,
0001
0100
0001
0000
1100
0000
1100
0000
,
0010
0000
0001
0000
1000
0000
0000
1000
,
0000
1000
1010
1010
,
0010
0000
0100
0000
0001
1000
0001
1000
,
0001
1000
0001
0000
1000
0000
0100
0000
,
0010
0001
1000
0100
,
0010
0001
0100
0010
,
1000
0000
0001
0000
0010
0001
0010
0000
,
0100
1000
0100
0000
0010
0000
0001
0000
,
1000
0010
1000
0100
,
0010
0001
1000
0100
,
1000
0010
0100
0010
,
1000
0001
1000
0000
0100
0000
0010
0000
,
0100
1000
0001
0010
,
1000
0010
0001
0100
,
0010
0000
1000
0000
0100
0000
1000
0010
,
1000
0010
2000
0000
3010
0000
0100
0000
,
0001
1000
0010
0100
,
0001
0010
0100
1000
,
0010
1000
0100
0010
,
0001
0100
0001
0000
0001
0000
0101
0000
,
1000
0000
1100
0000
0100
0010
0000
0100
,
0000
0010
0000
0002
0010
0000
0013
0000
,
0100
0000
0010
0000
0100
1000
0100
1000
,
0100
1000
0000
0000
0010
0000
1000
0000
,
0001
0000
0100
0000
0110
0000
0000
1010
,
0000
0000
1000
0001
,
0010
0000
0100
0000
0110
0000
0000
0110
,
0000
1100
0000
0000
1000
0000
0010
0000
,
0100
0001
1000
0001
,
0010
0000
0100
0000
0010
0001
0010
0000
,
0001
0100
0001
0000
0000
0000
0000
0000
,
0000
0000
2002
0000
,
0000
0000
3003
0000
;
