#VERSION:0.83;
#TITLE:Focus;
#SUBTITLE:;
#ARTIST:Charli XCX;
#TITLETRANSLIT:;
#SUBTITLETRANSLIT:;
#ARTISTTRANSLIT:;
#GENRE:;
#ORIGIN:;
#CREDIT:;
#BANNER:Focus.png;
#BACKGROUND:Focus-bg.png;
#PREVIEWVID:;
#JACKET:Focus-jacket.png;
#CDIMAGE:;
#DISCIMAGE:;
#LYRICSPATH:;
#CDTITLE:;
#MUSIC:Focus.ogg;
#OFFSET:-0.121629;
#SAMPLESTART:39.464031;
#SAMPLELENGTH:15.737705;
#SELECTABLE:YES;
#BPMS:0.000=122.000;
#STOPS:;
#DELAYS:;
#WARPS:;
#TIMESIGNATURES:0.000=4=4;
#TICKCOUNTS:0.000=4;
#COMBOS:0.000=1;
#SPEEDS:0.000=1.000=0.000=0;
#SCROLLS:0.000=1.000;
#FAKES:;
#LABELS:0.000=Song Start;
#BGCHANGES:;
#KEYSOUNDS:;
#ATTACKS:
;

//---------------dance-single - ----------------
#NOTEDATA:;
#CHARTNAME:;
#STEPSTYPE:dance-single;
#DESCRIPTION:;
#CHARTSTYLE:;
#DIFFICULTY:Hard;
#METER:12;
#RADARVALUES:0.500723,0.518629,0.181866,0.198400,0.483599,424.000000,402.000000,22.000000,24.000000,0.000000,0.000000,0.000000,0.000000,0.000000,0.500723,0.518629,0.181866,0.198400,0.483599,424.000000,402.000000,22.000000,24.000000,0.000000,0.000000,0.000000,0.000000,0.000000;
#CREDIT:Daniel Van Eden;
#NOTES:
0000
0000
0000
0000
,
0000
0000
0000
0000
,
0000
0000
0000
0000
,
0000
0000
0000
0000
,
0010
1000
0000
0100
0000
0100
0000
0010
0001
0000
0001
0000
0000
0000
0000
0000
,
0001
0100
0000
0100
0000
0010
0000
0100
0010
0000
1000
0000
0000
0000
0000
0000
,
0100
1000
0000
0001
0000
0001
0000
0010
0001
0000
0001
0000
0000
0000
0000
0000
,
0100
0010
0000
0010
0000
1000
0000
0001
1000
0000
1000
0000
0000
0000
0000
0000
,
0001
1000
0000
1000
0000
0001
0000
0100
0010
0000
0010
0000
0000
0000
0000
0000
,
1000
0001
0000
0001
0000
0010
0000
0100
0010
0000
0010
0000
0000
0000
0000
0000
,
0001
0010
0000
0100
0000
1000
0000
0001
1000
0000
1000
0000
0000
0000
0000
0000
,
0010
1000
0000
1000
0000
0010
0000
0100
0010
0000
0010
0000
1001
0000
0000
0000
,
0001
0100
0000
0100
0010
1000
0000
1000
0001
0000
0100
0000
1000
0000
0100
0000
,
0001
0000
1100
0000
0100
0010
0100
0010
,
0001
0010
0000
0010
0100
1000
0000
1000
0001
0000
0010
0000
1000
0000
0010
0000
,
0001
0000
1010
0000
1000
0001
1000
0001
,
1000
0100
0000
0100
0010
0001
0000
0001
1000
0000
0100
0000
0001
0000
0100
0000
,
1000
0000
0101
0000
1000
0010
1000
0010
,
1000
0001
0000
0101
0000
0100
0010
0000
1000
0000
0001
0000
0001
0000
0010
0000
,
0010
0000
0100
1000
0000
0000
0012
0000
0000
0000
0000
0000
0000
0000
0000
0000
0000
0000
1003
0000
0000
0000
0000
0000
,
1000
0100
0000
0100
1000
0000
0010
0000
1000
0000
0001
0000
0100
0000
0001
0010
,
0001
0000
1001
0000
1000
0010
0001
0010
,
1000
0010
0000
0010
1000
0000
0100
0000
0010
0000
0100
0000
1000
0000
0010
1000
,
0010
0000
0101
0000
0001
0100
1000
0100
,
0001
0010
0000
0010
0001
0000
0100
0000
0010
0000
1000
0000
0100
0000
0010
0100
,
0010
0000
1001
0000
0010
1000
0001
0100
,
0010
0100
0000
0101
0000
0001
0010
0000
0100
0000
1000
0000
1000
0000
0010
0000
,
0010
0000
0100
0001
0000
0000
2000
0000
0000
0000
0000
0000
0000
0000
0000
0000
0000
0000
3010
0000
0000
0000
0000
0000
,
0001
0000
0000
2000
0000
0000
0020
0000
0000
0000
0000
0000
3000
0000
0000
0000
,
0000
0000
0000
0000
0200
0000
0000
0000
0330
0000
0000
0000
0010
0001
1000
0100
,
0010
0000
0000
0002
0000
0000
0200
0000
0000
0000
0000
0000
0003
0000
0000
0000
,
0000
0000
0000
0000
0020
0000
0000
0000
0330
0000
0000
0000
0010
1000
0001
0100
,
0010
0000
0000
2000
0000
0000
0002
0000
0000
0000
0000
0000
0000
0000
0000
0000
,
3003
0000
0000
0000
0220
0000
0000
0000
0330
0000
0000
0000
1000
0010
0100
0001
,
1000
0000
0000
0200
0000
0000
0020
0000
0000
0000
0000
0000
0000
0000
0000
0000
,
0330
0000
0000
0000
2002
0000
0000
0000
3003
0000
0000
0000
0002
0003
1000
0010
,
0100
0001
0000
1000
0000
0001
0000
0010
0100
0000
0010
0000
0100
0000
0001
0000
,
0100
0000
1002
0000
1003
0010
1000
0010
,
0100
0001
0000
1000
0000
0010
0000
1000
0010
0000
0100
0000
0010
0000
0001
0000
,
0010
0000
2001
0000
3010
0100
0010
0100
,
0001
0100
0000
0010
0000
0100
0000
0100
0001
0000
1000
0000
0010
0000
1000
0000
,
0001
0000
1100
0000
0010
0001
0010
0100
,
1000
0010
0000
1000
0000
0100
0000
0100
0010
0000
0001
0000
1000
0000
0001
0000
,
0100
0000
0000
0000
1010
0000
0000
0000
0010
0000
1000
0000
0020
0030
0100
0001
,
1000
0100
0000
0010
0000
0010
0000
0100
0010
0000
0001
0000
1000
0000
0100
0000
,
0010
0001
1000
0010
1000
0001
0100
0010
,
0100
0001
0000
1000
0000
1000
0000
0010
1000
0000
0001
0000
0100
0000
0010
0000
,
0100
0001
1000
0100
0010
0001
0010
0001
,
1000
0010
0000
1000
0000
1000
0000
0001
0100
0000
0001
0000
0010
0000
0100
0000
,
0010
0001
1000
0100
1000
0010
0100
0001
,
1001
0000
0000
1010
0000
0000
0101
0000
2000
0000
0001
0000
3001
0000
0010
0000
,
0010
0000
0001
0100
0000
0000
2000
0000
0000
0000
0000
0000
0000
0000
0000
0000
0000
0000
3100
0000
0000
0000
0000
0000
,
0010
1000
0000
0010
0100
0010
0000
1000
0010
0000
0100
0000
0001
0000
0100
0000
,
0010
1000
0100
0010
0100
1000
0001
1000
,
0010
0100
0000
0001
0010
0001
0000
0010
0100
0000
0010
0000
0001
0000
1000
0000
,
0001
0010
0100
1000
0010
0100
0001
1000
,
0001
0100
0000
0010
1000
0010
0000
0100
0001
0000
1000
0000
0100
0000
0010
0000
,
0100
1000
0001
0010
0001
0100
0010
1000
,
1100
0000
0000
1010
0000
0000
0101
0000
0002
0000
1000
0000
1003
0000
0010
0000
,
0010
0000
1000
0100
0000
0000
0002
0000
0000
0000
0000
0000
0000
0000
0000
0000
0000
0000
0103
0000
0000
0000
0000
0000
;

//---------------dance-single - ----------------
#NOTEDATA:;
#CHARTNAME:;
#STEPSTYPE:dance-single;
#DESCRIPTION:;
#CHARTSTYLE:;
#DIFFICULTY:Beginner;
#METER:2;
#RADARVALUES:0.153523,0.197573,0.041333,0.000000,0.000000,130.000000,125.000000,5.000000,0.000000,0.000000,0.000000,0.000000,0.000000,0.000000,0.153523,0.197573,0.041333,0.000000,0.000000,130.000000,125.000000,5.000000,0.000000,0.000000,0.000000,0.000000,0.000000,0.000000;
#CREDIT:Daniel Van Eden;
#NOTES:
// measure 0
0000
0000
0000
0000
,  // measure 1
0000
0000
0000
0000
,  // measure 2
0000
0000
0000
0000
,  // measure 3
0000
0000
0000
0000
,  // measure 4
0010
0000
0010
0000
,  // measure 5
1000
0000
0010
0000
,  // measure 6
1000
0000
1000
0000
,  // measure 7
0001
0000
1000
0000
,  // measure 8
0001
0000
0001
0000
,  // measure 9
0100
0000
0001
0000
,  // measure 10
0010
0000
0010
0000
,  // measure 11
0100
0000
0000
1001
,  // measure 12
1000
0000
0010
0010
,  // measure 13
0010
0000
1000
0000
,  // measure 14
0100
0000
0010
0010
,  // measure 15
0010
0000
0001
0000
,  // measure 16
1000
0000
0100
0100
,  // measure 17
0100
0000
1000
0000
,  // measure 18
0010
0000
1000
1000
,  // measure 19
1000
1001
0000
0001
,  // measure 20
0001
0000
0100
0100
,  // measure 21
0100
0000
0010
0000
,  // measure 22
1000
0000
0001
0001
,  // measure 23
0001
0000
0010
0000
,  // measure 24
0100
0000
0010
0010
,  // measure 25
0010
0000
0100
0000
,  // measure 26
1000
0000
0010
0010
,  // measure 27
0010
0110
0000
0100
,  // measure 28
0000
0000
0010
0000
,  // measure 29
0000
1000
0000
0000
,  // measure 30
0000
0000
0001
0000
,  // measure 31
0000
1000
0000
0000
,  // measure 32
0000
0000
0010
0000
,  // measure 33
0000
0100
0000
0000
,  // measure 34
0010
0000
0000
0000
,  // measure 35
0000
0100
0000
0000
,  // measure 36
0000
0001
0000
1000
,  // measure 37
0000
0010
0000
1000
,  // measure 38
0000
0001
0000
0100
,  // measure 39
0000
0010
0000
0100
,  // measure 40
0000
0001
0000
0010
,  // measure 41
0000
0100
0000
0100
,  // measure 42
0000
0010
0000
0001
,  // measure 43
0001
0001
0000
1001
,  // measure 44
1000
0000
0010
0010
,  // measure 45
0010
0000
1000
0000
,  // measure 46
0001
0000
1000
1000
,  // measure 47
1000
0000
0001
0000
,  // measure 48
0100
0000
0001
0001
,  // measure 49
0001
0000
0010
0000
,  // measure 50
0100
0000
0001
1000
,  // measure 51
0001
1000
0000
1000
,  // measure 52
1000
0000
0010
0010
,  // measure 53
0010
0000
0100
0000
,  // measure 54
0001
0000
0010
0010
,  // measure 55
0010
0000
0100
0000
,  // measure 56
1000
0000
0001
0001
,  // measure 57
0001
0000
1000
0000
,  // measure 58
0001
0000
0100
0010
,  // measure 59
0100
0010
0000
1001
;

//---------------dance-single - ----------------
#NOTEDATA:;
#CHARTNAME:;
#STEPSTYPE:dance-single;
#DESCRIPTION:;
#CHARTSTYLE:;
#DIFFICULTY:Easy;
#METER:5;
#RADARVALUES:0.247999,0.296359,0.107466,0.008267,0.000000,210.000000,197.000000,13.000000,1.000000,0.000000,0.000000,0.000000,0.000000,0.000000,0.247999,0.296359,0.107466,0.008267,0.000000,210.000000,197.000000,13.000000,1.000000,0.000000,0.000000,0.000000,0.000000,0.000000;
#CREDIT:Daniel Van Eden;
#NOTES:
0000
0000
0000
0000
,
0000
0000
0000
0000
,
0000
0000
0000
0000
,
0000
0000
0000
0000
,
0010
1000
0001
0000
,
0001
1000
0100
0000
,
0100
0010
0001
0000
,
0001
0010
0100
0000
,
1000
0001
0100
0000
,
0100
0001
0010
0000
,
0010
0001
1000
0000
,
0010
1000
0010
1001
,
1000
0001
0100
0100
,
0100
0010
0100
0100
,
0001
1000
0010
0010
,
0010
1000
0010
0010
,
0100
0001
1000
1000
,
1000
0001
1000
1000
,
0010
1000
0001
0100
,
0010
1001
0000
1000
,
0100
0010
0001
0001
,
0001
0010
0100
0100
,
0010
0001
0100
0100
,
0100
0010
1000
1000
,
0010
1000
0001
0001
,
0001
1000
0100
0100
,
0010
0001
0100
0010
,
1000
0110
0000
0001
,
1000
0000
0000
1000
0000
0000
0000
0000
,
0000
1001
0000
0000
,
0010
0000
0000
0010
0000
0000
0000
0000
,
0000
0011
0000
0000
,
0100
0000
0000
0100
0000
0000
0000
0000
,
0000
0101
0000
0000
,
0001
0000
0000
0001
0000
0000
0000
0000
,
0000
1010
0000
0020
,
1030
0100
1000
1000
,
0001
0010
0001
0001
,
0100
0010
0100
0100
,
0010
0100
0010
0010
,
1000
0001
0100
0010
,
1000
0001
0010
0100
,
1000
0001
0010
0100
,
0100
1001
0000
1000
,
0010
1000
0001
1000
,
1000
0001
0100
0010
,
1000
0001
0010
0100
,
0100
0010
0001
1000
,
0010
0100
0001
1000
,
1000
0010
1000
0100
,
0010
0000
0001
0000
1000
0001
1000
0000
,
0001
1000
0001
0000
0000
0000
1010
0000
,
1000
0001
1000
1000
,
0001
1001
1000
0010
,
0100
0001
1000
0010
,
0100
0110
0010
0100
,
0001
0010
0100
1000
,
0100
1100
1000
0010
,
0100
0000
0001
0000
1000
0001
1000
0000
,
0001
1000
0001
0000
0000
0000
0110
0000
;

//---------------dance-single - ----------------
#NOTEDATA:;
#CHARTNAME:;
#STEPSTYPE:dance-single;
#DESCRIPTION:;
#CHARTSTYLE:;
#DIFFICULTY:Medium;
#METER:9;
#RADARVALUES:0.356647,0.395146,0.074400,0.107466,0.016533,302.000000,293.000000,9.000000,13.000000,0.000000,0.000000,0.000000,0.000000,0.000000,0.356647,0.395146,0.074400,0.107466,0.016533,302.000000,293.000000,9.000000,13.000000,0.000000,0.000000,0.000000,0.000000,0.000000;
#CREDIT:Daniel Van Eden;
#NOTES:
0000
0000
0000
0000
,
0000
0000
0000
0000
,
0000
0000
0000
0000
,
0000
0000
0000
0000
,
0010
0000
1000
0000
0001
0001
1000
0000
,
0010
0000
0010
0000
1000
1000
0100
0000
,
0010
0000
0001
0000
1000
1000
0100
0000
,
0010
0000
0001
0000
0001
0100
0010
0000
,
1000
0000
0010
0000
0100
0100
0010
0000
,
1000
0000
0001
0000
0010
0010
0100
0000
,
0100
0000
0010
0000
0001
0001
1000
0000
,
0010
0000
1000
0000
0001
0001
1000
0000
,
0010
1000
0010
0000
1000
0001
1000
0001
,
0100
0000
0110
0000
0001
0100
0001
0000
,
0010
0100
0010
0000
0010
0001
1000
0001
,
1000
0000
1100
0000
0010
0001
1000
0001
,
1000
0100
1000
0000
0010
1000
0010
1000
,
0100
0000
0011
0000
0010
0100
0010
0000
,
1000
0000
0001
0000
1000
0001
0010
0100
,
1000
0100
0020
0000
0000
0000
0031
0000
,
0001
0100
0001
0000
1000
0010
1000
0010
,
0100
0000
1001
0000
0001
0100
0001
0000
,
1000
0010
1000
0000
0001
0100
0001
0100
,
0010
0000
1100
0000
1000
0100
1000
0001
,
0010
0001
0010
0000
0100
0010
0100
1000
,
0100
0000
1001
0000
0010
1000
0010
0000
,
1000
0000
0010
0000
1000
0001
0100
0010
,
1000
0001
0200
0000
0000
0000
0310
0000
,
1000
0000
0000
1000
0000
0000
2000
0000
0000
0000
0000
0000
0000
0000
0000
0000
,
0000
0002
0000
3003
,
0001
0000
0000
0001
0000
0000
0002
0000
0000
0000
0000
0000
0000
0000
0000
0000
,
0000
2000
0000
3003
,
0010
0000
0000
0010
0000
0000
0020
0000
0000
0000
0000
0000
0000
0000
0000
0000
,
0000
0200
0000
0330
,
0100
0000
0000
0100
0000
0000
0200
0000
0000
0000
0000
0000
0000
0000
0000
0000
,
0000
0020
0000
0330
,
1000
0100
1000
0000
0001
0100
0001
0100
,
0001
0000
1000
0000
0010
1000
0010
1000
,
0010
0000
1000
0000
0001
0010
0001
0010
,
0001
0000
1000
0000
0100
1000
0100
1000
,
0100
0000
0010
0000
0001
1000
0001
1000
,
0001
0000
0100
0000
0010
0100
0010
0100
,
0010
0000
1000
0000
0001
0010
0010
0100
,
0100
1000
2000
0000
0000
0000
3001
0000
,
0100
0001
0100
0000
0010
0100
0010
0100
,
0010
0000
1001
0000
1000
0100
1000
0000
,
0010
1000
0010
0000
1000
0001
1000
0001
,
1000
0000
0101
0000
0001
0010
0001
1000
,
0001
0100
0001
0000
1000
0010
1000
0010
,
0100
0000
1001
0000
1000
0100
1000
0000
,
0010
0000
0010
1000
1000
0100
0100
0010
,
0010
0001
0002
0000
0000
0000
1003
0000
,
0100
1000
0100
0000
0010
0100
0010
0100
,
0010
0000
0001
0000
0100
0001
0100
0001
,
0100
0000
0010
0000
1000
0001
1000
0001
,
1000
0000
0100
0000
1000
0010
1000
0010
,
1000
0000
0010
0000
0100
0010
0100
0010
,
0100
0000
0001
0000
0010
0001
0010
0001
,
0010
0000
0001
1000
1000
0010
0010
0100
,
0100
0001
0002
0000
0000
0000
1003
0000
;
