#VERSION:0.83;
#TITLE:Focus;
#SUBTITLE:(ABSRDST Remix);
#ARTIST:Charli XCX;
#TITLETRANSLIT:;
#SUBTITLETRANSLIT:;
#ARTISTTRANSLIT:;
#GENRE:;
#ORIGIN:;
#CREDIT:;
#BANNER:Focus (ABSRDST Remix).png;
#BACKGROUND:Focus (ABSRDST Remix)-bg.png;
#PREVIEWVID:;
#JACKET:Focus (ABSRDST Remix)-jacket.png;
#CDIMAGE:;
#DISCIMAGE:;
#LYRICSPATH:;
#CDTITLE:;
#MUSIC:Focus (absrdst remix).ogg;
#OFFSET:-0.130847;
#SAMPLESTART:84.196587;
#SAMPLELENGTH:14.014595;
#SELECTABLE:YES;
#BPMS:0.000=137.000;
#STOPS:;
#DELAYS:;
#WARPS:;
#TIMESIGNATURES:0.000=4=4;
#TICKCOUNTS:0.000=4;
#COMBOS:0.000=1;
#SPEEDS:0.000=1.000=0.000=0;
#SCROLLS:0.000=1.000;
#FAKES:;
#LABELS:0.000=Song Start;
#BGCHANGES:;
#KEYSOUNDS:;
#ATTACKS:
;

//---------------dance-single - ----------------
#NOTEDATA:;
#CHARTNAME:;
#STEPSTYPE:dance-single;
#DESCRIPTION:;
#CHARTSTYLE:;
#DIFFICULTY:Challenge;
#METER:15;
#RADARVALUES:0.722631,0.943985,0.152133,0.182559,0.928011,665.000000,645.000000,20.000000,24.000000,0.000000,0.000000,0.000000,0.000000,0.000000,0.722631,0.943985,0.152133,0.182559,0.928011,665.000000,645.000000,20.000000,24.000000,0.000000,0.000000,0.000000,0.000000,0.000000;
#CREDIT:Daniel Van Eden;
#NOTES:
// measure 0
0000
0000
0000
0000
,  // measure 1
0000
0000
0000
0000
,  // measure 2
0000
0000
0000
0000
,  // measure 3
0000
0000
0000
0000
,  // measure 4
0000
0000
0000
0000
,  // measure 5
0000
0000
0000
0000
,  // measure 6
0000
0000
0000
0000
,  // measure 7
0000
0000
0000
0000
,  // measure 8
1000
0100
0000
0010
0100
0010
0000
0010
0001
0000
1000
0000
0100
0000
1000
0000
,  // measure 9
0010
1000
0000
1000
0001
0100
0000
0100
0010
0000
1000
0000
0100
0000
0010
0000
,  // measure 10
0001
0010
0000
0001
1000
0100
0000
0100
1000
0000
0010
0000
0100
0000
0001
0000
,  // measure 11
1000
0001
0000
0001
0100
0010
0000
0100
0001
0000
0010
0000
0001
0000
0001
0000
,  // measure 12
1000
0100
0000
0010
0100
1000
0000
1000
0010
0000
1000
0000
0001
0000
0100
0000
,  // measure 13
0010
0100
0000
0100
0001
1000
0000
1000
0001
0000
0010
0000
0100
0000
0010
0000
,  // measure 14
0001
0100
0000
0001
0100
0010
0000
0010
1000
0000
0001
0000
1000
0000
0100
0000
,  // measure 15
0010
0100
0000
0100
0010
0001
0000
0001
0010
0000
0100
1000
0100
0010
0001
0100
,  // measure 16
0010
1000
0000
1000
0001
0100
0000
0100
0010
0000
1000
0000
0101
0000
1000
0000
,  // measure 17
0010
0000
1100
0000
0101
0000
0010
0001
0100
0001
1000
0000
0100
0000
1000
0000
,  // measure 18
0100
1000
0000
1000
0001
0100
0000
0100
0001
0000
0010
0000
1100
0000
0010
0000
,  // measure 19
0001
0000
0101
0000
1100
0000
0100
0010
0001
0010
0100
0000
0010
0000
0100
0000
,  // measure 20
1000
0001
0000
0001
0010
0100
0000
0100
1000
0000
0010
0000
0101
0000
0010
0000
,  // measure 21
1000
0000
1010
0000
0011
0000
0100
1000
0001
1000
0100
0000
1000
0000
0001
0000
,  // measure 22
1000
1000
0100
2000
0010
3010
0200
0301
,  // measure 23
0001
0010
0100
0000
2002
0000
0000
0000
3003
0000
0000
0001
0100
0010
1000
0010
,  // measure 24
1000
0100
0010
0001
1000
0000
0100
1000
0000
1000
0010
0000
1000
0000
0001
0000
,  // measure 25
0100
0010
0100
0001
0010
0000
0001
0010
0000
0010
0001
0000
0100
0000
0001
0000
,  // measure 26
1000
0010
1000
0001
0100
0000
0010
0100
0000
0100
0010
0000
1000
0001
0100
0000
,  // measure 27
0001
1000
0010
1000
0100
0000
0010
0001
0000
0001
1000
0000
0100
1000
0001
0000
,  // measure 28
1000
0100
1000
0100
1000
0000
0100
1000
0000
0100
0000
0100
1000
0000
0100
0000
,  // measure 29
0010
0001
0010
0001
0010
0000
0001
0010
0000
0001
0000
0001
0100
0000
0010
0000
,  // measure 30
1000
0001
0100
0010
1000
0000
0100
0000
0010
0001
0100
0010
1000
0000
0001
0000
,  // measure 31
1000
0010
0100
0000
0002
0000
0000
0000
0000
0000
0000
0000
1003
0000
0000
0000
,  // measure 32
0010
0000
1000
0000
0020
0000
0030
1000
0000
0010
0000
0000
1000
0000
0010
0000
,  // measure 33
1000
0000
0100
0000
2000
0000
3000
0100
0000
1000
0000
0000
0100
0000
1000
0000
,  // measure 34
0200
0000
0310
0000
0010
0000
0000
0200
0000
0310
0000
0000
0010
0000
0010
0000
,  // measure 35
0002
0000
0013
0000
0010
0000
0000
0002
0000
0013
0000
0000
0010
0000
0010
0000
,  // measure 36
0001
0000
0100
0000
0002
0000
0003
0100
0000
0001
0000
0000
0100
0000
0001
0000
,  // measure 37
0100
0000
0010
0000
0200
0000
0300
0010
0000
0100
0000
0000
0010
0000
0100
0000
,  // measure 38
0020
0000
1030
0000
1000
0000
0000
0020
0000
1030
0000
0000
1000
0000
1000
0000
,  // measure 39
0200
0000
1300
0000
1000
0000
0000
0200
0000
1300
0000
0000
1000
0000
0100
0000
,  // measure 40
0010
0001
0000
1000
0010
0100
0000
0001
0010
0000
0001
0000
1001
0000
0000
0000
,  // measure 41
0100
1000
0000
0010
0100
0001
0000
0010
0100
0000
1000
0000
0001
0000
1000
0000
,  // measure 42
0010
0100
0000
0001
1000
0100
0000
1000
0001
0000
0100
0000
0110
0000
0000
0000
,  // measure 43
0010
1000
0000
0001
0100
0010
0000
1000
0010
0000
0100
0000
2002
0000
3003
0000
,  // measure 44
0010
0100
0000
1000
0001
0010
0000
0001
0100
0000
0010
0000
1010
0000
0000
0000
,  // measure 45
0100
1000
0000
0010
0100
0001
0000
1000
0010
0000
0100
0000
0101
0000
0000
0000
,  // measure 46
0010
0001
0000
0100
1000
0001
0000
0010
1000
0000
0100
0000
1100
0000
0000
0000
,  // measure 47
0010
1000
0000
0100
0001
1000
0000
0010
0001
0000
1000
0100
0010
0100
0010
0001
,  // measure 48
1000
0100
0000
0100
1000
0100
0000
0010
0100
0000
0001
0000
0100
0000
0001
0000
,  // measure 49
0100
0000
1000
0000
0001
0000
0100
0010
0000
0010
0100
0000
1000
0000
0100
0000
,  // measure 50
0010
1000
0000
1000
0001
0100
0000
0100
0010
0000
0001
0000
0010
0000
0001
0000
,  // measure 51
0010
1000
0100
0010
0100
0001
0100
0001
,  // measure 52
0100
1000
0000
1000
0001
0100
0000
0100
0001
0000
1000
0000
0100
0000
0010
0000
,  // measure 53
0001
0010
0100
1000
0010
0001
0010
1000
,  // measure 54
0001
1000
0001
1000
0001
1000
0001
1000
0010
0100
0010
0100
0010
0100
0010
0100
,  // measure 55
0010
1000
0010
1000
0010
1000
0010
1000
0100
1000
0100
0010
0002
0000
0000
0000
,  // measure 56
1003
0010
0000
0100
0010
1000
0000
1000
0001
0000
0010
0000
1100
0000
0010
0000
,  // measure 57
0001
0000
0100
0000
0001
0000
1000
0010
0000
0010
1000
0000
0001
0000
0100
0000
,  // measure 58
0010
0100
0000
0001
0100
0010
0000
0010
1000
0000
0001
0000
1010
0000
0001
0000
,  // measure 59
0100
0000
0010
0000
0100
0000
0001
0100
0000
0100
0010
0000
1000
0000
0100
0000
,  // measure 60
0010
0100
0000
1000
0100
0010
0000
0010
0100
0000
0010
0000
0101
0000
0010
0000
,  // measure 61
1000
0000
0001
0000
1000
0000
0010
0100
0000
0100
0001
0000
1000
0000
0010
0000
,  // measure 62
1000
0100
1000
0100
1000
0100
1000
0100
0010
0001
0010
0001
0010
0001
0010
0001
,  // measure 63
0100
0010
0100
0010
1000
0010
1000
0010
0100
0001
0100
0010
1000
0010
0100
0001
,  // measure 64
1000
0100
0010
0001
1000
0000
0001
1000
0000
1000
0100
0010
0001
0000
0100
0000
,  // measure 65
0010
1000
0001
0100
0010
0000
1000
0010
0000
0010
1000
0001
0100
0000
0010
0000
,  // measure 66
1000
0100
0010
0100
1000
0000
0001
1000
0000
1000
0100
0010
0001
0000
0100
0000
,  // measure 67
0001
0100
0010
1000
0010
0000
0100
0001
0000
0001
0100
0010
1000
0000
0001
0000
,  // measure 68
1000
0000
0001
0000
1000
0000
0001
0000
1000
0000
0000
0000
0001
0000
1000
0000
0001
0000
1000
0000
0001
0000
1000
0001
1000
0000
0100
0000
0010
0000
0001
0000
,  // measure 69
1000
0000
0010
0000
1000
0000
0010
0000
1000
0000
0000
0000
0001
0000
0100
0001
0100
0000
0010
0000
1000
0000
0010
1000
0010
0000
1000
0000
0100
0000
0010
0000
,  // measure 70
0001
0000
0001
0000
0002
0000
0000
1000
0000
1000
0000
0000
1000
0000
2003
0000
,  // measure 71
0100
0000
0100
0000
0100
0000
0000
0010
0000
3010
0000
0000
2002
0000
0000
0000
,  // measure 72
0000
0000
0000
0000
,  // measure 73
3003
0000
0000
0000
;
