#TITLE:Flamingo;
#SUBTITLE:;
#ARTIST:Kero Kero Bonito;
#TITLETRANSLIT:;
#SUBTITLETRANSLIT:;
#ARTISTTRANSLIT:;
#GENRE:;
#CREDIT:;
#BANNER:Flamingo.png;
#BACKGROUND:Flamingo-bg.png;
#LYRICSPATH:;
#CDTITLE:;
#MUSIC:Flamingo.ogg;
#OFFSET:0.385000;
#SAMPLESTART:54.745499;
#SAMPLELENGTH:21.573036;
#SELECTABLE:YES;
#BPMS:0.000000=178.000000
;
#STOPS:31.500000=1.180000,
94.000000=0.337000,
287.000000=1.685000
;
#BGCHANGES:;
#KEYSOUNDS:;
#ATTACKS:;

//---------------dance-single - ----------------
#NOTES:
     dance-single:
     :
     Hard:
     13:
     0.503494,0.630619,0.203199,0.196192,0.059558,503.000000,474.000000,29.000000,28.000000,0.000000,0.000000,0.503494,0.630619,0.203199,0.196192,0.059558,503.000000,474.000000,29.000000,28.000000,0.000000,0.000000:
0000
0000
0000
0000
,
0000
0000
0000
0000
,
0000
0000
0000
0000
,
0000
0000
0000
0000
,
0000
0000
0000
0000
,
0000
0000
0000
0000
,
0000
0000
0000
0000
,
0000
0000
0000
0000
,
0001
0000
0100
0000
0010
0000
1000
0000
0000
0000
0001
0000
0000
0000
0010
0001
,
0010
0100
1000
0010
,
0200
0000
0300
0010
1000
0100
0010
0001
,
0000
0000
0100
0000
0000
0000
0010
1000
0010
0000
0000
0000
1000
0000
0000
0000
,
0002
0000
0000
0003
0200
0300
0000
0010
,
0000
0000
0100
0000
0010
0000
0100
0000
0002
0000
0003
0000
0000
0000
0010
0100
,
1000
0010
0100
0001
1000
0100
0010
0001
,
0001
1000
0001
0100
0010
1000
0100
0010
,
0001
0000
0100
0000
0010
0000
1000
0000
0000
0000
0001
0000
0000
0000
1000
0100
,
1000
0010
1000
0001
,
0200
0300
0000
0001
0010
0100
0010
0001
,
0000
0000
1000
0000
0000
0000
0001
0100
0001
0000
0000
0000
0100
0000
0000
0000
,
0020
0000
0000
0030
2000
3000
0000
0001
,
0000
0000
1000
0000
0010
0000
1000
0000
0002
0000
0003
0000
0000
0000
1000
0010
,
0100
0001
0010
0001
1000
0000
0100
0000
,
0010
0001
0100
0001
1000
0000
0001
1000
,
0001
0000
0001
0000
1000
0100
1000
0000
,
1000
0000
1000
0000
1000
0010
0100
0100
,
0001
0000
0001
0000
0100
0010
0100
0000
,
0100
0001
0020
0000
0100
0000
0130
1000
,
0001
0000
0001
0000
1000
0010
1000
0000
,
1000
0000
0000
0000
1000
0000
0000
0000
0001
0000
1000
0100
0010
0000
0000
0000
,
0001
1000
0001
0000
1100
0000
0001
1000
,
0001
0100
0010
0000
1000
0000
0001
0010
,
0001
0100
0010
1000
0010
0100
0001
0000
,
1000
0000
1010
0000
0010
0100
0001
1000
,
0100
1000
0001
0010
0100
1000
0010
0000
,
0010
1000
0002
0000
0010
0000
1003
0010
,
1000
0001
0100
0010
0100
0001
0010
0000
,
0100
0000
0000
0000
0110
0000
0000
0000
0010
0000
0001
1000
0100
0000
0000
0000
,
0001
0100
0000
1000
0100
0000
0010
0001
,
0000
0100
0020
0000
0030
0000
1000
0001
,
0010
0000
0001
1000
0001
0000
1000
0000
,
0010
0000
1001
0000
0010
0100
0001
1000
,
0100
0000
0010
0100
0010
0001
0010
0000
,
0001
1000
0020
0000
0000
0130
0001
0000
,
1000
0000
0101
1100
,
0100
0000
0010
0000
0001
0000
0000
0000
0000
0000
1000
0001
1000
0000
0010
0000
,
1000
0100
0010
0000
0001
0000
1000
0000
,
0110
0000
1001
0000
0000
0000
0001
1000
,
0010
0000
1000
0100
1000
0000
0010
0000
,
0100
0000
0011
0000
0000
0100
0010
0001
,
1000
0000
1000
0000
0001
0000
0100
0010
,
0100
0001
2000
0000
0000
3010
0100
0000
,
0001
0000
1010
0011
,
0010
0000
0100
0000
1000
0000
0000
0000
0000
0000
0001
0010
0001
0000
0000
0000
,
0001
0100
0010
0000
1000
0000
0100
1000
,
0000
1000
0002
0000
0000
0000
0000
0000
,
0000
0000
0003
0000
,
2000
0002
0000
3003
,
0000
0000
0000
0000
,
0200
0302
0020
0000
,
0000
0033
0000
0000
,
0000
0000
0001
1000
0010
0000
1000
0000
0100
0000
0020
0000
0000
0000
0000
0000
,
0000
0030
0000
0000
,
0000
0000
0000
0010
,
0100
0000
0100
1000
0100
0000
0100
0001
,
0100
0000
0100
0010
0100
0000
1000
0000
,
0001
0000
0010
0001
0010
0000
0010
0100
,
0010
0000
0010
1000
0010
0001
0010
0000
,
0001
0000
1000
0010
1000
0000
1000
0100
,
1000
0000
1000
0001
1000
0000
0010
0000
,
0100
0000
0001
0010
0001
0000
2002
0000
,
0000
0000
0000
3003
,
0101
0000
0001
1000
0010
1000
0100
0000
,
0010
0000
0001
0100
0001
0000
1000
0010
,
0200
0000
0000
0310
1000
0000
0001
0000
,
0000
0000
0110
0000
1100
0000
0010
0100
,
0001
0000
0000
0000
0000
0000
1000
0010
1000
0000
0100
0000
0010
0000
0100
0000
,
0010
0001
1000
0001
,
0101
0000
0000
0000
1000
0010
1000
0000
,
0001
0000
0010
0001
0010
0000
0100
0000
,
1100
0000
0010
0001
1000
0001
0100
0000
,
0010
0000
1000
0000
0100
1000
0100
0010
,
0002
0000
0000
1003
0010
0000
0100
0000
,
0000
0000
0110
0000
1001
0000
0001
1000
,
0010
0000
0000
0000
0000
0000
0001
0100
0001
0000
0000
0000
1000
0000
0010
0000
,
1000
0000
0100
0000
0100
0010
0000
0011
,
0001
0000
1000
1000
0001
0100
0001
0010
,
0001
0000
1000
0000
0010
0000
0100
0001
0100
0000
0000
0000
0110
0000
0000
0000
,
1010
0000
1000
0100
0010
0100
0010
0001
,
1000
0000
0010
0000
0100
0000
0001
0000
1000
0000
0010
0000
1000
0000
0001
0010
,
0001
0000
0001
0010
0100
0000
1001
0000
,
0010
0000
1010
0000
0101
0000
1000
0001
,
0010
0000
0000
0000
0100
0000
0010
0001
1000
0000
1000
0000
1000
0000
0010
0000
,
0200
0000
0301
0010
0010
0001
2000
0000
,
3100
0000
0011
0000
0100
0001
1000
0010
,
1000
0000
0100
0000
1000
0000
0010
0100
0010
0000
0000
0000
1000
0000
0000
0000
,
0001
0000
0010
0000
0200
0000
0310
0001
,
0010
0100
1000
0001
1000
0010
0000
0100
,
0002
0000
1003
0010
0100
0000
1001
0000
,
0000
0000
0011
0000
1100
0000
1000
0001
,
0100
0000
0000
0000
;

//---------------dance-single - ----------------
#NOTES:
     dance-single:
     :
     Medium:
     11:
     0.430422,0.595584,0.371364,0.098096,0.000000,430.000000,377.000000,53.000000,14.000000,0.000000,0.000000,0.430422,0.595584,0.371364,0.098096,0.000000,430.000000,377.000000,53.000000,14.000000,0.000000,0.000000:
0000
0000
0000
0000
,
0000
0000
0000
0000
,
0000
0000
0000
0000
,
0000
0000
0000
0000
,
0000
0000
0000
0000
,
0000
0000
0000
0000
,
0000
0000
0000
0000
,
0000
0000
0000
0000
,
1000
0100
0010
0001
0000
0100
0000
0001
,
0010
0100
1000
0010
,
2000
0000
3000
0001
1000
0010
0100
0001
,
0000
0010
0000
0001
0010
0000
0100
0000
,
2000
0000
0000
3000
0020
0030
0000
1000
,
0000
0001
1000
0001
0100
0000
0000
0010
,
1000
0100
0010
0100
0010
0001
0100
0001
,
0001
0100
0001
0010
0100
1000
0010
1000
,
0001
0100
0010
1000
0000
0001
0000
0010
,
0001
0010
0100
0010
,
0002
0000
0003
1000
0001
0100
0010
1000
,
0000
0100
0000
0010
0100
0000
1000
0000
,
0002
0000
0003
0000
0020
0030
0000
0100
,
0000
0010
0100
1000
0200
0000
0300
0010
,
0001
1000
0100
1000
0010
0000
1000
0000
,
0002
0003
0000
0010
,
1000
0000
0001
0000
0100
0001
1000
0000
,
0010
1000
0000
0100
,
0010
0001
0010
0000
0001
0000
1000
0100
,
0000
0010
0100
0000
1000
0000
0010
1000
,
0010
1000
0010
0000
0000
0000
0100
0000
,
0101
0000
1010
0000
0000
0000
1000
0001
,
1000
0000
0001
0010
0001
0010
0100
1000
,
0100
1000
0020
0000
1030
0000
0001
1000
,
0001
0010
0001
0100
0001
1000
0010
0000
,
1010
1001
0000
1000
,
0100
0000
1000
0001
1000
0000
0010
0000
,
0100
0000
1001
0000
0000
0000
0001
0010
,
0001
0000
1000
0000
0100
0000
1000
0010
,
0000
0100
0001
0000
0000
0000
0100
0010
,
0100
0001
1000
0010
1000
0000
0001
0100
,
0010
1000
0001
0000
0000
0000
0010
0000
,
0000
0011
0000
0001
,
1000
1010
0000
0000
,
0010
1000
0100
0100
,
0010
0000
0101
0000
0000
0001
0010
0000
,
0110
0000
1100
0101
,
0011
0000
1010
0000
0000
0000
0001
1000
,
0001
0100
0010
0000
1000
0000
0100
0000
,
1000
1001
0000
0010
,
0000
1010
0000
1000
,
0001
0101
0000
0000
,
0100
0000
0010
0000
0100
0000
0001
0100
,
0001
0000
0010
0000
0000
0100
1000
0000
,
1010
0000
0101
1100
,
1010
0011
0000
0010
,
0010
0001
1000
0000
0010
0000
0100
0000
,
0000
0000
0000
0000
,
1000
0000
0000
1000
0000
0000
2000
0000
,
0000
3000
0000
0000
,
0001
0000
0000
0001
0000
0000
0002
0000
,
0000
0000
0003
0000
0000
0001
0010
0000
,
0100
0000
0000
0100
0000
0000
0100
0000
,
0000
0000
0010
0001
0010
0100
0000
0000
,
0010
0000
0000
0010
0000
0000
0010
0000
,
0000
0000
1000
0010
,
1000
0001
1000
0000
0001
0100
0001
0000
,
0101
0000
0011
0000
0000
0100
1000
0000
,
0010
1000
0001
1000
,
1100
0101
0000
0010
,
0100
0010
1000
0100
,
1000
1001
0000
0010
,
1000
0001
0100
0020
,
0000
0000
0000
0030
,
1001
0000
0000
0100
,
0001
0100
1000
0100
,
1001
0000
0000
0001
0010
0000
1001
0000
,
0000
1010
0101
1100
,
0011
0000
0000
0000
0010
0100
1000
0001
,
0010
0001
0001
1000
,
1010
0000
0100
0000
,
0011
0000
0100
0010
,
0110
0000
0000
1000
,
0100
0000
0010
0000
0001
1000
0001
0000
,
0100
0000
0000
0100
0010
0000
1010
0000
,
0000
0011
1100
1010
,
1001
0000
0000
0000
0100
0000
0010
0100
,
0010
0000
1000
0000
0001
0100
0000
0001
,
1000
0000
0001
0010
0100
1000
0001
0010
,
0000
0001
0000
0100
0010
0000
1000
0000
,
0001
0000
0010
0000
0002
0000
0003
0100
,
0001
1000
0010
1000
0000
0001
0000
1000
,
0010
0000
1000
0100
0010
0000
0011
0000
,
0000
0110
1001
1010
,
0101
0000
0000
0000
0010
1000
0010
1000
,
0010
0000
0100
0001
0100
0001
0100
0000
,
1001
0000
0110
0000
1000
0100
0010
0001
,
0000
0100
0000
0010
1000
0000
0010
0000
,
1000
0000
0001
0000
0020
0000
0030
0100
,
1000
0001
0010
0001
0000
0100
0000
0001
,
1000
0000
0010
1000
0100
0000
1001
0000
,
0000
0101
1010
1100
,
0011
0000
0000
0000
;

//---------------dance-single - ----------------
#NOTES:
     dance-single:
     :
     Easy:
     7:
     0.263258,0.385378,0.056055,0.042041,0.000000,263.000000,255.000000,8.000000,6.000000,0.000000,0.000000,0.263258,0.385378,0.056055,0.042041,0.000000,263.000000,255.000000,8.000000,6.000000,0.000000,0.000000:
0000
0000
0000
0000
,
0000
0000
0000
0000
,
0000
0000
0000
0000
,
0000
0000
0000
0000
,
0000
0000
0000
0000
,
0000
0000
0000
0000
,
0000
0000
0000
0000
,
0000
0000
0000
0000
,
0010
0000
1000
0000
,
0001
0010
0001
0100
,
0001
0000
1000
0000
,
0001
1000
0010
0100
,
0002
0000
2003
0000
,
3010
0100
0010
0000
,
1000
0000
0000
0001
0000
0000
1000
0000
,
0010
0100
0010
0010
,
1000
0000
0001
0000
,
1000
0010
1000
0001
,
1000
0000
0100
0000
,
0010
0100
0010
0001
,
2000
0000
3002
0000
,
1003
0010
1000
0000
,
0001
1000
0010
0001
,
0100
0000
0000
0000
0000
0000
1000
1000
,
0000
0000
0000
0000
0001
0001
0000
0000
,
0000
0000
0000
0000
0000
1000
0010
0010
,
0000
0000
0000
0000
0100
0100
0000
0000
,
0000
0000
0020
0000
0000
0000
1030
1000
,
0000
0000
0000
0000
0001
0001
0000
0000
,
0000
0000
0000
1000
,
0000
0001
0000
0000
1000
0000
0000
0001
,
0000
0000
0010
0000
0000
0000
0100
0100
,
0000
0000
0000
0000
1000
1000
0000
0000
,
0000
0000
0000
0000
0000
0001
0010
0010
,
0000
0000
0000
0000
0001
0001
0000
0000
,
0000
0000
0200
0000
0000
0000
0310
0010
,
0000
0000
0000
0000
0100
0100
0000
0000
,
0000
0000
0000
0010
,
0000
1000
0000
0000
0001
0000
0000
0100
,
0000
0001
0000
1000
,
0000
1001
0000
0010
,
0100
0010
0000
0000
,
0001
0100
0010
1000
,
0001
0001
0000
1000
,
0001
0000
0100
1000
,
0010
0001
0000
1000
,
0100
1000
0100
0010
,
0001
0001
0000
0010
,
0000
0101
0000
1000
,
0010
0010
0000
0000
,
0010
1000
0100
0100
,
0010
0001
0000
0010
,
0100
0000
1000
0010
,
0001
0100
0000
0001
,
1000
0010
0100
0001
,
0000
0000
0000
0000
,
0010
0000
0000
0010
0000
0000
0010
0000
,
0000
0000
0000
0000
,
0010
0000
0000
0010
0000
0000
0010
0000
,
0000
0000
0000
0000
,
1000
0000
0000
1000
0000
0000
1000
0000
,
0000
0000
0000
0000
,
0001
0000
0000
0001
0000
0000
0001
0000
,
0000
0000
1000
0010
,
0100
0010
0100
0010
,
0010
0010
0000
1000
,
0001
1000
0001
1000
,
1000
1000
0000
0100
,
0010
0100
0010
0001
,
0010
0001
0000
1000
,
0001
0100
0010
1000
,
0000
0000
0000
0000
,
1001
0000
0000
0001
,
1000
0010
0010
1000
,
0100
0000
1000
0010
,
0000
0001
0100
1000
,
0010
0000
0001
0100
,
0001
0010
0010
0100
,
0100
0000
0010
0000
,
1100
0000
0010
1000
,
1000
0000
0000
0010
,
0100
0001
0001
0010
,
0001
0000
0010
0100
,
0000
1000
0100
0001
,
0010
0000
0010
0001
,
1000
0100
0010
0000
,
0000
0000
0010
0000
,
1001
0000
1000
0010
,
0100
0010
1000
0000
,
0101
0000
0010
0001
,
1000
0001
0100
0100
,
0000
0010
1000
0001
,
0100
0000
0001
0010
,
0011
1000
0100
1100
,
1000
0001
0100
0000
,
0010
0000
0100
0001
,
0100
0010
0100
0000
,
0001
0000
0010
0001
,
0010
0100
0010
0010
,
0000
0001
1000
0010
,
1000
0000
0000
0000
;

//---------------dance-single - ----------------
#NOTES:
     dance-single:
     :
     Beginner:
     4:
     0.190187,0.245241,0.014014,0.021021,0.000000,190.000000,188.000000,2.000000,3.000000,0.000000,0.000000,0.190187,0.245241,0.014014,0.021021,0.000000,190.000000,188.000000,2.000000,3.000000,0.000000,0.000000:
// measure 0
0000
0000
0000
0000
,  // measure 1
0000
0000
0000
0000
,  // measure 2
0000
0000
0000
0000
,  // measure 3
0000
0000
0000
0000
,  // measure 4
0000
0000
0000
0000
,  // measure 5
0000
0000
0000
0000
,  // measure 6
0000
0000
0000
0000
,  // measure 7
0000
0000
0000
0000
,  // measure 8
0010
0000
1000
0000
,  // measure 9
0001
0001
0001
0000
,  // measure 10
1000
0000
0001
0000
,  // measure 11
0100
0100
0100
0000
,  // measure 12
0020
0000
0030
0000
,  // measure 13
1000
0000
0001
0000
,  // measure 14
0100
0000
0010
0000
,  // measure 15
0100
0000
0110
0000
,  // measure 16
1000
0000
0001
0000
,  // measure 17
1000
1000
1000
0000
,  // measure 18
0001
0000
0010
0000
,  // measure 19
0001
0001
0001
0000
,  // measure 20
0200
0000
0300
0000
,  // measure 21
0010
0000
0100
0000
,  // measure 22
0001
0000
1000
0000
,  // measure 23
0001
0000
0000
0001
,  // measure 24
0000
0000
1000
0000
,  // measure 25
0000
0000
0000
0001
,  // measure 26
0000
0000
1000
0000
,  // measure 27
0000
0010
0000
1000
,  // measure 28
0000
0000
0100
0000
,  // measure 29
0000
0000
0000
0010
,  // measure 30
0000
0001
0000
1000
,  // measure 31
0000
0001
0000
0100
,  // measure 32
0000
0000
0010
0000
,  // measure 33
0000
0000
0000
1000
,  // measure 34
0000
0000
0001
0000
,  // measure 35
0000
0010
0000
0001
,  // measure 36
0000
0000
1000
0000
,  // measure 37
0000
0000
0000
0100
,  // measure 38
0000
0010
0000
0100
,  // measure 39
0000
1000
0000
0001
,  // measure 40
0000
1000
0000
0010
,  // measure 41
0010
0010
0000
1000
,  // measure 42
0000
0001
0000
0100
,  // measure 43
0100
0100
0000
0001
,  // measure 44
0001
0000
1000
1000
,  // measure 45
0001
0001
0000
0010
,  // measure 46
0000
0001
0000
1000
,  // measure 47
1000
1000
0000
0010
,  // measure 48
0000
0100
0000
0001
,  // measure 49
0001
0001
0000
0100
,  // measure 50
0000
0010
0000
1000
,  // measure 51
1000
1000
0000
0100
,  // measure 52
0100
0000
0010
0010
,  // measure 53
0001
0001
0000
0010
,  // measure 54
0000
0100
0000
1000
,  // measure 55
0000
1001
0000
0000
,  // measure 56
0000
0000
0000
0000
,  // measure 57
0000
0000
0000
0000
,  // measure 58
0000
0000
0000
0000
,  // measure 59
0000
0000
0000
0001
,  // measure 60
0001
0000
1000
0000
,  // measure 61
0000
0000
0000
0000
,  // measure 62
0000
0000
0000
0000
,  // measure 63
0000
0000
0000
0010
,  // measure 64
0000
1000
0000
0001
,  // measure 65
0001
0001
0000
0010
,  // measure 66
0000
0001
0000
1000
,  // measure 67
1000
1000
0000
0100
,  // measure 68
0000
1000
0000
0001
,  // measure 69
0001
0001
0000
1000
,  // measure 70
0000
0001
0000
2000
,  // measure 71
0000
0000
0000
3000
,  // measure 72
0000
0000
0010
0000
,  // measure 73
0100
0000
0001
0001
,  // measure 74
0001
0000
0010
0010
,  // measure 75
0000
0001
0001
1000
,  // measure 76
1000
0000
0010
0000
,  // measure 77
0100
0000
0010
0010
,  // measure 78
0010
0000
1000
0000
,  // measure 79
0001
0000
1000
1000
,  // measure 80
1000
0000
0100
0000
,  // measure 81
0010
0000
0100
0100
,  // measure 82
0100
0000
0010
0010
,  // measure 83
0000
0001
0001
1000
,  // measure 84
1000
0000
0001
0000
,  // measure 85
0100
0000
0010
0000
,  // measure 86
0000
0000
1000
0000
,  // measure 87
0001
0000
0010
0010
,  // measure 88
0010
0000
0001
0000
,  // measure 89
0100
0000
0010
0010
,  // measure 90
0010
0000
1000
1000
,  // measure 91
0000
0001
0001
1000
,  // measure 92
1000
0000
0001
0000
,  // measure 93
0001
0000
1000
0000
,  // measure 94
1000
0000
0010
0000
,  // measure 95
0100
0000
0010
0010
,  // measure 96
0010
0000
0100
0000
,  // measure 97
0001
0000
1000
1000
,  // measure 98
1000
0000
0001
0001
,  // measure 99
0000
0010
0010
0001
,  // measure 100
0001
0000
0000
0000
;
