#VERSION:0.83;
#TITLE:Escapism;
#SUBTITLE:;
#ARTIST:Chime;
#TITLETRANSLIT:;
#SUBTITLETRANSLIT:;
#ARTISTTRANSLIT:;
#GENRE:;
#ORIGIN:;
#CREDIT:;
#BANNER:banner.png;
#BACKGROUND:background.png;
#PREVIEWVID:;
#JACKET:jacket.png;
#CDIMAGE:;
#DISCIMAGE:;
#LYRICSPATH:;
#CDTITLE:;
#MUSIC:Escapism.ogg;
#OFFSET:-0.093521;
#SAMPLESTART:57.707367;
#SAMPLELENGTH:19.200001;
#SELECTABLE:YES;
#BPMS:0.000=100.000;
#STOPS:;
#DELAYS:;
#WARPS:;
#TIMESIGNATURES:0.000=4=4;
#TICKCOUNTS:0.000=4;
#COMBOS:0.000=1;
#SPEEDS:0.000=1.000=0.000=0;
#SCROLLS:0.000=1.000;
#FAKES:;
#LABELS:0.000=Song Start;
#BGCHANGES:;
#KEYSOUNDS:;
#ATTACKS:
;

//---------------dance-single - ----------------
#NOTEDATA:;
#CHARTNAME:;
#STEPSTYPE:dance-single;
#DESCRIPTION:;
#CHARTSTYLE:;
#DIFFICULTY:Hard;
#METER:15;
#RADARVALUES:0.557904,0.668039,0.253045,0.371133,0.649482,463.000000,433.000000,30.000000,44.000000,0.000000,0.000000,0.000000,0.000000,0.000000,0.557904,0.668039,0.253045,0.371133,0.649482,463.000000,433.000000,30.000000,44.000000,0.000000,0.000000,0.000000,0.000000,0.000000;
#CREDIT:Daniel Van Eden;
#NOTES:
0000
0000
0000
0000
,
0000
0000
0000
0000
,
0000
0000
0000
0000
,
0000
0000
0000
0000
,
1000
0000
0000
0010
0000
0000
1000
0000
0001
0000
0000
0000
1000
0000
0000
0100
0000
0000
0010
0000
0100
0010
0000
0000
,
0001
0000
0000
0100
0000
0000
0001
0000
0010
0000
0000
0000
0001
0000
0000
0100
0000
0010
0100
0000
0000
0001
0000
0000
,
1000
0000
0000
0100
0000
0000
1000
0000
0001
0000
0000
0000
0100
0000
0000
0010
0000
0000
0100
0000
0001
0010
0000
0000
,
0100
1000
0010
1000
0100
0010
1001
0000
,
1000
0000
0000
0000
0000
0000
0001
0000
0000
0000
0000
0000
0101
0000
0000
0000
0000
0000
0020
0000
0000
0030
0000
0000
0000
0000
0000
0000
0000
0000
0200
0000
0000
0300
0000
0000
0001
0000
1000
0000
0100
0000
0010
0000
0001
0000
1000
0000
,
0100
0000
0000
0010
0000
0000
1100
0000
0000
1000
0000
0000
0010
0000
0010
0100
0001
0010
0200
0000
0000
0300
0000
0000
,
1000
0000
0000
0100
1000
0100
0020
0000
0000
0230
0000
0000
0300
0000
0000
1000
0010
0100
0001
0010
0001
1000
0100
1000
,
0010
0000
0000
0000
1000
0000
0010
0000
0000
0000
0000
0000
0101
0000
0000
0000
0001
0000
0010
0000
0000
0000
0000
0000
0000
0000
0000
0000
0110
0000
2000
0000
0000
3000
0000
0000
0110
0000
0000
0000
0002
0000
0003
0000
0000
0000
0000
0000
,
1100
0000
0000
0000
0000
0000
0001
0000
0000
0000
0000
0000
0110
0000
0000
0000
0000
0000
0200
0000
0000
0300
0000
0000
0000
0000
0000
0000
0000
0000
0020
0000
0000
0030
0000
0000
0001
0000
1000
0000
0100
0000
1000
0000
0010
0000
0100
0000
,
0001
0000
0000
0010
0000
0000
0101
0000
0000
1000
0000
0000
0100
0000
0100
1000
0001
0010
0002
0000
0000
0003
0000
0000
,
0100
0000
0000
0010
1000
0100
2000
0000
0000
3002
0000
0000
0003
0000
0000
0010
0001
0010
0100
0010
0100
1000
0001
0010
,
0100
0000
0010
0001
0000
0000
0001
1000
0000
1000
0000
1000
0000
1000
0001
0100
0010
1000
0100
0000
0000
0010
0100
1000
,
0001
0000
0000
0000
0000
1000
0000
0000
0000
0010
0000
0000
0000
0000
1000
0000
0000
0000
0001
0000
0000
0100
0000
0000
,
0020
1000
0000
1000
0000
0100
0000
1030
,
0100
0000
0000
0000
0000
0010
0000
0000
0000
0001
0000
0000
0000
0000
1000
0000
0000
0000
0200
0000
0000
0000
0000
0000
,
0020
0000
0030
0000
2000
0000
3300
0010
,
0100
0000
0000
0000
0000
0001
0000
0000
0000
0010
0000
0000
0000
0000
0001
0000
0000
0000
0100
0000
0000
0010
0000
0000
,
2000
0100
0000
0001
0000
0001
0000
3100
,
0010
0000
0000
0000
0000
0100
0000
0000
0000
1000
0000
0000
0000
0000
0100
0000
0000
0000
0010
0000
0000
0000
0000
0000
,
0010
0000
0000
0000
0000
0010
0100
0000
0000
0010
0000
0000
0000
0000
1000
0000
0000
0000
0101
0000
0000
0000
0000
0000
,
1001
0000
0000
1000
0000
0000
1010
0000
0000
0202
0000
0000
0303
0000
0000
0010
0000
0000
1000
0001
0010
0100
1000
0001
,
0010
0000
0000
0100
0000
0000
0011
0000
0000
0001
0000
0000
0100
0000
0100
0010
1000
0100
0020
0000
0000
0130
0000
0000
,
0001
0000
0000
0010
0001
0100
0010
1000
0100
0020
0000
0000
0030
0000
0000
0001
0100
0010
1000
0100
1000
0001
0010
0001
,
0100
0000
0000
0000
0000
0000
2100
0000
0000
0000
0000
0000
3100
0000
0010
0000
0001
0000
0020
0000
0000
0000
0030
0000
0000
0000
0100
0000
0010
0000
0002
0000
0000
0003
0000
0000
0110
0000
0000
0000
2200
0000
3300
0000
0000
0000
0000
0000
,
0011
0000
0000
1000
0000
0000
0110
0000
0000
2020
0000
0000
3030
0000
0000
0100
0000
0000
1000
0001
0010
0001
0100
0010
,
1000
0000
0000
0100
0000
0000
1010
0000
0000
0001
0000
0000
0010
0000
0010
0001
1000
0100
2000
0000
0000
3001
0000
0000
,
0010
0000
0000
1000
0010
0100
0001
0010
0100
2000
0000
0000
3000
0000
0000
0100
1000
0100
0010
0100
0010
0001
1000
0100
,
0010
0000
0000
0011
0000
0000
1000
0001
0010
0002
0000
0003
1000
0100
1000
0020
0000
0030
1000
0000
0002
0000
0003
0000
,
1001
0000
0000
0001
0000
0000
0101
0000
0000
2020
0000
0000
3030
0000
0000
1000
0000
0000
0100
1000
0100
0010
0001
1000
,
0200
0000
0000
1300
0000
0010
1000
0000
0000
0001
0000
0000
0010
0000
0010
0001
0010
0100
2000
0000
0000
3010
0000
0000
,
0100
0000
0000
0001
0100
0010
1000
0010
0100
0002
0000
0000
0003
0000
0000
1000
0010
1000
0001
0100
0010
0100
0001
1000
,
0010
0000
0000
1000
0000
0100
0010
0000
0000
0100
0000
0000
1000
0001
1000
0010
0000
0000
1000
0000
0100
0010
0000
0000
,
0011
0000
0000
0001
0000
0000
1001
0000
0000
2200
0000
0000
3300
0000
0000
0010
0000
0000
0100
1000
0001
0010
0001
1000
,
0200
0000
0000
1300
0000
0001
0010
0000
0000
0001
0000
0000
0100
0000
0010
1000
0001
0100
0020
0000
0000
1030
0000
0000
,
0001
0000
0000
1000
0100
0010
0100
1000
0001
0020
0000
0000
0030
0000
0000
0100
0010
0001
0010
0100
1000
0001
0010
0001
,
0100
0000
0000
1010
0000
0000
0101
0000
0000
1000
0000
0000
0010
0001
0010
0100
0000
0000
1000
0000
0002
0000
0000
0000
,
1003
0000
0000
0000
0000
0100
0000
0000
0000
1000
0000
0000
0010
0000
0000
1000
0000
0000
0001
0000
0000
0100
0000
0000
,
0010
0000
0000
0000
0000
0100
0000
0000
0000
0010
0000
0000
1000
0000
0000
0001
0000
0000
0100
0000
0000
0010
0000
0000
,
1000
0000
0000
0000
0000
0010
0000
0000
0000
0100
0000
0000
0001
0000
0000
0010
0000
0000
0001
0000
0000
1000
0000
0000
,
0100
0000
0000
0000
0000
0010
0000
0000
0000
0100
0000
0000
1000
0000
0000
0001
0000
0000
0010
0000
0000
0100
0000
0000
,
1000
0000
0000
0000
0000
0001
0000
0000
0000
0100
0000
0000
0001
0000
0000
1000
0000
0000
0010
0000
0000
0100
0000
0000
,
0010
0000
0000
0000
0000
1000
0000
0000
0000
0001
0000
0000
1000
0000
0000
0100
0000
0000
0010
0000
0000
0001
0000
0000
,
1000
0000
0000
0000
0000
0010
0000
0000
0000
1000
0000
0000
0001
0000
0000
0100
0000
0000
0001
0000
0000
0010
0000
0000
,
0100
0000
0000
0000
0000
0010
0000
0000
0000
0001
0000
0000
1000
0000
0000
0001
0000
0000
0100
0000
0000
0010
0000
0000
,
1000
0000
0000
0000
;

//---------------dance-single - ----------------
#NOTEDATA:;
#CHARTNAME:;
#STEPSTYPE:dance-single;
#DESCRIPTION:;
#CHARTSTYLE:;
#DIFFICULTY:Medium;
#METER:13;
#RADARVALUES:0.431381,0.557964,0.059044,0.227740,0.413307,358.000000,351.000000,7.000000,27.000000,0.000000,0.000000,0.000000,0.000000,0.000000,0.431381,0.557964,0.059044,0.227740,0.413307,358.000000,351.000000,7.000000,27.000000,0.000000,0.000000,0.000000,0.000000,0.000000;
#CREDIT:Daniel Van Eden;
#NOTES:
0000
0000
0000
0000
,
0000
0000
0000
0000
,
0000
0000
0000
0000
,
0000
0000
0000
0000
,
0010
0000
0000
0000
0000
1000
0000
0000
0000
0001
0000
0000
1000
0000
0000
0100
0000
0000
1000
0000
0000
0010
0000
0000
,
0100
0000
0000
0000
0000
0010
0000
0000
0000
0100
0000
0000
0001
0000
0000
0010
0000
0000
0001
0000
0000
0100
0000
0000
,
0010
0000
0000
0000
0000
1000
0000
0000
0000
0010
0000
0000
1000
0000
0000
0001
0000
0000
0010
0000
0000
0001
0000
0000
,
0100
0000
0000
0000
0000
0001
0000
0000
0000
1000
0000
0000
0010
0000
0000
0100
0000
0000
1001
0000
0000
0000
0000
0000
,
1000
0000
0000
0001
0000
0000
0000
0000
0000
1000
0000
0000
0000
0000
0000
0010
0000
0000
1000
0100
1000
0100
1000
0100
,
1000
0000
0000
0010
0000
0000
0100
0000
0000
0001
0000
0000
0010
0000
0000
0001
0010
0001
0020
0000
0000
0030
0000
0000
,
0001
0000
0000
1000
0001
1000
0002
0000
0000
0000
0000
0000
0003
0000
0000
0100
0010
0100
0010
0000
0000
1000
0000
0000
,
0010
0000
0000
1000
0000
0000
0001
0000
0000
1000
0000
0000
0100
0000
0100
0010
0000
0000
0010
0000
0002
0000
0000
0000
,
1003
0000
0000
0010
0000
0000
0000
0000
0000
1000
0000
0000
0000
0000
0000
0001
0000
0000
0100
0001
0100
0001
0100
0001
,
0100
0000
0000
0010
0000
0000
1000
0000
0000
0001
0000
0000
0100
0000
0000
0010
1000
0010
2000
0000
0000
3000
0000
0000
,
0100
0000
0000
1000
0001
1000
0002
0000
0000
0000
0000
0000
0003
0000
0000
0010
0100
0010
0100
0000
0000
1000
0000
0000
,
0010
0000
0000
1000
0000
0000
1100
0000
0000
0010
0000
0000
0000
0000
0010
0001
0000
0000
2002
0000
0000
3003
0000
0000
,
0001
0000
0000
0000
0000
0010
0000
0000
0000
0100
0000
0000
0000
0000
0010
0000
0000
0000
0002
0000
0000
0000
0000
0000
,
0000
0000
0000
0000
0000
0000
0003
0100
,
0010
0000
0000
0000
0000
1000
0000
0000
0000
0100
0000
0000
0000
0000
0010
0000
0000
0000
0200
0000
0000
0000
0000
0000
,
0000
0000
0000
0000
0000
0000
0300
0010
,
0001
0000
0000
0000
0000
0010
0000
0000
0000
0100
0000
0000
0000
0000
1000
0000
0000
0000
0020
0000
0000
0000
0000
0000
,
0000
0000
0000
0000
0000
0000
0030
0001
,
0010
0000
0000
0000
0000
1000
0000
0000
0000
0100
0000
0000
0000
0000
0001
0000
0000
0000
0200
0000
0000
0000
0000
0000
,
0010
0000
0000
0000
0000
0000
0310
0000
0000
0001
0000
0000
0000
0000
0010
0000
0000
0000
1001
0000
0000
0000
0000
0000
,
0001
0000
0000
0100
0000
0000
1010
0000
0000
2000
0000
0000
0000
0000
0000
3000
0000
0000
0001
0010
0001
0010
0001
0010
,
0001
0000
0000
0100
0000
0000
0010
0000
0000
1000
0000
0000
0100
0000
0000
0010
0100
1000
0002
0000
0000
0000
0000
0003
,
0100
0000
0000
0010
1000
0010
1000
0000
0000
0002
0000
0000
0003
0000
0000
0100
0010
0100
0010
0000
0000
1001
0000
0000
,
0100
0000
0000
0010
0000
0000
0001
0000
0000
1000
0000
0000
0001
0000
1000
0010
0000
0000
0010
0000
0200
0000
0000
0000
,
0301
0000
0000
0010
0000
0000
0100
0000
0000
0010
0000
0000
0000
0000
0000
0100
0000
0000
1000
0010
1000
0010
1000
0010
,
1000
0000
0000
0001
0000
0000
0010
0000
0000
0001
0000
0000
1000
0000
0000
0001
0100
0001
0200
0000
0000
0300
0000
0000
,
0010
0000
0000
1000
0001
1000
0001
0000
0000
0200
0000
0000
0300
0000
0000
0010
1000
0010
1000
0000
0000
0100
0000
0000
,
0010
0000
0000
0001
0000
0000
0100
0000
0000
0001
0000
0000
1000
0100
1000
0100
0000
0000
0010
0000
0002
0000
0000
0000
,
1003
0000
0000
0010
0000
0000
0101
0000
0000
0002
0000
0000
0000
0000
0000
0013
0000
0000
0100
0010
0100
0010
0100
0010
,
0100
0000
0000
1000
0000
0000
0010
0000
0000
1000
0000
0000
0001
0000
0000
0100
0010
1000
0002
0000
0000
0000
0000
0000
,
0013
0000
0000
0001
1000
0001
1000
0000
0000
0020
0000
0000
0030
0000
0000
0100
0001
0100
0001
0000
0000
0010
0000
0000
,
0100
0000
0000
1000
0000
0000
0100
0000
0000
0001
0000
0000
0100
0000
0100
1000
0000
0000
1000
0000
0020
0000
0000
0000
,
1030
0000
0000
0001
0000
0000
0100
0000
0000
0002
0000
0000
0000
0000
0000
1003
0000
0000
0010
1000
0010
1000
0010
1000
,
0010
0000
0000
0100
0000
0000
0010
0000
0000
1000
0000
0000
0100
0000
0000
0010
0001
0010
0002
0000
0000
0003
0000
0000
,
0010
0000
0000
0100
1000
0100
1000
0000
0000
0020
0000
0000
0030
0000
0000
1000
0001
1000
0001
1000
0001
1000
0100
1000
,
0100
0000
0000
0010
0000
0010
0100
0000
0000
1000
0000
0000
0001
0000
0001
0100
0000
0000
0100
0000
0020
0000
0000
0000
,
1030
0000
0000
0000
0000
0001
0000
0000
0000
1000
0000
0000
0001
0000
0000
0100
0000
0000
0010
0000
0000
1000
0000
0000
,
0001
0000
0000
0000
0000
1000
0000
0000
0000
0001
0000
0000
1000
0000
0000
0100
0000
0000
0010
0000
0000
0100
0000
0000
,
0001
0000
0000
0000
0000
0100
0000
0000
0000
1000
0000
0000
0010
0000
0000
1000
0000
0000
0001
0000
0000
0100
0000
0000
,
0010
0000
0000
0000
0000
0100
0000
0000
0000
0001
0000
0000
0010
0000
0000
1000
0000
0000
0010
0000
0000
0001
0000
0000
,
1000
0000
0000
0000
0000
0100
0000
0000
0000
1000
0000
0000
0010
0000
0000
0100
0000
0000
0010
0000
0000
1000
0000
0000
,
0001
0000
0000
0000
0000
0010
0000
0000
0000
0001
0000
0000
0100
0000
0000
0010
0000
0000
0100
0000
0000
0001
0000
0000
,
1000
0000
0000
0000
0000
0100
0000
0000
0000
0010
0000
0000
0001
0000
0000
0100
0000
0000
0001
0000
0000
0010
0000
0000
,
0100
0000
0000
0000
0000
0010
0000
0000
0000
0100
0000
0000
1000
0000
0000
0010
0000
0000
0100
0000
0000
0001
0000
0000
,
2000
0000
0000
0000
,
3000
0000
0000
0000
;

//---------------dance-single - ----------------
#NOTEDATA:;
#CHARTNAME:;
#STEPSTYPE:dance-single;
#DESCRIPTION:;
#CHARTSTYLE:;
#DIFFICULTY:Easy;
#METER:8;
#RADARVALUES:0.283169,0.303654,0.075913,0.168697,0.000000,235.000000,226.000000,9.000000,20.000000,0.000000,0.000000,0.000000,0.000000,0.000000,0.283169,0.303654,0.075913,0.168697,0.000000,235.000000,226.000000,9.000000,20.000000,0.000000,0.000000,0.000000,0.000000,0.000000;
#CREDIT:Daniel Van Eden;
#NOTES:
0000
0000
0000
0000
,
0000
0000
0000
0000
,
0000
0000
0000
0000
,
0000
0000
0000
0000
,
0010
0000
0010
0000
1000
0100
1000
0100
,
0010
0000
0010
0000
0001
0100
0001
0010
,
0100
0000
0100
0000
1000
0010
1000
0001
,
0100
0000
0010
0000
0100
0010
1000
0000
,
1001
0001
0000
1000
0000
0020
1030
0100
,
0020
0130
0000
0100
0010
0001
2000
0000
,
3010
0100
0002
0000
0003
1000
0100
1000
,
0001
0100
0010
0010
0000
0010
0110
0000
,
1100
0100
0000
0010
0000
0001
1000
0010
,
1000
0001
0000
0001
0100
0010
2000
0000
,
3100
0010
0002
0000
0003
0100
0001
1000
,
0010
1000
0100
0010
0000
0010
1001
0000
,
0001
0000
0100
0000
0010
0100
0010
0000
,
1000
0000
0001
0000
1000
0100
1000
0000
,
0010
0000
0100
0000
0001
1000
0001
0000
,
0010
0000
0100
0000
1000
0100
1000
0000
,
0010
0000
1000
0000
0001
0100
0010
0100
,
0001
0000
1000
0000
0100
1000
0001
0010
,
0100
0000
0010
0000
0001
0100
0010
1000
,
0001
0000
0100
0100
0000
0010
1001
0000
,
0101
0100
0010
1000
0100
1000
0001
0010
,
0100
0100
0010
0001
1000
1000
0002
0000
,
1003
0010
1000
0200
0000
0310
0001
1000
,
0100
1000
0010
1000
0001
0001
0101
0000
,
1000
0010
1000
0001
0010
0100
1000
0100
,
0010
0001
1000
0100
1000
0010
0200
0000
,
0301
0010
0100
0020
0000
0031
1000
0100
,
1000
0010
0100
0001
1000
0010
1000
0001
,
0200
0000
0010
0000
0001
0000
0301
0010
,
0200
0000
0310
0001
0010
0100
1000
0100
,
0020
1000
0100
0002
0003
0031
0100
1000
,
0002
0000
0103
0010
1000
0001
0100
0001
,
2000
0001
0000
0020
0030
0100
3010
0100
,
0002
0000
1003
0010
1000
0001
0100
0010
,
0200
0000
0001
0010
0000
0010
0301
1000
,
0200
0000
0310
0001
1000
0100
1001
0010
,
0110
0000
0000
0000
;

//---------------dance-single - ----------------
#NOTEDATA:;
#CHARTNAME:;
#STEPSTYPE:dance-single;
#DESCRIPTION:;
#CHARTSTYLE:;
#DIFFICULTY:Beginner;
#METER:4;
#RADARVALUES:0.154237,0.151827,0.042174,0.067479,0.000000,128.000000,123.000000,5.000000,8.000000,0.000000,0.000000,0.000000,0.000000,0.000000,0.154237,0.151827,0.042174,0.067479,0.000000,128.000000,123.000000,5.000000,8.000000,0.000000,0.000000,0.000000,0.000000,0.000000;
#CREDIT:Daniel Van Eden;
#NOTES:
// measure 0
0000
0000
0000
0000
,  // measure 1
0000
0000
0000
0000
,  // measure 2
0000
0000
0000
0000
,  // measure 3
0000
0000
0000
0000
,  // measure 4
0010
1000
0010
0000
,  // measure 5
1000
0100
1000
0000
,  // measure 6
0001
1000
0001
0000
,  // measure 7
0010
0010
0001
1001
,  // measure 8
1000
0001
0000
0100
,  // measure 9
0010
1000
0001
0002
,  // measure 10
1003
0200
0000
0310
,  // measure 11
0100
1000
0010
1000
,  // measure 12
0001
1000
0000
0002
,  // measure 13
0103
0010
1000
0200
,  // measure 14
0310
0020
0000
0031
,  // measure 15
1000
0010
1000
1001
,  // measure 16
1000
0100
0010
0000
,  // measure 17
0010
0001
0010
0000
,  // measure 18
0001
0100
0010
0000
,  // measure 19
1000
0100
1000
0000
,  // measure 20
1000
0001
0100
0000
,  // measure 21
0010
1000
0001
0000
,  // measure 22
0010
0100
0010
0000
,  // measure 23
0001
1000
1000
1001
,  // measure 24
0100
0010
0000
2000
,  // measure 25
3010
0100
0001
0020
,  // measure 26
0130
1000
0000
0001
,  // measure 27
0100
0010
0100
0100
,  // measure 28
0001
0010
0000
0100
,  // measure 29
1000
0001
0010
0020
,  // measure 30
0031
0100
0000
0010
,  // measure 31
1000
0001
1000
0100
,  // measure 32
0010
0001
0000
1000
,  // measure 33
0100
1000
0010
0010
,  // measure 34
0010
1000
0000
1001
,  // measure 35
0001
1000
0100
0100
,  // measure 36
0010
0001
0000
0001
,  // measure 37
1000
0100
1000
1000
,  // measure 38
0010
1000
0000
0110
,  // measure 39
0100
0001
0010
0010
,  // measure 40
0010
0000
0000
0000
;
