#TITLE:Dopamine 140;
#SUBTITLE:;
#ARTIST:U1 overground;
#TITLETRANSLIT:;
#SUBTITLETRANSLIT:;
#ARTISTTRANSLIT:;
#GENRE:;
#CREDIT:;
#BANNER:Dopamine 140.png;
#BACKGROUND:Dopamine 140-bg.png;
#LYRICSPATH:;
#CDTITLE:;
#MUSIC:Dopamine 140.ogg;
#OFFSET:0.000000;
#SAMPLESTART:77.154160;
#SAMPLELENGTH:13.714287;
#SELECTABLE:YES;
#BPMS:0.000000=140.000000
,176.000000=70.000000
,192.000000=140.000000
,232.000000=70.000000
,240.000000=140.000000
,248.000000=70.000000
,272.000000=140.000000
;
#STOPS:175.875000=1.714000
;
#BGCHANGES:;
#KEYSOUNDS:;
#ATTACKS:;

//---------------dance-single - ----------------
#NOTES:
     dance-single:
     :
     Challenge:
     15:
     0.677748,1.098840,0.222212,0.072219,0.772188,854.000000,814.000000,40.000000,13.000000,0.000000,0.000000,0.677748,1.098840,0.222212,0.072219,0.772188,854.000000,814.000000,40.000000,13.000000,0.000000,0.000000:
// measure 0
0000
0000
0000
0000
,  // measure 1
0000
0000
0000
0000
,  // measure 2
0000
0000
0000
0000
,  // measure 3
0000
0000
0000
0000
,  // measure 4
0000
0000
0000
0000
,  // measure 5
0000
0000
0000
0000
,  // measure 6
0000
0000
0000
0000
,  // measure 7
0000
0000
0000
0000
,  // measure 8
0000
0000
0000
0000
,  // measure 9
1000
0001
0100
0001
0100
0000
0010
1000
,  // measure 10
0001
0000
0010
0001
1000
0000
0100
0000
,  // measure 11
1000
0000
0010
0100
0001
0000
0010
0001
,  // measure 12
0100
0000
0010
1000
0001
1000
0100
0010
,  // measure 13
0001
0000
1000
0010
1000
0000
0101
0000
,  // measure 14
1000
0000
0001
0010
0001
0000
1100
0000
,  // measure 15
0001
1000
0010
0100
0001
0010
0100
1000
,  // measure 16
0001
0100
0010
1000
0100
0010
0001
1000
0010
0100
0001
1000
,  // measure 17
0100
0000
0000
0000
0010
0001
0010
0001
1000
0000
1000
0000
0100
1000
0100
0010
,  // measure 18
0001
0000
1000
0010
0100
0001
0100
0000
0010
0000
1000
0000
0100
0010
0100
0010
,  // measure 19
0001
0000
1000
0010
1000
0001
1000
0001
0100
0000
0010
0000
1000
0001
1000
0001
,  // measure 20
0010
0000
0100
1000
0001
0000
1000
0000
0010
0000
0101
0000
1000
0000
0100
0000
,  // measure 21
0010
0000
0000
0000
0100
1000
0100
1000
0001
0000
0001
0000
0010
0001
0010
0100
,  // measure 22
1000
0000
0001
0100
0010
1000
0010
0000
0100
0000
0001
0000
0010
0100
0010
0100
,  // measure 23
1000
0000
0001
0010
0001
1000
0001
1000
0100
0000
0010
0000
0001
1000
0001
1000
,  // measure 24
0010
0000
0001
0000
0010
0000
1000
0000
0001
0000
1000
0000
0100
1000
0001
0010
,  // measure 25
0100
0000
1000
0000
0010
1000
0010
1000
0010
0000
0100
0000
0001
0010
0001
0010
,  // measure 26
0100
0000
1000
0001
0100
0010
0100
0000
0001
0000
0001
1000
0010
0100
0010
0100
,  // measure 27
0001
0000
1000
0001
0010
0100
0010
0001
1000
0000
0100
0000
1000
0001
1000
0001
,  // measure 28
0100
0000
0010
1000
0001
0000
0010
0000
1100
0000
0000
0000
0101
0000
0000
0000
,  // measure 29
1001
0000
0000
0000
0001
0100
0001
0100
0001
0000
0010
0000
0100
1000
0100
1000
,  // measure 30
0100
0000
0010
0000
0001
1000
0001
0000
0001
0000
0100
0010
1000
0001
1000
0100
,  // measure 31
0010
0000
0100
1000
0001
0010
0001
1000
0010
0000
0100
0000
0001
1000
0001
1000
,  // measure 32
0100
0000
0010
0001
1000
0000
0001
0000
1010
0000
0000
0000
0011
0000
0000
0000
,  // measure 33
2002
0000
0000
0000
,  // measure 34
3000
0013
0000
0000
0000
0000
0000
0000
,  // measure 35
0011
0000
0001
0000
1000
0001
1000
0000
0010
0000
1000
0000
0001
0000
0010
0000
,  // measure 36
0100
0000
1000
0001
0010
0000
0100
1000
0001
0000
0100
0010
1000
0000
0001
0100
,  // measure 37
0010
0000
1010
1000
0001
1000
1100
0100
,  // measure 38
0010
0000
0001
0000
1000
0000
1000
0000
0010
0000
0100
0000
0010
1000
0000
1000
,  // measure 39
0001
0000
0011
0001
1000
0001
0101
0100
,  // measure 40
0010
0000
1000
0000
0001
0000
0001
0000
1000
0000
0100
0000
0010
0001
0000
0001
,  // measure 41
1000
0000
0010
1000
0101
0001
1010
1000
,  // measure 42
0100
0010
0001
0001
0010
0100
1000
0010
,  // measure 43
0100
0010
1000
0001
0011
1000
1100
0001
,  // measure 44
1001
0000
0000
0000
0000
0000
0000
0000
0000
0000
0000
0000
1000
0000
0000
0000
0000
0000
0000
0000
0000
0000
0000
0000
0001
0000
0000
0000
0000
0000
0100
0000
0000
0000
0000
0000
0010
0000
0000
0000
0000
0000
1000
0000
0000
0000
0000
0000
0001
0000
0000
0000
0000
0000
0000
0000
0000
0000
0000
0000
0001
0000
0000
0000
0000
0000
0000
0000
0000
0000
0000
0000
1000
0000
0000
0000
0000
0000
0000
0000
0000
0000
0000
0000
1000
0000
0000
0000
0000
0000
0000
0000
0000
0000
0000
0000
1010
0000
0000
0000
0000
0000
0000
0000
0000
0000
0000
0000
0100
0000
0000
0000
0000
0000
0000
0000
0000
0000
0000
0000
0001
0000
0000
0000
0000
0000
0000
0000
0000
0000
0000
0000
0010
0000
0000
0000
0000
0000
0000
0000
0000
0000
0000
0000
0210
0000
0000
0000
0000
0000
0000
0000
0000
0000
0000
0000
0000
0000
0000
0000
0000
0000
0000
0000
0000
0000
0000
0000
1300
0000
0000
0000
0000
0000
0000
0000
0010
0000
0000
0000
0000
0000
0000
0000
1000
0000
0000
0000
0000
0000
0000
0000
,  // measure 45
0001
0000
0000
0000
0000
0000
0000
0000
0100
0000
0000
0000
0000
0000
0000
0000
0001
0000
0000
0000
0000
0000
0000
0000
0010
0000
0000
0000
0000
0000
0000
0000
1000
0000
0000
0000
0000
0000
0000
0000
0010
0000
0000
0000
0000
0000
0000
0000
0001
0000
0000
0000
0000
0000
0000
0000
1000
0000
0000
0000
0000
0000
0000
0000
0100
0000
0000
0000
0000
0000
0000
0000
0010
0000
0000
0000
0000
0000
0000
0000
0001
0000
0000
0000
0000
0000
0000
0000
1000
0000
0000
0000
0000
0000
0000
0000
0020
0000
0000
0000
0000
0000
0000
0000
0000
0000
0000
0000
0000
0000
0000
0000
0000
0000
0000
0000
0000
0000
0000
0000
0130
0000
0000
0000
0000
0000
0001
0000
0000
0000
0000
0000
0100
0000
0000
0000
0000
0000
0001
0000
0000
0000
0000
0000
1000
0000
0000
0000
0000
0000
0000
0000
0000
0000
0000
0000
0000
0000
0000
0000
0000
0000
0000
0000
0000
0000
0000
0000
0100
0000
0000
0000
0000
0000
0000
0000
0000
0000
0000
0000
0100
0000
0000
0000
0000
0000
0000
0000
0000
0000
0000
0000
,  // measure 46
0110
0000
0010
0000
0001
1000
0001
1000
0100
0000
0100
0000
0010
0001
1000
0000
1000
0000
0020
0000
0130
0001
0100
0010
1000
0000
0001
0100
0001
0010
0001
1000
,  // measure 47
0100
0000
0010
0000
0010
0000
0001
0000
0001
0000
1000
0000
1000
0000
0001
0000
0011
0000
0000
0000
0010
0100
0010
0001
2000
0000
0100
0000
0000
0000
0000
0000
,  // measure 48
3001
0000
0010
0000
0001
1000
0010
1000
0001
0000
1000
0100
0010
0000
0001
0000
,  // measure 49
0100
0000
1000
0000
0100
0000
0001
0000
1000
0000
0001
0000
0010
0100
1000
0100
,  // measure 50
0010
0001
1000
0010
0001
0010
1000
0001
0100
1000
0100
0001
,  // measure 51
2000
0000
0000
0000
3001
0100
0001
1000
0020
0000
0000
0000
0130
0000
0001
0000
,  // measure 52
1001
1000
0010
0100
0001
1000
0100
0010
,  // measure 53
0002
0000
0000
0000
0013
0100
0010
0100
1000
0000
0010
1000
0010
0100
0010
0100
,  // measure 54
0002
0000
0000
0000
0000
0000
1003
0000
0000
0001
0000
0000
1000
0000
0010
0000
1000
0000
0100
0000
0010
0000
0001
0000
,  // measure 55
0100
0010
1000
0000
0101
1000
1100
0001
,  // measure 56
1001
1000
0010
1000
0001
0100
1000
0100
,  // measure 57
0001
0010
0100
0010
0001
1000
0010
1000
,  // measure 58
1100
0000
0000
0000
0100
1000
0100
0010
0001
0010
0001
1000
0010
0000
0000
0000
0100
0000
0010
1000
0000
1000
0001
0000
0101
0000
0000
0000
0000
0000
0000
0000
,  // measure 59
1001
0000
0000
0000
0000
0000
0000
0000
0000
0000
0000
0000
0000
0000
0000
0000
0000
0000
0000
0000
0000
0000
0000
0000
1000
0000
0000
0000
0000
0000
0000
0000
0010
0000
0000
0000
0000
0000
0000
0000
1000
0000
0000
0000
0000
0000
0000
0000
0001
0000
0000
0000
0000
0000
0000
0000
0000
0000
0000
0000
0011
0000
0000
0000
0000
0000
0000
0000
0000
0000
0000
0000
0100
0000
0000
0000
0000
0000
0000
0000
0000
0000
0000
0000
0100
0000
0000
0000
0000
0000
0000
0000
0000
0000
0000
0000
1000
0000
0000
0000
0000
0000
0000
0000
0000
0000
0000
0000
0100
0000
0000
0000
0000
0000
0010
0000
0000
0000
0000
0000
0001
0000
0000
0000
0000
0000
0000
0000
0000
0000
0000
0000
0001
0000
0000
0000
0000
0000
0000
0000
0000
0000
0000
0000
1010
0000
0000
0000
0000
0000
0000
0000
0000
0000
0000
0000
0010
0000
0000
0000
0000
0000
1000
0000
0000
0000
0000
0000
0010
0000
0000
0000
0000
0000
1000
0000
0000
0000
0000
0000
0001
0000
0000
0000
0000
0000
0000
0000
0000
0000
0000
0000
,  // measure 60
1000
0010
1000
0001
0010
1000
0010
0001
,  // measure 61
1000
0010
0100
0001
0100
0010
1000
0100
,  // measure 62
0010
0000
0010
0000
0100
1000
0100
0010
0001
0000
1000
0010
1000
0000
1000
0000
1010
0000
0001
0000
0100
0000
0100
0000
0010
0000
1000
0000
0001
0010
0100
0010
,  // measure 63
0001
0000
0000
0000
1000
0001
1000
0001
0200
0000
0000
0000
0310
0000
0010
0000
1000
0000
0011
0000
0200
0000
0300
0000
1000
0000
1100
0000
0100
0000
1100
0000
,  // measure 64
1001
0000
0000
0001
0000
0000
1000
0000
0001
0000
0100
0000
0001
0000
1000
0000
0010
0000
0000
0000
0010
0000
1000
0000
0100
0000
0000
0000
0010
0000
0001
0000
,  // measure 65
0100
0000
0000
0100
0000
0000
0001
0000
1000
0000
0010
0000
0100
0000
0010
0000
1000
0000
0000
0000
0001
0000
0010
0000
0100
0000
0010
0000
0000
0000
0010
0000
,  // measure 66
0001
0000
0000
0001
0000
0000
1000
0000
0010
0000
0000
0000
1000
0000
0010
0000
0100
0000
0001
0000
1000
0000
0001
0000
0100
0000
0010
0000
1000
0000
0001
0000
,  // measure 67
1000
0000
0000
1000
0000
0000
0100
0000
0010
0000
0001
0000
1000
0000
0010
0000
0100
0000
0000
0000
0010
0000
0100
0000
0001
0000
0100
0000
0000
0000
0000
0000
,  // measure 68
0110
0000
0010
1000
0010
0000
1000
0000
0001
0100
0001
0000
1000
0000
0001
0010
,  // measure 69
0001
0000
1000
0000
0100
1000
0100
0000
0010
0000
0001
1000
0100
0000
0010
0001
,  // measure 70
1000
0000
0001
0100
0001
0000
1000
0000
0010
0100
0010
0000
1000
0000
0001
0010
,  // measure 71
0001
0000
1000
0000
0100
0010
0100
0000
1000
0000
0010
1000
0100
0000
0010
0001
,  // measure 72
0100
0000
0001
0000
1000
0001
1000
0000
0010
0000
1000
0001
0000
0100
0001
0000
,  // measure 73
1000
0000
0100
0010
0001
0000
0010
0100
1000
0000
0001
0010
0000
0001
1000
0000
,  // measure 74
0010
0000
0100
0010
1000
0010
0100
0001
0010
0000
0001
1000
0010
1000
0100
0010
,  // measure 75
0001
0000
1000
0010
1000
0001
0010
0100
1000
0001
0010
0001
1000
0100
0010
0001
,  // measure 76
1000
0000
0010
0000
1000
0001
0010
0001
1000
0000
0100
0000
0010
0000
0001
0000
,  // measure 77
1000
0010
0001
0010
1000
0100
0001
0100
,  // measure 78
1000
0000
0001
0000
1000
0001
0010
0001
0100
0000
0010
0000
1000
0000
0010
0000
,  // measure 79
1000
0100
0010
0100
1000
0000
0010
0000
0100
0000
0001
0000
1001
0000
1000
0000
,  // measure 80
1100
0000
0100
0010
0001
1000
0001
0100
0010
0000
0100
0010
1000
0001
1000
0100
,  // measure 81
0010
0000
0001
0100
0001
0010
0100
1000
0010
0000
1000
0100
1000
0010
0100
0001
,  // measure 82
1000
0010
0100
0010
1000
0001
0010
0100
1000
0001
0010
0100
0010
0001
1000
0010
,  // measure 83
0100
0001
1000
0100
0010
0100
1000
0010
0100
0001
0010
0001
0100
0010
1000
0001
,  // measure 84
2000
0000
0000
0000
,  // measure 85
0000
0000
0000
0000
,  // measure 86
3000
0000
0000
0000
;
