#TITLE:Disarm You;
#SUBTITLE:(Grey Remix);
#ARTIST:Kaskade feat. Ilsey;
#TITLETRANSLIT:;
#SUBTITLETRANSLIT:;
#ARTISTTRANSLIT:;
#GENRE:;
#CREDIT:;
#BANNER:Disarm You (Grey Remix).png;
#BACKGROUND:Disarm You (Grey Remix)-bg.png;
#LYRICSPATH:;
#CDTITLE:;
#MUSIC:Disarm You (Grey Remix).ogg;
#OFFSET:1.298571;
#SAMPLESTART:94.969765;
#SAMPLELENGTH:13.333336;
#LASTBEATHINT:0.320729;
#SELECTABLE:YES;
#BPMS:0.000000=72.000000
,3.750000=36.000000
,19.500000=144.000000
;
#STOPS:19.500000=0.208000
;
#BGCHANGES:;
#KEYSOUNDS:;
#ATTACKS:;

//---------------dance-single - ----------------
#NOTES:
     dance-single:
     :
     Hard:
     15:
     0.558453,0.698557,0.259563,0.464066,0.369680,497.000000,464.000000,33.000000,59.000000,0.000000,0.000000,0.558453,0.698557,0.259563,0.464066,0.369680,497.000000,464.000000,33.000000,59.000000,0.000000,0.000000:
0000
0000
0000
0000
,
0000
0000
0000
0000
,
0000
0000
0000
0000
0000
0000
0000
0000
0000
0000
0000
0000
0000
0000
0000
2000
,
0000
0000
0000
0000
0000
0000
0000
3002
0000
0000
0000
0000
0000
0000
0000
0023
,
0000
0000
0000
0000
0000
0000
0000
0230
0000
0000
0000
2300
0000
0000
3000
0000
,
0010
0000
0000
0000
1000
0000
0010
1000
0010
0000
1000
0000
0100
0000
0010
0000
,
0100
0010
0001
1000
0010
1000
0100
0010
,
0001
0000
1000
0100
1000
0010
0100
0001
,
1000
0100
0001
0100
1000
0001
0010
0100
,
1000
0000
0000
0000
0001
0100
0001
0100
0010
0000
1000
0000
0001
0000
0100
0000
,
0010
0100
0001
0010
0100
0020
0032
2003
,
3010
0000
1000
0001
0100
0010
0001
0010
,
1000
0000
0100
0000
0010
0000
0001
0100
0010
0000
1000
0000
0100
0000
0010
0000
,
0202
0000
0000
0300
1003
0010
1000
0001
,
0100
1000
0001
0010
1000
0100
1000
0001
,
0010
0001
0010
0100
2000
0000
3100
1000
,
0010
0000
1010
0000
0101
0000
0001
1000
,
0010
0000
0000
1000
0000
0000
0100
0000
0100
0000
0010
0000
0001
0000
1000
0000
,
0010
0001
1000
0100
0001
1000
0010
0100
,
0001
1000
0001
0010
0200
0000
0310
0001
,
0010
0000
0200
0000
0000
0000
1300
0010
1000
0000
0001
0000
0100
0000
0000
0000
,
0010
0000
0000
1000
0000
0010
1000
0000
0100
0000
0000
0100
0010
0000
0001
0000
,
0010
0000
0000
0001
0000
0010
0001
0000
0100
0000
0000
0100
0010
0000
1000
0000
,
0100
0000
0000
1000
0000
0100
1000
0000
0010
0000
0000
0010
0100
0000
0001
0000
,
0100
0000
0000
0010
0000
0100
0010
0000
1000
0000
0000
1000
0001
0000
0100
0000
,
0010
0000
1000
0100
0000
1000
0100
0000
0010
0000
0000
0001
0100
0000
0010
0000
,
0100
0000
0001
0100
0000
0001
0100
0000
0010
0000
0000
1000
0001
0000
1000
0000
,
0100
0000
0010
0001
0000
0010
0001
0000
0100
0000
0000
0010
1000
0000
0001
0000
,
1000
0000
0010
1000
0000
0010
1000
0000
0100
0000
0000
0010
0001
0000
0100
0000
,
0020
0000
1030
1000
0001
0010
0010
0000
,
0100
0020
0030
0010
0100
1000
0001
0001
,
0200
0000
0300
0010
0010
0100
0002
0000
,
1003
0100
1000
0010
0010
1000
0100
0010
,
0002
0000
1003
0010
0010
1000
0001
0000
,
0001
0200
0300
0010
0010
1000
0001
0001
,
0200
0000
0300
0010
0010
1000
2000
0000
,
3100
0000
2200
3300
0000
0000
0220
0330
0000
0000
0022
0033
0000
0000
2002
0000
,
0000
0003
3010
0100
0001
0010
0110
0000
,
0000
0100
1100
1000
0010
1000
1010
0000
,
0010
0100
1000
0100
0001
0010
0011
0001
,
2000
0000
3010
1000
1000
0001
0101
0100
,
0001
0000
0000
0100
0000
0000
0001
0000
0010
0000
0100
0000
0110
0000
0000
0000
,
1000
0101
0001
0010
0100
1000
1010
0010
,
1000
0100
0010
0001
0020
0030
0001
1000
,
0010
0000
0020
0030
1000
0000
0002
0003
1000
0000
0002
0003
0000
0000
0022
0000
,
0000
0033
1000
0010
0010
1000
2200
0300
,
3010
0000
1000
0000
0001
0000
0010
0001
1000
0010
1000
0100
0010
0100
1000
0010
,
0100
0000
0000
0000
0101
0000
0001
1000
0001
1000
0010
1000
0010
0100
0001
0010
,
0100
0000
0010
0001
0010
0000
0100
1000
0001
0100
0001
1000
0010
1000
0010
0100
,
0002
0000
0013
0001
0001
1000
2020
0030
,
3001
0000
0100
0000
0001
0000
0010
0001
0010
0100
0010
0100
1000
0000
0010
0000
,
1020
0000
0000
0000
0130
0000
0001
0100
0001
0100
0010
1000
0010
1000
0100
0010
,
0001
0100
0010
1000
0010
0100
0001
0010
0002
0003
0010
0000
0110
0000
2002
0000
,
0000
0000
3003
0000
1010
0000
0010
1000
0010
0100
0010
0100
0001
0100
0010
1000
,
0100
1000
0001
0010
0001
1000
0010
1000
0001
0100
0010
1000
0001
0000
1000
0000
,
0202
0000
0003
0000
0310
0000
1000
0010
1000
0001
1000
0100
0010
0001
0010
0001
,
1000
0000
0100
1000
0100
0000
0010
0001
0100
0010
1000
0010
0100
0001
0010
0100
,
2000
0000
3010
0110
0101
0011
0022
0033
,
1000
0000
1100
0000
0000
0000
0100
1000
0001
0010
0001
0100
0010
0000
1000
0000
,
0202
0000
0300
0000
1003
0000
0100
1000
0001
1000
0100
0010
0001
1000
0001
0010
,
0200
0300
0010
0000
0001
0000
2200
3300
0000
0000
0220
0330
0000
0000
2002
0000
,
0000
3003
0000
0000
;

//---------------dance-single - ----------------
#NOTES:
     dance-single:
     :
     Beginner:
     4:
     0.158434,0.191526,0.055059,0.000000,0.015731,141.000000,134.000000,7.000000,0.000000,0.000000,0.000000,0.158434,0.191526,0.055059,0.000000,0.015731,141.000000,134.000000,7.000000,0.000000,0.000000,0.000000:
// measure 0
0000
0000
0000
0000
,  // measure 1
0000
0000
0000
0000
,  // measure 2
0000
0000
0000
0000
0000
0000
0000
0000
0000
0000
0000
0000
0000
0000
0000
1000
,  // measure 3
0000
0000
0000
0000
0000
0000
0000
0001
0000
0000
0000
0000
0000
0000
0000
1000
,  // measure 4
0000
0000
0000
0000
0000
0000
0000
0001
0000
0000
0000
0000
0000
0000
0000
0000
,  // measure 5
0010
0000
1000
0000
,  // measure 6
0100
0000
0000
0000
,  // measure 7
0010
0000
0001
0000
,  // measure 8
0010
0000
0000
0000
,  // measure 9
0001
0000
0100
0000
,  // measure 10
0010
0000
0000
0000
,  // measure 11
1000
0000
0010
0000
,  // measure 12
1000
0000
0000
0000
,  // measure 13
0000
0000
1001
0000
,  // measure 14
1000
0000
0001
0000
,  // measure 15
0010
0010
0010
0000
,  // measure 16
0100
0100
0100
0000
,  // measure 17
0010
0000
0110
0000
,  // measure 18
0001
0000
0100
0000
,  // measure 19
0001
0001
0001
0000
,  // measure 20
1000
1000
1000
0000
,  // measure 21
0100
0000
0000
0100
0000
0000
0000
0000
,  // measure 22
0010
0000
0000
0010
0000
0000
0000
0000
,  // measure 23
0100
0000
0000
0100
0000
0000
0000
0000
,  // measure 24
0010
0000
0000
0010
0000
0000
0000
0000
,  // measure 25
0001
0000
0000
0001
0000
0000
0000
0000
,  // measure 26
1000
0000
0000
1000
0000
0000
0000
0000
,  // measure 27
0010
0000
0000
0010
0000
0000
0000
0000
,  // measure 28
1000
0000
0000
1000
0000
0000
0000
0000
,  // measure 29
0001
0000
1000
1000
,  // measure 30
0000
0000
0100
0100
,  // measure 31
0100
0000
0010
0010
,  // measure 32
0000
0001
0001
1000
,  // measure 33
1000
0000
0010
0010
,  // measure 34
0000
0000
1000
1000
,  // measure 35
1000
0000
0100
0100
,  // measure 36
0010
0000
0001
0000
,  // measure 37
1000
0000
0010
0010
,  // measure 38
0000
1000
1000
0000
,  // measure 39
0001
0000
0010
0010
,  // measure 40
0000
0100
0100
0010
,  // measure 41
0010
0000
0001
0001
,  // measure 42
0000
1000
1000
0000
,  // measure 43
0010
0010
0010
0000
,  // measure 44
1000
0000
0000
0000
0000
0000
0000
1001
,  // measure 45
0000
0000
0001
0001
,  // measure 46
0000
0010
0000
0100
,  // measure 47
0100
0000
1000
1000
,  // measure 48
0000
0010
0010
0100
,  // measure 49
0100
0000
0001
0001
,  // measure 50
0000
1000
0000
1001
,  // measure 51
0000
1000
0000
0100
,  // measure 52
0100
0000
0000
0010
0000
0000
0000
1001
,  // measure 53
0000
0000
0010
0010
,  // measure 54
0000
0001
0000
0110
,  // measure 55
0000
1000
1000
1000
,  // measure 56
0000
0010
0010
0100
,  // measure 57
0100
0000
0010
0010
,  // measure 58
0000
1000
0000
1001
,  // measure 59
0000
0100
0000
0001
,  // measure 60
0001
0000
0000
1000
0000
1000
0000
0001
;

//---------------dance-single - ----------------
#NOTES:
     dance-single:
     :
     Easy:
     6:
     0.225853,0.243831,0.110117,0.157311,0.019664,201.000000,187.000000,14.000000,20.000000,0.000000,0.000000,0.225853,0.243831,0.110117,0.157311,0.019664,201.000000,187.000000,14.000000,20.000000,0.000000,0.000000:
0000
0000
0000
0000
,
0000
0000
0000
0000
,
0000
0000
0000
0000
0000
0000
0000
0000
0000
0000
0000
0000
0000
0000
0000
0001
,
0000
0000
0000
0000
0000
0000
0000
1000
0000
0000
0000
0000
0000
0000
0000
0010
,
0000
0000
0000
0000
0000
0000
0000
0100
0000
0000
0000
0001
0000
0000
0000
0000
,
1000
0000
0010
1000
,
0010
0100
0010
0000
,
1000
0000
0001
0100
,
0001
0010
0001
1000
,
0100
0000
1000
0010
,
1000
0100
1000
0001
,
0001
0000
0100
0010
,
0100
0010
1000
0000
,
1000
0000
1001
0000
,
0001
0010
0001
0000
,
1000
0100
1000
0010
,
0100
0100
0100
0000
,
1000
0000
1001
0000
,
0010
0001
0010
0000
,
0001
1000
0001
0010
,
0100
0100
0100
0000
,
0100
0000
0010
0010
,
0001
0000
1000
1000
,
0100
0000
1000
1000
,
0010
0000
0100
0100
,
0001
0000
1000
1001
,
0001
0000
0010
0110
,
0100
0000
1000
1100
,
0100
0000
0010
0011
,
0002
0003
0010
0020
,
0030
0100
0000
0000
0100
0000
1000
0000
,
2000
3000
0010
0020
,
0030
0100
0000
0000
0001
0000
1000
0000
,
0020
0030
1000
2000
,
3000
0001
0000
0000
0010
0000
0100
0000
,
2000
3000
0100
0010
,
0001
0001
0000
1000
0000
1000
0000
0002
,
0000
0003
1000
0000
0100
0000
1000
0000
,
0000
1010
0000
0000
0010
0000
1000
0000
,
0002
0003
1000
0100
,
0000
0011
0000
0000
0100
0000
1000
0000
,
0020
0030
1000
0001
,
0000
0101
0000
0000
0100
0000
0010
0000
,
2000
3000
0001
1000
,
0010
0010
0000
0100
0000
0100
0000
2002
,
0000
3003
0100
0001
,
0000
1000
0000
0000
1000
0000
0010
0000
,
2000
3000
0001
0010
,
0000
0010
0000
0000
0001
0000
0100
0000
,
0010
1000
0001
1000
,
0000
0100
0000
0000
0010
0000
1000
0000
,
0200
0300
0010
0001
,
1000
1000
0000
0010
0000
0100
0000
0220
,
0000
0330
0010
1000
,
0001
1000
0100
1000
,
0001
0010
0001
0100
,
0010
0100
0001
1000
,
0010
1001
0100
0100
,
0000
1010
0000
0000
1000
0000
0001
0000
,
0020
0031
0001
0100
,
0010
0010
0000
1000
0000
1000
0000
2002
,
0000
0000
0000
0000
,
3003
0000
0000
0000
;

//---------------dance-single - ----------------
#NOTES:
     dance-single:
     :
     Medium:
     11:
     0.377546,0.390130,0.157311,0.267428,0.058991,336.000000,316.000000,20.000000,34.000000,0.000000,0.000000,0.377546,0.390130,0.157311,0.267428,0.058991,336.000000,316.000000,20.000000,34.000000,0.000000,0.000000:
0000
0000
0000
0000
,
0000
0000
0000
0000
,
0000
0000
0000
0000
0000
0000
0000
0000
0000
0000
0000
0000
0000
0000
0000
1001
,
0000
0000
0000
0000
0000
0000
0000
1010
0000
0000
0000
0000
0000
0000
0000
0101
,
0000
0000
0000
0000
0000
0000
0000
0002
0000
0000
0000
2003
0000
0000
3000
0000
,
0010
0000
1000
0001
1000
0000
0010
1000
,
0001
1000
0100
0000
0011
0000
0100
1000
,
0001
0000
0100
0010
0100
0000
0001
0010
,
0001
0100
0010
0000
1010
0000
1000
0010
,
0100
0000
0010
1000
0001
0000
0100
0001
,
1000
0010
1000
0000
0001
2000
3200
0320
,
0031
0000
0010
0001
0010
0000
0001
1000
,
0001
0000
1000
0000
1020
0000
0030
0010
,
1000
0000
0000
0001
0000
0000
1000
0000
0010
0000
0000
0000
0000
0000
1010
0000
,
0000
1000
0100
0000
0001
0000
0010
0001
,
0010
0001
0010
0100
0010
0000
0100
0010
,
0001
0001
1100
0000
,
0010
0000
0000
1000
0000
0000
0100
0000
0100
0000
0000
0000
0000
0000
0011
0000
,
0000
0001
1000
0000
1010
0000
0001
0000
,
1000
0100
1000
0100
0010
0000
0010
0100
,
0010
0001
1001
0000
,
2000
0000
0000
0100
0000
0000
0100
0000
0000
0000
0000
0000
3100
0000
0000
0000
,
2000
0000
0000
0010
0000
0000
0010
0000
0000
0000
0000
0000
3010
0000
0000
0000
,
0002
0000
0000
0100
0000
0000
0100
0000
0000
0000
0000
0000
0103
0000
0000
0000
,
0002
0000
0000
0010
0000
0000
0010
0000
0000
0000
0000
0000
0013
0000
0000
0000
,
0010
0000
0000
0100
0000
0000
0100
0000
0010
0000
0000
0000
0100
0000
0000
0000
,
1000
0000
0000
0100
0000
0000
0100
0000
1000
0000
0000
0000
0100
0000
0000
0000
,
0010
0000
0000
0001
0000
0000
0001
0000
0010
0000
0000
0000
0001
0000
0000
0000
,
0010
0000
0000
0100
0000
0000
0100
0000
0010
0000
0000
0000
0100
0000
0000
0000
,
2000
0000
3000
0010
0010
1000
1000
0000
,
0000
0100
0000
0001
0001
0010
0001
0001
,
2000
0000
3000
0001
0001
0010
0020
0000
,
0030
0001
0000
1000
0010
1000
0001
0100
,
0002
0000
0003
1000
1000
0100
0100
0000
,
0000
0010
0000
0010
0010
0100
1000
1000
,
0002
0000
0003
0010
0010
0001
0001
0000
,
1000
1000
0000
1010
0000
1010
0000
2002
,
0000
0000
3003
0010
0100
0010
2000
0000
,
3000
0001
0000
0100
0001
0100
0010
0100
,
0002
0000
0003
1000
0010
1000
0200
0000
,
0300
0010
0000
0001
0010
0100
1000
0100
,
0020
0000
0030
0001
0100
0001
2000
0000
,
3000
0100
0000
0100
1000
0010
1000
0001
,
2000
0000
3000
0010
0100
0010
1000
0000
,
0001
0001
0000
1010
0000
1100
0000
0022
,
0000
0033
1000
0100
1000
0100
0010
0000
,
0010
0001
0000
0001
0100
0001
0100
0010
,
2000
0000
3001
0010
0001
0010
0100
0000
,
0100
1000
0000
1000
0010
1000
0100
0010
,
0002
0000
1003
0010
1000
0010
0100
0000
,
0100
0010
0000
0010
1000
0100
0010
0001
,
0020
0000
0031
0100
0001
0100
0010
0000
,
0010
1000
0100
0010
0001
0010
0100
2000
,
0000
0000
3010
0100
0010
0100
0001
0100
,
0001
0100
0010
1000
0010
1000
0100
0010
,
0002
0000
1003
0100
1000
0100
0010
0100
,
0010
0001
0000
0001
0100
0010
1000
0010
,
0200
0000
0301
1000
0001
0010
0001
0000
,
0001
0010
0000
0010
0100
0010
0001
0000
,
2000
0000
3010
0100
0001
1000
0010
0000
,
1000
0010
0010
1010
0000
0110
0000
2002
,
0000
0000
0000
0000
,
3003
0000
0000
0000
;
