#VERSION:0.83;
#TITLE:Daily Lunch Special 165;
#SUBTITLE:;
#ARTIST:Lucky Vacuum;
#TITLETRANSLIT:;
#SUBTITLETRANSLIT:;
#ARTISTTRANSLIT:;
#GENRE:;
#ORIGIN:;
#CREDIT:;
#BANNER:Daily Lunch Special 165.png;
#BACKGROUND:Daily Lunch Special 165-bg.png;
#PREVIEWVID:;
#JACKET:Daily Lunch Special 165-jacket.png;
#CDIMAGE:;
#DISCIMAGE:;
#LYRICSPATH:;
#CDTITLE:;
#MUSIC:Daily Lunch Special 165.ogg;
#OFFSET:-0.004327;
#SAMPLESTART:24.541079;
#SAMPLELENGTH:11.636362;
#SELECTABLE:YES;
#BPMS:0.000=165.000;
#STOPS:;
#DELAYS:;
#WARPS:;
#TIMESIGNATURES:0.000=4=4;
#TICKCOUNTS:0.000=4;
#COMBOS:0.000=1;
#SPEEDS:0.000=1.000=0.000=0;
#SCROLLS:0.000=1.000;
#FAKES:;
#LABELS:0.000=Song Start;
#BGCHANGES:;
#KEYSOUNDS:;
#ATTACKS:
;

//---------------dance-single - ----------------
#NOTEDATA:;
#CHARTNAME:;
#STEPSTYPE:dance-single;
#DESCRIPTION:;
#CHARTSTYLE:;
#DIFFICULTY:Challenge;
#METER:14;
#RADARVALUES:0.646966,0.928668,0.289455,0.144727,0.189955,751.000000,703.000000,48.000000,24.000000,0.000000,0.000000,0.000000,0.000000,0.000000,0.646966,0.928668,0.289455,0.144727,0.189955,751.000000,703.000000,48.000000,24.000000,0.000000,0.000000,0.000000,0.000000,0.000000;
#CREDIT:Daniel Van Eden;
#NOTES:
// measure 0
0000
0000
0000
0000
,  // measure 1
0000
0000
0000
0000
,  // measure 2
0000
0000
0000
0000
,  // measure 3
0000
0000
0000
0000
,  // measure 4
0000
0000
0000
0000
0000
0000
0000
2010
,  // measure 5
0000
3001
0010
0001
1000
0001
0010
0100
,  // measure 6
1000
0100
0001
0100
1000
1010
0000
0102
,  // measure 7
0000
1003
0010
1000
0001
0010
0100
1100
,  // measure 8
0000
0000
1000
0000
0100
0000
0010
0000
0001
0000
1000
0001
1000
0000
0102
0000
,  // measure 9
0000
0103
0010
0100
0001
0100
0010
0100
,  // measure 10
0001
0010
0100
1000
0010
0010
0100
2010
,  // measure 11
0000
3100
0010
0100
1000
0100
0010
0100
,  // measure 12
1000
0001
0010
0100
1000
1000
0001
0201
,  // measure 13
0000
0310
1000
0010
0100
0010
1000
0001
,  // measure 14
0010
0001
1000
0100
0010
0011
0000
2100
,  // measure 15
0000
0000
3010
0000
0100
0000
0010
0000
1000
0000
0001
0010
0001
0000
1001
0000
,  // measure 16
0000
1010
0000
0110
0110
0010
1000
0001
,  // measure 17
0000
0001
0010
0001
1000
0001
1000
0010
,  // measure 18
0100
0001
1000
0010
0100
0100
0010
1000
,  // measure 19
0000
0000
0000
1000
0000
0000
0010
0000
0000
1000
0000
0000
0001
0000
0000
0010
0001
0010
0100
0000
0000
1000
0000
0000
,  // measure 20
0100
0010
0001
1000
0001
0100
0010
0100
,  // measure 21
0010
0010
1000
1000
0001
1000
0100
0001
,  // measure 22
0100
0000
1000
0000
0001
0000
0010
0000
0001
0000
0100
0010
0100
0000
0010
0000
,  // measure 23
0000
0010
1000
0001
1000
1010
0010
0110
,  // measure 24
0000
0000
0100
0001
0100
0000
0010
0000
1000
0000
0001
0000
0010
0000
0100
0000
,  // measure 25
0000
0100
1000
0100
0001
0100
0010
0001
,  // measure 26
0100
0010
1000
1010
0000
0101
0000
0011
,  // measure 27
0000
0000
0000
0010
0000
0000
0001
0000
0000
0010
0000
0000
0100
0000
0000
1000
0100
0010
0001
0000
0000
0100
0000
0000
,  // measure 28
0010
0000
1000
0000
0001
0000
1000
0000
0010
0000
1000
0100
1000
0000
0001
0000
,  // measure 29
0010
0010
0100
0100
0010
0001
1000
0100
,  // measure 30
0001
0100
1000
0010
0001
0010
1000
1001
,  // measure 31
0000
0001
0100
0100
0100
0010
0010
1000
,  // measure 32
1000
0000
0001
0010
0100
0000
1000
0000
0001
0000
0001
0000
1000
0000
0010
0000
,  // measure 33
0000
0000
0010
0000
0100
0000
0000
0000
1000
0000
0010
0100
1001
0000
0000
0000
,  // measure 34
0012
0000
0000
1000
0000
0000
0003
0000
,  // measure 35
2000
0000
0000
0100
0000
0000
3000
0000
,  // measure 36
0020
0000
0000
0100
0000
0000
1030
0000
,  // measure 37
0001
0000
0010
0001
0010
0000
0100
0000
0010
0100
0010
0000
0100
0000
1000
0000
,  // measure 38
0002
0000
0000
0010
0000
0000
0003
0000
,  // measure 39
2000
0000
0000
0010
0000
0000
3002
0000
,  // measure 40
0203
0000
0000
0010
0000
0000
0310
0001
,  // measure 41
0100
1000
0100
0001
0010
0100
1000
0001
,  // measure 42
0010
0100
1000
0000
0100
1000
0000
0001
,  // measure 43
0000
0001
0010
0000
0001
0010
0000
0100
,  // measure 44
0000
0100
0010
0000
0100
0010
0001
0100
,  // measure 45
0010
0000
1000
0010
0100
0000
0010
0000
0100
0001
0010
0000
1000
0000
0010
0000
,  // measure 46
0001
0100
0001
0000
0100
0001
0000
0100
,  // measure 47
0000
0100
0010
0000
0100
0010
0000
1000
,  // measure 48
0000
1000
0010
0000
1000
0000
0001
1000
,  // measure 49
0000
0001
0101
0000
0110
0000
1010
0000
,  // measure 50
2002
0000
0000
0000
,  // measure 51
0000
0000
0000
0000
,  // measure 52
3003
0000
0000
0000
,  // measure 53
0000
0000
0000
0000
,  // measure 54
1000
0010
1000
0010
0100
0000
0100
0000
0001
0010
0001
0010
0100
0000
0100
0000
,  // measure 55
1000
0001
1000
0001
0010
0000
0010
0000
0001
1000
0001
1000
0100
0000
0100
0000
,  // measure 56
0010
0001
0010
0001
1000
0100
1000
0100
0010
0001
0100
0010
1000
0100
0020
0000
,  // measure 57
0000
1030
0010
0001
1000
0010
0100
0001
,  // measure 58
0000
1001
0110
1001
,  // measure 59
1000
1000
0010
0010
0001
0001
0010
0010
,  // measure 60
1000
0001
0000
0010
0100
0100
0010
0011
,  // measure 61
0000
0000
0000
0001
0000
0000
0010
0000
0000
0010
0000
0000
0100
0000
0000
1000
0010
1000
0001
0000
0000
0100
0000
0000
,  // measure 62
0001
1000
0100
0001
0100
1000
1000
0010
,  // measure 63
0100
0100
0001
0001
1000
0001
0010
0100
,  // measure 64
1000
0000
0100
0000
0010
0000
0001
0000
0100
0000
0010
1000
0010
0000
0100
0000
,  // measure 65
0000
0100
0001
0001
0001
0000
0010
0100
,  // measure 66
0000
0000
0100
0010
0100
0000
1000
0000
0010
0000
1010
0000
1000
0000
1001
0000
,  // measure 67
0000
0001
0100
0100
0010
0010
0100
0100
,  // measure 68
0001
1000
0010
1010
0000
0011
0000
1001
,  // measure 69
0000
0000
0000
1000
0000
0000
0001
0000
0000
0001
0000
0000
0010
0000
0000
0001
0010
0001
1000
0000
0000
0010
0000
0000
,  // measure 70
0100
0000
0010
0000
0100
0000
0001
0000
0100
0000
0010
0100
0010
0000
1000
0000
,  // measure 71
0001
0001
1000
1000
1000
0010
0100
0010
,  // measure 72
1000
0001
0100
1000
0100
0001
0010
0110
,  // measure 73
0000
0100
0010
0010
0010
0001
0001
0110
,  // measure 74
0000
0000
1000
0000
0100
0000
0010
0000
0001
0100
0010
0000
1000
0000
0011
0000
,  // measure 75
0000
0000
0001
0010
0100
0000
1000
0000
0001
0010
0100
0000
1000
0000
0010
0100
,  // measure 76
0001
0000
1000
0000
0010
0100
0001
0000
1000
0000
0001
0100
0010
1000
0002
0000
,  // measure 77
0000
0013
0100
0010
0001
1000
0001
1000
,  // measure 78
0010
1000
0010
0001
0010
1000
0100
0010
,  // measure 79
0001
0001
1000
1000
1000
0100
0010
0100
,  // measure 80
1000
0000
0010
0000
1000
0000
0001
0000
0000
0000
0100
0001
0100
0000
1010
0000
,  // measure 81
0000
1000
0001
0001
0010
0011
0001
1001
,  // measure 82
0000
1000
1000
1010
0001
0101
0100
2010
,  // measure 83
0000
3001
0010
1000
0001
0100
1000
0010
,  // measure 84
0001
1000
0100
0101
0000
0110
0000
1010
,  // measure 85
0000
0000
1000
0000
0100
0000
1000
0000
0001
0010
0100
1000
0001
0000
0100
0000
,  // measure 86
0010
0000
0100
0000
0001
0000
1000
0000
0100
0010
0001
1000
0100
0010
0002
0000
,  // measure 87
0100
0000
1000
0000
0100
0000
0103
1000
,  // measure 88
0100
1000
0100
0001
0100
0010
1000
1001
,  // measure 89
0000
0001
0010
0001
1000
0100
1000
0010
,  // measure 90
0100
0000
0001
1000
0001
0000
1000
0000
0010
0000
0010
0000
1000
0000
0001
0000
,  // measure 91
1000
0010
1000
0001
1000
0000
0001
0010
0001
0000
0010
0000
0100
1000
0001
0000
,  // measure 92
0100
0001
0100
0010
0100
0000
0010
1000
0010
0000
0010
0000
0100
0001
1000
0000
,  // measure 93
0000
0000
1000
0000
0100
0000
0000
0000
0010
0000
0100
0010
1001
0000
0000
0000
,  // measure 94
0000
1000
0010
0000
1000
0001
0000
1000
,  // measure 95
0000
1000
0100
0000
1000
0001
0000
0010
,  // measure 96
0000
0010
0001
0000
1000
0001
0100
0010
,  // measure 97
1000
0000
0010
0100
0001
0000
1000
0000
0010
0100
0001
0000
1000
0000
0001
0000
,  // measure 98
0000
0001
0010
0000
0001
1000
0000
0001
,  // measure 99
0000
0001
0100
0000
0001
1000
0000
0001
,  // measure 100
0000
0001
1000
0001
0010
0100
1000
0001
,  // measure 101
0100
0000
1000
0000
0100
0000
0001
0000
0010
0000
0001
0010
0100
0000
1000
0000
,  // measure 102
0010
0000
0000
0010
0000
0000
0010
0000
,  // measure 103
1000
0000
0000
1000
0000
0000
1000
0000
,  // measure 104
0001
0000
0000
0010
0000
0000
0100
0000
,  // measure 105
2000
0000
0000
0000
,  // measure 106
3001
0000
0000
0002
0000
0000
0000
0000
,  // measure 107
1003
0000
0000
2000
0000
0000
0000
0000
,  // measure 108
3020
0000
0000
0000
,  // measure 109
0230
0000
0000
0000
,  // measure 110
0300
0000
0000
0000
;
