#VERSION:0.83;
#TITLE:DOPE;
#SUBTITLE:;
#ARTIST:BTS;
#TITLETRANSLIT:;
#SUBTITLETRANSLIT:;
#ARTISTTRANSLIT:;
#GENRE:;
#ORIGIN:;
#CREDIT:;
#BANNER:DOPE.png;
#BACKGROUND:DOPE-bg.png;
#PREVIEWVID:;
#JACKET:DOPE-jacket.png;
#CDIMAGE:;
#DISCIMAGE:;
#LYRICSPATH:;
#CDTITLE:;
#MUSIC:DOPE.ogg;
#OFFSET:-0.257200;
#SAMPLESTART:42.348282;
#SAMPLELENGTH:12.467533;
#SELECTABLE:YES;
#BPMS:0.000=154.000;
#STOPS:132.750=0.195,
134.250=0.195,
135.750=0.195;
#DELAYS:;
#WARPS:;
#TIMESIGNATURES:0.000=4=4;
#TICKCOUNTS:0.000=4;
#COMBOS:0.000=1;
#SPEEDS:0.000=1.000=0.000=0;
#SCROLLS:0.000=1.000;
#FAKES:;
#LABELS:0.000=Song Start;
#BGCHANGES:;
#KEYSOUNDS:;
#ATTACKS:
;

//---------------dance-single - ----------------
#NOTEDATA:;
#CHARTNAME:;
#STEPSTYPE:dance-single;
#DESCRIPTION:;
#CHARTSTYLE:;
#DIFFICULTY:Hard;
#METER:15;
#RADARVALUES:0.684833,0.787646,0.617762,0.625999,0.317118,582.000000,507.000000,75.000000,76.000000,0.000000,0.000000,0.000000,0.000000,0.000000,0.684833,0.787646,0.617762,0.625999,0.317118,582.000000,507.000000,75.000000,76.000000,0.000000,0.000000,0.000000,0.000000,0.000000;
#CREDIT:Daniel Van Eden;
#NOTES:
0000
0000
0000
0000
,
0000
0000
0000
0000
,
0000
0000
0000
0000
,
0000
0000
0000
0000
,
0000
0000
0000
0000
,
0000
0000
0000
0000
,
0000
0000
0000
0000
,
0000
1000
1000
0001
0010
0001
0010
0100
,
0100
2000
0000
0000
0000
0000
3000
0000
,
0010
0000
1010
0000
0001
0010
0010
0010
,
0010
0000
0000
0000
1100
0000
0000
0000
0100
0000
0010
0001
0010
0000
0000
0000
,
1001
0000
0001
0100
0001
0010
0010
1100
,
0010
0000
1001
0000
0101
0000
0000
0000
0001
0000
1000
0010
1000
0000
0100
0000
,
0110
0000
0010
0001
1000
0100
0100
0011
,
1000
0000
0011
0000
1100
0000
0000
0000
0010
0000
0001
0100
0001
0000
1000
0000
,
0010
1000
0001
1000
0100
0010
0001
1000
,
0001
0100
0010
0100
0001
0010
0100
1000
,
0010
1000
0010
1000
0001
0100
0010
1000
0001
1000
0100
0010
0001
0100
0001
0200
,
0000
0000
0010
0000
0010
0000
0001
0301
,
0010
0000
0000
0000
2200
3300
0000
0000
0022
0000
0033
0000
2001
0000
3100
0000
,
1002
0103
2001
0010
3100
1000
0010
0101
,
0101
0000
0000
0000
0220
0330
0000
0000
0220
0000
0330
0000
1010
0000
1000
0000
,
1100
0100
0110
0001
1000
0001
0010
1100
,
1100
0000
0000
0000
0022
0033
0000
0000
0202
0000
0303
0000
1001
0000
0010
0000
,
1001
0100
0110
0010
1000
0001
0010
0110
,
0110
0001
0110
0001
2000
3000
0020
0230
,
0320
2030
3002
0003
1010
0000
0110
0200
,
0301
0000
0101
0000
1010
0000
1000
0100
,
1000
0012
0103
0010
2010
3100
0020
0001
,
0031
0000
1100
0000
0101
0000
0010
0001
,
0010
2100
3001
0010
0102
1003
0020
1000
,
1030
0000
0101
0000
1001
0000
0001
0020
,
0130
0101
0200
1300
1010
0010
0001
0010
,
1010
0000
2000
3000
0000
0000
0120
0000
0000
0030
0000
0000
0001
0000
0201
0300
,
0000
1010
0000
0011
0000
0001
0001
0001
,
0100
0010
0000
1000
0000
0100
0000
0000
,
0000
0010
0010
0200
0000
1300
1000
1000
,
0100
0010
0000
0001
0000
0100
0000
0000
,
0000
0000
0020
0000
0000
0000
0030
0000
1000
0100
1000
0000
0001
0000
1000
0000
,
0010
0100
0000
0010
0100
0001
0000
0011
,
0000
0000
0100
0000
0010
0000
0100
0000
1000
0100
1000
0001
0010
0001
0100
0000
,
0010
0000
0000
1000
0000
0000
0010
0000
0000
0000
0100
0000
0000
0000
0001
0000
0000
0000
0100
0000
0000
0000
0010
0000
0000
0000
1000
0000
0000
0000
0100
0000
0000
0000
0010
0000
0000
0000
0000
0000
0000
0000
0010
0000
0000
0000
0001
0000
,
0000
0000
0000
0000
0000
0000
1000
0000
0000
0000
0001
0000
0000
0000
1000
0000
0000
0000
0001
0000
0000
0000
1000
0000
0000
0000
0001
0000
0000
0000
0100
0000
0000
0010
0000
0000
0100
0000
0000
0001
0000
0000
0100
0000
0000
0010
0000
0000
,
1000
0000
0000
1001
0000
0000
0000
0000
0000
0001
0000
0000
1000
0000
0000
0001
0000
1000
0000
0010
0000
1000
0000
0001
,
0000
0000
0010
0000
0000
0000
0001
0000
0000
0000
1000
0000
0000
0000
0100
0000
0000
0000
0010
0000
0000
0000
0000
0000
0000
0000
0000
0000
0000
0000
0001
0000
0000
0100
0000
0000
0001
0000
0000
0100
0000
0000
0010
0000
0000
1000
0000
0000
,
0010
0000
0000
1100
0000
0000
0000
0000
0000
1000
0000
0000
0100
0000
0000
0010
0000
0001
0000
0010
0000
0100
0000
1000
,
0000
0100
0000
0010
0000
0001
0000
0100
0000
0010
0000
0100
0000
0010
0000
1000
0000
0010
0000
1000
0000
0001
0000
1000
,
0000
0100
0000
0010
0000
0001
0000
0010
0000
0001
0000
0100
0000
0010
0000
1000
0000
0001
0000
1000
0000
0100
0000
0010
,
0000
0000
0100
0000
0000
0000
1000
0000
0000
0000
0000
0000
0000
0000
0000
0000
0000
0000
0101
0000
0000
0000
0000
0000
0000
0000
0000
0000
0000
0000
0001
0000
0000
0100
0000
0000
0010
0000
0000
1000
0000
0000
0100
0000
0000
0010
0000
0000
,
0001
0100
0010
0000
0000
0000
0110
0000
0000
0000
1000
0010
0100
0010
1000
0010
,
0100
0010
0000
1001
0000
0001
0000
1000
,
0010
1000
0001
0100
0010
0100
0002
0010
,
0000
0000
0013
0000
0001
0010
0001
0000
1000
0000
0001
0000
0000
0000
0001
0000
,
0010
0001
0100
0010
0100
0010
2000
0100
,
0000
0000
3100
0000
0010
0100
0010
0000
0001
0000
0100
0000
0000
0000
0100
0000
,
0010
0100
0001
0010
0100
1000
0020
0100
,
0000
0000
0130
0000
0001
0100
0001
0000
0100
0000
0010
0000
0000
0000
1010
0000
,
0000
0010
1000
0100
0010
0100
0000
0011
,
0000
0000
0001
0000
1000
0010
0100
0000
0001
0000
0200
0000
0000
0000
0010
0000
,
0000
0310
0000
0010
1000
0001
1000
0001
,
0000
1000
0100
0010
0001
0020
0000
0100
,
0000
0130
0000
0010
1000
0001
0100
1000
,
0010
0100
0001
1000
0010
1000
0010
0100
,
0001
0100
0010
1000
0100
0001
0100
1000
,
0001
0000
0010
0000
0100
0000
1000
0000
0010
0000
1000
0001
1000
0001
1000
0100
,
0010
0001
0100
0001
0100
0010
1000
0001
1000
0010
2000
0000
0001
0000
0001
0000
,
0000
0000
0001
0000
0000
0000
0010
0000
3010
0000
0100
0000
0000
0000
0202
0303
,
0000
2002
3003
0010
0001
1000
0102
0103
,
0010
0000
2100
0000
3100
0000
0020
0000
0001
0000
0031
0000
0000
0000
2002
3003
,
0000
2200
3300
0010
0100
0010
2010
3100
,
0010
0000
0102
0000
0013
0000
0200
0000
0010
0000
1300
0000
0000
0000
2020
3030
,
0000
0022
0033
0100
1000
0100
0120
0031
,
0100
0120
1030
0001
0000
1010
0010
0100
,
0110
0010
1000
1100
0100
1000
0011
0001
,
1000
0020
0030
2000
3000
0002
0023
0032
,
0003
0000
2000
0000
0000
3000
0020
0000
0230
0000
0302
0000
2003
0000
3020
0000
,
0030
0000
2000
0000
0000
3000
0200
0000
0300
0000
0000
0000
0000
0000
0000
0000
;

//---------------dance-single - ----------------
#NOTEDATA:;
#CHARTNAME:;
#STEPSTYPE:dance-single;
#DESCRIPTION:;
#CHARTSTYLE:;
#DIFFICULTY:Medium;
#METER:12;
#RADARVALUES:0.457732,0.555986,0.354183,0.205921,0.012355,389.000000,346.000000,43.000000,25.000000,0.000000,0.000000,0.000000,0.000000,0.000000,0.457732,0.555986,0.354183,0.205921,0.012355,389.000000,346.000000,43.000000,25.000000,0.000000,0.000000,0.000000,0.000000,0.000000;
#CREDIT:Daniel Van Eden;
#NOTES:
0000
0000
0000
0000
,
0000
0000
0000
0000
,
0000
0000
0000
0000
,
0000
0000
0000
0000
,
0000
0000
0000
0000
,
0000
0000
0000
0000
,
0000
0000
0000
0000
,
0000
0000
0000
0000
,
0000
0000
0000
0000
,
0000
0000
0000
0000
,
0000
0000
0000
0000
,
1010
0000
0010
1000
0010
0100
0010
1000
,
0100
0001
0100
0000
1001
0000
1000
0000
,
0010
0000
0100
0001
0100
0010
0100
0001
,
0010
0100
1000
0000
0011
0000
1000
0000
,
0100
0000
0010
0001
1000
0001
0010
0100
,
0010
0001
1000
0000
0010
0000
1000
0000
,
0001
1000
0100
0020
0000
0030
0001
0010
,
0001
1000
0010
0000
0110
0000
0010
1000
,
0001
0000
1001
0000
1001
0000
1000
1000
,
0010
0100
0010
1000
0000
0001
1000
0100
,
0100
0000
0011
0000
0101
0000
0100
0100
,
0010
1000
0200
0300
0020
0030
0001
1000
,
1000
0000
0101
0000
0101
0000
0100
0100
,
0010
1000
0001
0010
0000
0001
0010
0000
,
0100
0010
0002
0003
2000
3000
0010
1000
,
0001
0100
0010
0000
0200
0300
0002
0000
,
1003
0000
0010
0000
0101
0000
0100
0001
,
0100
0010
0010
1000
0100
0100
0020
0000
,
0031
0000
1000
0000
1100
0000
0010
1000
,
0001
1000
1000
0100
0010
0010
0002
0000
,
0103
0000
0010
0000
1001
0000
0001
0100
,
0001
1000
0010
1000
0100
0010
0001
0000
,
0001
0000
0200
0300
0000
0000
2000
0000
0000
3000
0000
0000
0100
0000
0020
0030
,
0000
1001
0000
1001
0000
0101
0000
0000
,
0000
0000
0000
0000
0000
0001
0000
0100
,
0000
0010
0010
2000
0000
3100
0000
0000
,
0000
0000
0000
0000
0000
1001
0000
0100
,
0000
0002
0010
0000
0013
0100
0010
0100
,
0000
1000
0000
0001
0010
0001
0000
0100
,
0000
1001
0001
1000
0000
0010
0100
0001
,
0010
0100
1000
0100
0000
0011
0000
1001
,
0000
1010
0000
0101
0000
0001
0010
0100
,
1000
0010
0000
0100
0001
1000
0000
0101
,
0000
1100
0000
0011
0000
0010
0100
0010
,
0001
0100
0000
0010
1000
0100
0000
0101
,
0000
1010
0000
0011
0000
0100
0010
0100
,
0000
0010
1000
0001
0000
0100
0001
0010
,
0000
0000
1100
0000
0000
0000
1001
0000
0000
0000
1000
0010
1000
0000
0001
0100
,
0001
0000
0020
0000
0000
0000
0130
0000
0000
0000
0100
0000
0010
0001
0010
0000
,
0001
2000
0000
3001
0000
0011
0000
0100
,
0001
0100
1000
0100
0001
2000
0000
0100
,
0000
0100
0000
3010
0000
0110
0000
0010
,
1000
0010
0001
0010
0100
0002
0000
0010
,
0000
0010
0000
1003
0000
1010
0000
0100
,
0010
0100
0000
0101
0000
1000
0001
0010
,
0000
0001
1000
0100
0010
0001
0000
1100
,
0000
0001
0010
0100
1000
0001
0000
1010
,
0000
0010
0000
0100
0001
2000
0000
0000
,
0000
0000
0000
0010
3020
0000
0000
0100
,
0230
0000
0000
0301
0000
0010
0000
0001
,
0000
1000
0000
0010
1000
0000
0000
1000
,
0001
0000
0001
0010
0100
0000
0100
0000
,
1001
0001
0100
0100
,
1010
0000
1000
0000
0010
1000
0001
0100
,
0000
0100
0000
0001
1000
0001
1000
0100
,
0000
0100
0000
1000
0020
0000
0000
0130
,
0000
0110
0000
0100
0010
0100
0001
1000
,
0010
0100
0001
0020
0000
0130
0000
1100
,
0000
0101
0000
1000
0001
1000
0010
0100
,
0001
0010
0100
2000
0000
3001
0000
0011
,
0000
0101
0000
0001
1000
0001
0010
0100
,
0010
0001
1000
0100
0000
1000
0100
0001
,
0000
0001
0000
0100
1000
0010
0001
0010
,
0000
1000
0000
0001
0002
0000
0000
0000
,
0003
0000
0000
0000
;

//---------------dance-single - ----------------
#NOTEDATA:;
#CHARTNAME:;
#STEPSTYPE:dance-single;
#DESCRIPTION:;
#CHARTSTYLE:;
#DIFFICULTY:Easy;
#METER:8;
#RADARVALUES:0.288289,0.398199,0.140026,0.065895,0.000000,245.000000,228.000000,17.000000,8.000000,0.000000,0.000000,0.000000,0.000000,0.000000,0.288289,0.398199,0.140026,0.065895,0.000000,245.000000,228.000000,17.000000,8.000000,0.000000,0.000000,0.000000,0.000000,0.000000;
#CREDIT:Daniel Van Eden;
#NOTES:
0000
0000
0000
0000
,
0000
0000
0000
0000
,
0000
0000
0000
0000
,
0000
0000
0000
0000
,
0000
0000
0000
0000
,
0000
0000
0000
0000
,
0000
0000
0000
0000
,
0000
0000
0000
0000
,
0000
0000
0000
0000
,
0000
0000
0000
0000
,
0000
0000
0000
0000
,
0001
0000
1000
0010
,
1000
0100
0110
0000
,
0010
0000
0001
1000
,
0001
0100
1001
0000
,
1000
0010
1000
0001
,
0100
0001
1000
0000
,
0010
1000
2000
3001
,
0002
0013
0100
0000
,
1001
0001
0001
1000
,
0010
1000
0100
0010
,
1001
0100
0001
0100
,
0010
1000
0001
0001
,
1100
1000
0010
0100
,
0001
1000
0100
0010
,
0002
0013
0020
0031
,
0200
0310
2000
3100
,
0001
1000
1000
0001
,
0100
0000
0010
0000
1000
0001
1000
0000
,
0100
0010
0001
0001
,
0010
0000
0100
0000
1000
0001
1000
0000
,
0010
0100
0001
1000
,
0100
0000
0010
0000
0001
1000
0001
0000
,
0101
0000
0000
1010
0000
0000
1100
0000
,
0000
0011
0000
0000
0000
1000
0000
0000
,
0000
0001
0000
0100
0000
0010
0000
0000
,
0000
2000
0000
0000
0000
3010
0000
0000
,
0000
0100
0000
0001
0000
1000
0000
0000
,
0000
0200
0000
0000
0000
0310
0000
0001
,
0000
1000
0000
0000
0000
0001
0000
0100
,
0000
0010
0000
1000
0000
0001
0000
0001
,
0000
1000
0000
1000
0000
1001
0000
0110
,
0000
1001
0000
0110
0000
0001
0000
0000
,
1000
0000
0000
0010
0000
1000
0000
0001
,
0000
1000
0000
0100
0000
0010
0000
0000
,
0001
0000
0000
0010
0000
0100
0000
0100
,
0000
0010
0000
0010
0000
0001
0000
0000
,
1000
0000
0000
0010
0000
0100
0000
0001
,
0000
1001
0000
1000
0000
0001
0000
1000
,
0000
0010
0000
0100
0000
0010
0000
1000
,
0001
1000
0000
1001
0000
0001
0000
0000
,
0000
1000
0000
0010
0000
0100
0000
0000
,
0000
0100
0000
0010
0000
1000
0000
0000
,
0000
0100
0000
0010
0000
0001
0000
0000
,
0000
1000
0000
0000
0000
0001
0000
0000
,
0000
1000
0000
0010
0000
0100
0000
0000
,
0000
0001
0000
0000
0000
1000
0000
1000
,
0000
0010
0000
1000
0000
0001
0000
0001
,
0000
1000
0000
0000
0000
0100
0000
0000
,
0000
0010
0000
0000
0000
0001
0000
1000
,
0000
0001
0000
0000
0000
0100
0000
0000
,
0000
0010
0000
0000
0000
1000
0000
0001
,
0000
1000
0000
0000
0000
0100
0000
0100
,
0000
0010
0000
0010
0000
0001
0000
0001
,
0000
1000
0000
1000
0000
0010
0000
1000
,
0000
1000
0000
0001
0000
0001
0000
0100
,
0000
0100
0000
0001
1000
0000
0000
1000
,
0000
1000
0000
0010
0000
0100
0000
0001
,
0000
1000
0100
1000
0000
0010
0000
0001
,
0000
1000
0000
0001
0000
0100
0000
0010
,
0000
0100
0010
0100
0000
0001
0000
1000
,
0000
0001
0000
0010
0000
0001
0000
1000
,
0000
0100
1000
0100
0000
0010
0000
0100
,
0000
0110
0000
0001
0000
1000
0000
1001
,
0000
1000
0000
0001
0000
0000
0000
0000
;

//---------------dance-single - ----------------
#NOTEDATA:;
#CHARTNAME:;
#STEPSTYPE:dance-single;
#DESCRIPTION:;
#CHARTSTYLE:;
#DIFFICULTY:Beginner;
#METER:5;
#RADARVALUES:0.185917,0.274750,0.065895,0.000000,0.000000,158.000000,150.000000,8.000000,0.000000,0.000000,0.000000,0.000000,0.000000,0.000000,0.185917,0.274750,0.065895,0.000000,0.000000,158.000000,150.000000,8.000000,0.000000,0.000000,0.000000,0.000000,0.000000,0.000000;
#CREDIT:Daniel Van Eden;
#NOTES:
// measure 0
0000
0000
0000
0000
,  // measure 1
0000
0000
0000
0000
,  // measure 2
0000
0000
0000
0000
,  // measure 3
0000
0000
0000
0000
,  // measure 4
0000
0000
0000
0000
,  // measure 5
0000
0000
0000
0000
,  // measure 6
0000
0000
0000
0000
,  // measure 7
0000
0000
0000
0000
,  // measure 8
0000
0000
0000
0000
,  // measure 9
0000
0000
0000
0000
,  // measure 10
0000
0000
0000
0000
,  // measure 11
1000
0000
0001
0000
,  // measure 12
0010
0000
0010
0000
,  // measure 13
0001
0000
1000
0000
,  // measure 14
0100
0000
0100
0000
,  // measure 15
1000
0000
0010
0000
,  // measure 16
0001
0000
0010
0000
,  // measure 17
1000
0000
0001
0001
,  // measure 18
0000
1000
1000
0000
,  // measure 19
0010
0000
1000
0000
,  // measure 20
0001
0001
0001
0000
,  // measure 21
1000
0000
0100
0000
,  // measure 22
0010
0010
0010
0000
,  // measure 23
0001
0000
1000
0000
,  // measure 24
0001
0001
0001
0000
,  // measure 25
0100
0000
0010
0000
,  // measure 26
1000
0000
1001
0000
,  // measure 27
1000
0000
0100
0100
,  // measure 28
0000
1000
1000
1000
,  // measure 29
0010
0000
0100
0100
,  // measure 30
0000
0001
0001
0001
,  // measure 31
1000
0000
0010
0010
,  // measure 32
0000
1000
1000
1000
,  // measure 33
0100
0000
0000
0010
0000
0000
0010
0000
,  // measure 34
0000
1001
0000
0000
0000
1000
0000
0000
,  // measure 35
0000
0000
0000
0000
0000
0001
0000
0000
,  // measure 36
0000
1000
0000
0000
0000
0010
0000
0000
,  // measure 37
0000
0000
0000
0000
0000
0100
0000
0000
,  // measure 38
0000
0100
0000
0000
0000
0010
0000
0010
,  // measure 39
0000
0010
0000
0000
0000
1000
0000
1000
,  // measure 40
0000
1000
0000
0000
0000
0001
0000
0000
,  // measure 41
0000
1000
0000
0000
0000
1001
0000
1001
,  // measure 42
0000
1001
0000
0000
0000
0010
0000
0000
,  // measure 43
0000
1000
0000
0000
0000
0001
0000
0001
,  // measure 44
0000
0001
0000
0000
0000
0010
0000
0000
,  // measure 45
0000
0100
0000
0000
0000
1000
0000
1000
,  // measure 46
0000
1000
0000
0000
0000
0010
0000
0000
,  // measure 47
0000
1000
0000
0000
0000
0100
0000
0000
,  // measure 48
0000
0010
0000
0000
0000
0001
0000
0001
,  // measure 49
0000
0001
0000
0000
0000
1000
0000
1000
,  // measure 50
0000
1000
0000
0000
0000
0010
0000
0000
,  // measure 51
0000
0100
0000
0000
0000
0010
0000
0000
,  // measure 52
0000
0010
0000
0000
0000
1000
0000
0000
,  // measure 53
0000
1000
0000
0000
0000
0001
0000
0000
,  // measure 54
0000
0001
0000
0000
0000
0100
0000
0000
,  // measure 55
0000
0001
0000
0000
0000
1000
0000
0000
,  // measure 56
0000
0010
0000
0000
0000
1000
0000
1000
,  // measure 57
0000
0000
0000
0000
0000
0001
0000
0001
,  // measure 58
0000
0000
0000
0000
0000
1000
0000
0000
,  // measure 59
0000
0100
0000
0000
0000
0010
0000
0000
,  // measure 60
0000
0001
0000
0000
0000
0001
0000
0000
,  // measure 61
0000
0100
0000
0000
0000
0010
0000
0000
,  // measure 62
0000
1000
0000
0000
0000
0001
0000
0000
,  // measure 63
0000
1000
0000
0000
0000
0010
0000
0000
,  // measure 64
0000
1000
0000
0000
0000
0100
0000
0100
,  // measure 65
0000
0100
0000
0000
0000
0010
0000
0000
,  // measure 66
0000
0010
0000
0000
0000
0001
0000
0000
,  // measure 67
0000
0100
0000
0100
0000
0000
0000
0010
,  // measure 68
0000
0010
0000
0010
0000
1000
0000
0000
,  // measure 69
0000
1000
0000
1000
0000
0000
0000
0100
,  // measure 70
0000
0100
0000
0100
0000
0010
0000
0000
,  // measure 71
0000
0001
0000
0001
0000
0000
0000
1000
,  // measure 72
0000
1000
0000
1000
0000
0010
0000
0000
,  // measure 73
0000
1001
0000
0000
0000
1100
0000
0000
,  // measure 74
0000
0011
0000
0000
0000
0000
0000
0000
;
