#TITLE:大見解;
#SUBTITLE:;
#ARTIST:Des-ROW feat. TSUBOI for ALPHA;
#TITLETRANSLIT:DAIKENKAI;
#SUBTITLETRANSLIT:;
#ARTISTTRANSLIT:;
#GENRE:;
#CREDIT:;
#BANNER:DAIKENKAI.png;
#BACKGROUND:DAIKENKAI-bg.png;
#LYRICSPATH:;
#CDTITLE:;
#MUSIC:DAIKENKAI.ogg;
#OFFSET:0.000000;
#SAMPLESTART:61.340000;
#SAMPLELENGTH:15.000000;
#SELECTABLE:YES;
#DISPLAYBPM:143.000000:172.000000;
#BPMS:0.000000=143.425995
,4.000000=142.977005
,118.000000=172.059998
;
#STOPS:
;
#BGCHANGES:0.000=DAIKENKAI.avi=1.000=0=0=0=StretchNoLoop====,
99999=-nosongbg-=1.000=0=0=0 // don't automatically add -songbackground-
;
#KEYSOUNDS:;
#ATTACKS:;

//---------------dance-single - ----------------
#NOTES:
     dance-single:
     :
     Challenge:
     14:
     0.682216,0.797083,0.111708,0.027927,0.195489,513.000000,501.000000,12.000000,3.000000,0.000000,0.000000,0.682216,0.797083,0.111708,0.027927,0.195489,513.000000,501.000000,12.000000,3.000000,0.000000,0.000000:
// measure 0
0000
0000
0000
0000
,  // measure 1
0000
0000
0000
0000
,  // measure 2
1001
0000
1000
0100
0010
0000
0001
0100
,  // measure 3
0000
0100
0010
0100
0001
0010
0100
0000
,  // measure 4
1000
0000
0001
0100
0010
1000
0001
0100
,  // measure 5
0000
0000
0110
0000
1001
0001
0010
0100
,  // measure 6
1000
0010
1000
0010
0100
0001
0010
0000
,  // measure 7
0001
0100
0001
0100
0010
1000
0001
0000
,  // measure 8
0010
0001
0100
0001
0010
0100
1000
0010
,  // measure 9
1000
0100
0010
0001
1000
0000
0110
0000
,  // measure 10
0001
0010
0001
0010
0100
1000
0010
0000
,  // measure 11
1000
0100
1000
0100
0010
0001
0100
0000
,  // measure 12
0010
1000
0100
1000
0010
0001
0010
0100
,  // measure 13
0001
0010
0100
1000
0001
0010
0010
0100
,  // measure 14
1000
0010
0100
0001
1000
0100
0010
0100
,  // measure 15
1000
0001
0010
0001
1000
0000
0010
1000
,  // measure 16
0001
0100
1000
0100
0001
0000
0010
0001
,  // measure 17
1000
0100
0001
0100
0010
0000
1001
0000
,  // measure 18
0001
0000
0010
0000
0001
0000
0100
0000
0010
0000
1000
0000
0001
1000
0001
0000
,  // measure 19
0010
0110
0000
1001
0000
1000
0001
0000
,  // measure 20
0101
0000
0100
0001
0010
0100
1000
0001
,  // measure 21
0010
0000
0001
0000
0100
0000
0010
0000
1000
0000
0100
0000
0100
0010
0001
1000
,  // measure 22
0100
0010
0100
0010
1000
0010
1000
0010
,  // measure 23
0001
0010
0001
0100
0010
1000
0001
0100
,  // measure 24
0010
0100
0010
0100
1000
0100
1000
0100
,  // measure 25
0001
0100
0010
1000
0100
0010
0001
0000
,  // measure 26
1000
0010
0100
0001
1000
0000
0010
1000
,  // measure 27
0001
0010
0100
1000
0001
0000
0100
0010
,  // measure 28
1000
0100
0010
0001
1000
0000
0010
0100
,  // measure 29
0010
1000
0100
0010
0001
0000
0011
0011
,  // measure 30
2002
0000
0000
0000
,  // measure 31
0000
0000
0000
0000
,  // measure 32
3003
0000
0000
0000
,  // measure 33
0000
0000
0000
0000
,  // measure 34
0010
0000
1000
0001
0100
0000
0001
0010
,  // measure 35
0000
0010
0001
0100
0010
1000
0001
0000
,  // measure 36
1000
0100
0001
1000
0010
0001
0100
0010
,  // measure 37
1000
0000
0010
0000
1000
0000
0001
1000
0010
0000
0100
0001
1000
0000
0100
0000
,  // measure 38
0010
0001
0100
0010
1000
0100
0010
0000
,  // measure 39
0001
0010
0100
1000
0010
0100
0001
0000
,  // measure 40
1000
0010
1000
0100
0001
0100
1000
0001
,  // measure 41
0010
1000
0010
0001
0100
0000
1001
0000
,  // measure 42
0001
1000
0100
0010
0100
1000
0001
0000
,  // measure 43
0100
0000
0010
0000
1000
0000
0001
0000
1000
0000
0010
0100
0010
0000
1000
0000
,  // measure 44
0001
0000
0010
0000
1000
0000
0010
0000
0001
0000
0100
0000
0010
1000
0001
0100
,  // measure 45
0010
0000
1000
0000
0100
0000
0010
0000
0001
0000
0100
0001
0100
0000
0010
0000
,  // measure 46
1000
0100
1000
0100
0010
0001
0010
0001
,  // measure 47
0100
0000
0010
0000
0100
0000
0001
0000
1000
0000
0010
0000
1000
0100
0010
0001
,  // measure 48
0100
0010
1000
0100
0010
0001
1000
0000
,  // measure 49
0010
0000
1000
0000
0001
0100
0001
0100
0001
0000
0010
0100
1000
0000
0001
0000
,  // measure 50
0010
0001
0100
0001
0010
0100
1000
0001
,  // measure 51
1000
0000
0010
0000
0100
0000
0010
0000
1000
0000
0100
0000
0010
0100
1000
0001
,  // measure 52
0010
0001
0010
0001
1000
0001
0100
0010
,  // measure 53
0010
0000
1000
0000
0001
0000
0100
0010
1000
0000
0001
1000
0001
0000
0100
0000
,  // measure 54
0010
1000
0100
1000
0010
0100
0001
1000
,  // measure 55
0001
0010
0100
0010
0001
1000
0010
0000
,  // measure 56
1000
0100
0010
0001
1000
0010
1000
0000
,  // measure 57
0001
0000
0010
0000
1000
0000
0010
0000
0001
0100
0001
0100
0010
1000
0010
1000
,  // measure 58
0001
0100
0010
1000
0001
0100
0010
0100
,  // measure 59
0001
0000
1000
0000
0100
0000
0010
0000
0001
0000
1000
0000
0001
0010
0001
0010
,  // measure 60
0100
0000
1000
0100
0010
0000
0001
0000
0100
0000
0010
0000
0100
0000
0001
0000
,  // measure 61
1000
0000
0100
0000
0010
0001
0100
0000
0001
0000
1000
0000
0001
0000
1000
0000
,  // measure 62
0010
0000
1000
0010
0100
0000
0001
0000
0010
0000
0100
0000
0010
0000
0001
1000
,  // measure 63
0001
0000
1000
0000
0010
0000
1000
0100
0010
0000
0001
0100
0010
0000
1000
0000
,  // measure 64
0100
0000
0010
0001
1000
0000
0001
0000
1000
0000
0010
0000
0100
0000
0001
0010
,  // measure 65
0001
0000
0100
0000
0010
1000
0010
0000
1000
0000
0001
0000
1000
0000
0100
0010
,  // measure 66
0001
0000
1000
0001
1000
0000
0010
0000
0100
0001
0100
0000
0010
0000
1000
0100
,  // measure 67
1000
0000
0001
0000
0010
0100
0010
0000
0001
1000
0100
0010
0001
0100
0010
1000
,  // measure 68
0002
0000
0003
0000
;
