#VERSION:0.83;
#TITLE:Cytokinesis;
#SUBTITLE:;
#ARTIST:Hommarju;
#TITLETRANSLIT:;
#SUBTITLETRANSLIT:;
#ARTISTTRANSLIT:;
#GENRE:;
#ORIGIN:;
#CREDIT:;
#BANNER:Cytokinesis.png;
#BACKGROUND:Cytokinesis-bg.png;
#PREVIEWVID:;
#JACKET:Cytokinesis-jacket.png;
#CDIMAGE:;
#DISCIMAGE:;
#LYRICSPATH:;
#CDTITLE:;
#MUSIC:Cytokinesis.ogg;
#OFFSET:0.000000;
#SAMPLESTART:96.653999;
#SAMPLELENGTH:15.000000;
#SELECTABLE:YES;
#DISPLAYBPM:111.000000:280.000000;
#BPMS:0.000=111.000,
20.000=112.500,
22.000=117.000,
24.000=141.000,
26.000=168.000,
28.000=198.000,
30.000=228.000,
32.000=246.000,
34.000=277.000,
36.000=154.000,
78.000=155.000,
80.000=160.000,
82.000=168.000,
84.000=173.000,
88.000=175.000,
90.000=182.000,
92.000=187.000,
94.000=193.000,
96.000=197.000,
100.000=182.000,
216.000=191.500,
220.000=204.000,
224.000=212.000,
228.000=225.000,
232.000=230.000,
234.000=237.000,
236.000=244.000,
238.000=254.000,
240.000=257.000,
244.000=265.000,
248.000=137.000,
249.000=145.000,
250.000=152.500,
251.000=158.000,
252.000=165.000,
254.000=173.000,
256.000=176.000,
257.000=180.000,
258.000=191.000,
259.000=200.000,
260.000=212.000,
264.000=217.000,
268.000=228.000,
270.000=234.000,
272.000=250.000,
274.000=261.000,
276.000=273.000,
278.000=282.000,
281.000=222.000;
#STOPS:;
#DELAYS:;
#WARPS:;
#TIMESIGNATURES:0.000=4=4;
#TICKCOUNTS:0.000=4;
#COMBOS:0.000=1;
#SPEEDS:0.000=1.000=0.000=0;
#SCROLLS:0.000=1.000;
#FAKES:;
#LABELS:0.000=Song Start;
#BGCHANGES:;
#KEYSOUNDS:;
#ATTACKS:
;

//---------------dance-single - ----------------
#NOTEDATA:;
#CHARTNAME:;
#STEPSTYPE:dance-single;
#DESCRIPTION:;
#CHARTSTYLE:;
#DIFFICULTY:Challenge;
#METER:16;
#RADARVALUES:0.736928,1.238976,0.299526,0.108162,0.316166,620.000000,584.000000,36.000000,13.000000,0.000000,0.000000,0.000000,0.000000,0.000000,0.736928,1.238976,0.299526,0.108162,0.316166,620.000000,584.000000,36.000000,13.000000,0.000000,0.000000,0.000000,0.000000,0.000000;
#CREDIT:Daniel Van Eden;
#DISPLAYBPM:111.000000:280.000000;
#NOTES:
// measure 0
0000
0000
0000
0000
,  // measure 1
0000
0000
0000
0000
,  // measure 2
0000
0000
0000
0000
,  // measure 3
0000
0000
0000
0000
,  // measure 4
0000
0000
0000
0000
,  // measure 5
0000
0000
0000
0000
,  // measure 6
0000
0000
0000
0000
,  // measure 7
0000
0000
0000
0000
,  // measure 8
0000
0000
0000
0000
,  // measure 9
0000
0000
0000
0000
0010
0010
0010
0010
,  // measure 10
0001
0000
1000
0000
0001
0000
0000
0000
0010
0000
0001
0010
0001
0000
0100
0000
,  // measure 11
0010
0000
1000
0000
0001
0000
1000
0000
0000
0000
0010
1000
0001
0100
0001
0000
,  // measure 12
1000
0000
0001
0000
1000
0000
0010
0000
0000
0000
1000
0100
1000
0000
0001
0000
,  // measure 13
0201
0000
0000
0000
0010
0010
0001
0301
,  // measure 14
0010
0000
0100
0000
0010
0000
0100
0000
1000
0000
0001
0100
0001
0000
1000
0000
,  // measure 15
0010
0000
1000
0000
0001
0000
0100
0000
0000
0000
0001
0010
0001
1000
0100
0000
,  // measure 16
0010
0000
0001
0000
1000
0000
0001
0000
0000
0000
1000
0010
1000
0000
0001
0000
,  // measure 17
2001
0000
0000
0000
0010
0010
0100
3100
,  // measure 18
0110
0000
0010
0001
0000
0100
0001
0000
,  // measure 19
0110
0000
0010
1000
0000
0100
1000
0000
,  // measure 20
1001
0000
0001
0100
0000
0001
1000
0000
,  // measure 21
0001
1000
0010
1000
0100
0100
0100
0100
,  // measure 22
0010
0000
0001
0100
0101
0000
1000
0010
,  // measure 23
1010
0000
0100
1000
1100
0000
0010
0001
,  // measure 24
0011
0010
0100
0100
1000
1000
0010
0010
,  // measure 25
0100
0000
0000
0000
,  // measure 26
2002
3003
0000
0000
0011
0000
0010
0001
0000
0001
1000
0000
0010
0000
1000
0000
,  // measure 27
0100
0000
1000
0000
1010
0000
0010
1000
0000
1000
0001
0000
0010
0000
0100
0000
,  // measure 28
1000
0000
0000
0000
0101
0000
0100
0001
0000
0001
0010
0000
0100
0000
1000
0000
,  // measure 29
0010
0000
0110
0000
1001
0000
0000
0101
0000
1100
0000
0000
0110
0000
0010
0000
,  // measure 30
0001
0000
0000
0000
1100
0000
0100
0000
1000
0000
0001
1000
0001
0000
0010
0000
,  // measure 31
0001
0000
0100
0000
0101
0000
0001
1000
0000
1000
0001
0000
0010
0000
0100
0000
,  // measure 32
1000
0000
0010
0000
1000
0000
0001
0000
1000
0000
0010
0100
0010
0000
1000
0000
,  // measure 33
0100
0000
0110
0000
1001
0000
0000
1010
0000
0011
0000
0000
1001
0000
1000
0000
,  // measure 34
0100
0000
0010
0000
1001
0000
0000
1000
0000
1000
0001
0000
1000
0000
0001
0000
,  // measure 35
1000
0000
0010
0000
0110
0000
0000
0100
0000
0100
0010
0000
0100
0000
0010
0000
,  // measure 36
0100
0000
0001
0000
1000
0000
0100
0000
0010
0000
0001
1000
0001
0000
0100
0000
,  // measure 37
0010
1000
0010
1000
0001
1000
0001
1000
0100
0010
0001
0100
0001
0100
0010
1000
,  // measure 38
0001
0100
0010
0000
0100
0010
0000
1000
,  // measure 39
0000
0010
0100
0000
0010
0100
0000
0001
,  // measure 40
0010
0100
1000
0000
0100
1000
0000
0001
,  // measure 41
0000
0010
0001
0000
0100
0010
0000
1000
,  // measure 42
1001
0001
0100
0000
0001
0100
0000
0010
,  // measure 43
0000
1000
0010
0000
1000
0010
0000
1000
,  // measure 44
0100
0010
0001
0000
0010
0001
0000
1000
,  // measure 45
0000
0100
1000
0000
0010
1000
0000
0001
,  // measure 46
1001
1000
0010
0000
0100
0010
0000
1000
,  // measure 47
0001
1000
0001
0000
0010
0100
0000
1000
,  // measure 48
0010
1000
0001
0000
0100
0001
0000
0010
,  // measure 49
0100
0010
0001
0000
1000
0100
1000
0000
,  // measure 50
1001
0001
0100
0000
0010
0100
0000
0001
,  // measure 51
1000
0001
1000
0000
0100
0010
0000
0001
,  // measure 52
0100
0001
1000
0000
0010
1000
0000
0100
,  // measure 53
0010
0100
1000
0000
0001
0010
0001
0000
,  // measure 54
0100
0010
0000
0010
0100
0001
0010
0100
,  // measure 55
1000
0001
0000
0001
1000
0100
0010
0001
,  // measure 56
1000
0010
0000
0010
1000
0100
0010
0001
,  // measure 57
0100
0001
0000
0001
0100
0001
0010
0100
,  // measure 58
1000
0100
0000
0100
0010
0001
1000
0001
,  // measure 59
0010
0100
0000
0100
0010
0001
0100
0010
,  // measure 60
1000
0001
0000
0001
1000
0100
0010
0001
,  // measure 61
0100
0001
0000
0001
0010
0100
1000
0100
,  // measure 62
1000
0100
0010
0001
1000
0100
0010
0001
,  // measure 63
0100
0010
1000
0001
0100
0010
1000
0001
,  // measure 64
1000
0100
1000
0100
0010
0001
0010
0001
,  // measure 65
1000
0001
1000
0001
0100
0010
0100
0010
,  // measure 66
1000
0010
1000
0010
1000
0010
1000
0010
1000
0010
1000
0010
1000
0010
1000
0010
,  // measure 67
0100
0001
0100
0001
0100
0001
0100
0001
0100
0001
0100
0001
0100
0001
0100
0001
,  // measure 68
2000
0000
0000
0000
,  // measure 69
0002
0000
0000
0000
,  // measure 70
3003
0000
0001
0100
0010
1000
0001
0100
,  // measure 71
0010
1000
0100
0010
0001
1000
0010
0100
,  // measure 72
0001
0000
1000
0001
1000
0000
0010
0000
0100
0000
0001
0000
1000
0000
0010
0000
,  // measure 73
0100
0000
0001
0000
0010
0000
0001
0000
1000
0001
1000
0001
0100
0000
0001
0000
,  // measure 74
1000
0010
1000
0010
0100
0000
0001
0000
0010
0000
0100
0000
1000
0000
0010
0000
,  // measure 75
0100
0010
1000
0100
0010
0001
0100
0010
,  // measure 76
1000
0000
0001
1000
0001
0000
0010
0000
0100
0000
1000
0000
0001
0000
0010
0000
,  // measure 77
0001
0000
0100
0000
0010
0000
1000
0000
0100
1000
0100
1000
0010
0000
0220
0000
,  // measure 78
0330
0000
0202
0303
0000
0000
0001
0000
1000
0000
0100
0000
1000
0000
0001
0000
,  // measure 79
1000
0010
0100
0001
0010
0100
1000
0100
,  // measure 80
0010
0000
0001
0100
0001
0000
0100
0000
0010
0000
0100
0000
0001
0000
1000
0000
,  // measure 81
0010
0000
1000
0000
0100
0000
0010
0001
1000
0000
0010
0000
0100
0001
0100
0001
,  // measure 82
2000
0000
0000
0000
3001
0000
0010
0100
0010
0000
0001
0000
1000
0000
0100
0000
,  // measure 83
1000
0000
0100
0010
0001
0000
1000
0000
0001
0000
1000
0100
0010
0001
1000
0000
,  // measure 84
0010
0000
0100
0001
1000
0000
0010
0000
1000
0000
0010
0000
0100
0000
0001
0000
,  // measure 85
1000
0000
0001
0000
0010
0001
0010
0001
0100
0010
0100
0010
1000
0100
0010
0001
,  // measure 86
0100
0010
1000
0001
0100
0000
0000
0000
0000
0000
0000
0000
0101
0000
0000
0000
,  // measure 87
0000
1010
0000
0110
,  // measure 88
0000
2002
0000
0000
,  // measure 89
0000
0000
0000
0000
,  // measure 90
0000
3003
0000
0000
;
