#TITLE:Cycle Hit;
#SUBTITLE:;
#ARTIST:KASAI HARCORES;
#TITLETRANSLIT:;
#SUBTITLETRANSLIT:;
#ARTISTTRANSLIT:;
#GENRE:;
#CREDIT:;
#BANNER:Cycle Hit.png;
#BACKGROUND:Cycle Hit-bg.png;
#LYRICSPATH:;
#CDTITLE:;
#MUSIC:Cycle Hit.ogg;
#OFFSET:0.645130;
#SAMPLESTART:39.162960;
#SAMPLELENGTH:10.971428;
#SELECTABLE:YES;
#BPMS:0.000000=175.000000
,116.000000=350.000000
,244.000000=175.000000
,340.000000=87.500000
,364.000000=175.000000
;
#STOPS:
;
#BGCHANGES:;
#KEYSOUNDS:;
#ATTACKS:;

//---------------dance-single - ----------------
#NOTES:
     dance-single:
     :
     Challenge:
     18:
     0.866995,2.042392,0.487168,0.421112,0.710110,735.000000,676.000000,59.000000,51.000000,0.000000,0.000000,0.866995,2.042392,0.487168,0.421112,0.710110,735.000000,676.000000,59.000000,51.000000,0.000000,0.000000:
0000
0000
0000
0000
,
0000
0000
0000
0000
,
0000
0000
0000
0000
,
0000
0000
0000
0000
,
0000
0000
0000
0000
,
0000
0000
0000
0000
,
0000
0000
0000
0000
,
0000
0000
0000
0000
,
0000
0000
0000
0000
,
0020
0000
0000
0000
0030
0000
1000
0010
0100
0000
0001
0000
0010
0000
0100
0000
,
2000
0000
0000
3000
0001
0000
1000
0000
0020
0000
0030
0000
1001
0000
0000
0000
,
0200
0000
0000
0000
0300
0000
1000
0100
0010
0000
0001
0000
0100
0000
0010
0000
,
1000
0100
0001
0100
2000
3001
1001
0000
,
0020
0000
0000
0000
0030
0000
0001
0010
0100
0000
0010
0000
0001
0000
1000
0000
,
0200
0000
1300
0001
0020
0000
0031
0100
,
0010
1000
0100
1000
0020
0000
2030
0000
,
0002
0000
0000
3003
,
1010
0010
0110
0000
,
1010
0010
0110
0000
,
0110
1001
0220
0330
,
1010
0010
0110
0000
,
0011
0100
0110
0000
,
0011
0100
0110
0000
,
1001
0110
2002
3003
,
0011
0100
0110
0000
,
0100
1000
0001
0010
0001
0010
0100
1000
0010
1000
0001
0010
1000
0010
0001
1000
,
0010
0100
0010
0001
0010
1000
0100
1000
0001
0100
1000
0100
0001
1000
0100
0010
,
1000
0010
0001
1000
0100
0001
0100
1000
0010
1000
0001
0100
0010
1000
0100
0010
,
0001
1000
1001
0000
,
0220
0000
0330
0000
0001
0100
0010
1000
,
0001
0100
0010
1000
0100
0010
0001
1000
,
0020
0030
0100
0001
1000
0100
0010
0001
,
1000
0100
0010
0001
0100
0010
1000
0001
,
0200
0300
0001
0010
0001
1000
0100
1000
,
0010
0100
0001
1000
0010
1000
0100
0010
,
0002
0003
0010
0100
0010
0100
1000
0001
,
0010
0100
0010
0001
1000
0010
0100
0001
,
2000
0000
3000
0000
0010
1000
0001
0100
,
0010
1000
0001
0100
0010
1000
0100
0010
,
0002
0003
1000
0100
0010
0100
1000
0001
,
0010
0100
1000
0001
0010
0001
0100
0010
,
2000
3000
0001
1000
0001
0100
0010
0100
,
0001
0010
0100
0010
0001
1000
0100
0010
,
0001
0000
1000
0000
,
0110
0000
1001
0000
,
1100
0000
0000
0000
0001
0010
0100
1000
,
0001
0010
0100
1000
0010
0000
1000
0000
,
0202
0000
0303
0000
1000
0010
1000
0001
,
0100
0010
0100
0001
0010
0100
1000
0100
,
0010
0000
0001
1000
0100
1000
0001
0010
,
0100
0010
0001
0100
0010
1000
0100
0010
,
0002
0003
0100
0010
0100
0001
1000
0010
,
1000
0001
0010
0100
0010
0001
0010
0100
,
2000
3000
0100
1000
0001
0010
0001
1000
,
0001
0010
0001
1000
0100
0000
0010
0001
,
2000
3000
0010
0001
0100
0001
0010
0001
,
0100
0001
0010
0001
1000
0000
0010
1000
,
0001
0100
0001
0100
0010
1000
0010
1000
,
0001
1000
0100
0001
0100
1000
0010
0100
,
0001
0010
1000
0010
0001
0100
0010
0100
,
0001
1000
0010
0001
0010
1000
0001
1000
,
0020
0000
0030
1000
0020
0000
0030
1000
,
0010
0100
0001
0010
0200
0000
0300
1000
,
0002
0000
0003
1000
0002
0000
0003
1000
,
0001
0010
0100
1000
0020
0000
0030
0000
,
0200
0000
0300
0010
0200
0000
0300
0010
,
0100
0001
0010
0100
2000
0000
3000
0001
,
2000
0000
3000
0001
2000
0000
3000
0001
,
1000
0100
1000
0100
0010
0001
0100
0001
0100
0010
1000
0010
1000
0000
0000
0000
,
1001
0000
0011
0001
1001
0000
0100
1000
,
1010
0100
0110
0010
1010
0000
0000
1000
,
1100
0000
0101
0001
1001
0000
0010
1000
,
1010
0010
0110
1000
1001
0000
0000
0000
,
0001
0000
1000
0001
0100
0000
0000
0000
,
0001
0000
1000
0001
0100
0000
0000
0000
,
1001
0110
2002
3003
,
0001
0000
1000
0001
0100
0000
0000
0000
,
0010
0000
0100
0010
1000
0000
0000
0000
,
0010
0000
0100
0010
1000
0000
0000
0000
,
0110
1001
0220
0330
,
0010
0000
0100
0010
1000
0000
0000
0000
,
0100
1000
0001
1000
0100
0010
0001
0100
0001
0100
1000
0100
0010
1000
0100
0010
,
0001
0010
1000
0010
0001
0100
0001
1000
0010
1000
0100
0010
0001
0100
0010
0001
,
0010
1000
0001
1000
0100
0010
0001
1000
0001
0100
0010
1000
0001
1000
0100
0010
,
0001
0000
1000
0001
0100
0000
0000
0000
,
2002
0000
0000
0000
0000
0000
0000
0000
0000
0000
0000
0000
3003
0000
0000
0000
0000
0000
0000
0000
0000
0000
0000
0000
0000
0000
0000
0000
0000
0000
0000
0000
0000
0000
0000
0000
0001
0000
0000
0000
0100
0000
0000
0000
0010
0000
0000
0000
1000
0000
0000
0000
0000
0000
0010
0000
0000
0000
0000
0000
0100
0000
0000
0000
0000
0000
0001
0000
0000
0000
0000
0000
1000
0000
0000
0000
0000
0000
0010
0000
0000
0000
0000
0000
0100
0000
0000
0000
0000
0000
0001
0000
0000
0000
0000
0000
1000
0000
0000
0000
0000
0000
0000
0000
0000
0000
0000
0000
0000
0000
0000
0000
0000
0000
0000
0000
0000
0000
0000
0000
0000
0000
0000
0000
0000
0000
0000
0000
0000
0000
0000
0000
1000
0000
0000
0000
0100
0000
0000
0000
0010
0000
0000
0000
0001
0000
0000
0000
0000
0000
0010
0000
0000
0000
0000
0000
0100
0000
0000
0000
0000
0000
1000
0000
0000
0000
0000
0000
0001
0000
0000
0000
0000
0000
0010
0000
0000
0000
0000
0000
0100
0000
0000
0000
0000
0000
1000
0000
0000
0000
0000
0000
,
0001
0000
1000
0001
0100
0000
0010
0000
1000
0001
0100
0010
1000
0001
0100
0010
0000
0000
1100
0000
1010
0000
1001
0000
0010
0000
0101
0000
1100
0000
0000
0000
,
2002
0000
0000
0000
0000
0000
0000
0000
0000
0000
0000
0000
3003
0000
0000
0000
0000
0000
0000
0000
0000
0000
0000
0000
0000
0000
0000
0000
0000
0000
0000
0000
0000
0000
0000
0000
0100
0000
0000
0000
0001
0000
0000
0000
0100
0000
0000
0000
0010
0000
0000
0000
0000
0000
1000
0000
0000
0000
0000
0000
0001
0000
0000
0000
0000
0000
0100
0000
0000
0000
0000
0000
0010
0000
0000
0000
0000
0000
1000
0000
0000
0000
0000
0000
0001
0000
0000
0000
0000
0000
0100
0000
0000
0000
0000
0000
0010
0000
0000
0000
0000
0000
0000
0000
0000
0000
0000
0000
0000
0000
0000
0000
0000
0000
0000
0000
0000
0000
0000
0000
0000
0000
0000
0000
0000
0000
0000
0000
0000
0000
0000
0000
1000
0000
0000
0000
0010
0000
0000
0000
1000
0000
0000
0000
0001
0000
0000
0000
0000
0000
0100
0000
0000
0000
0000
0000
0010
0000
0000
0000
0000
0000
1000
0000
0000
0000
0000
0000
0001
0000
0000
0000
0000
0000
0100
0000
0000
0000
0000
0000
0010
0000
0000
0000
0000
0000
1000
0000
0000
0000
0000
0000
,
0001
0000
0100
0001
1000
0000
0100
0000
0010
0100
1000
0001
0010
0100
1000
0001
0010
0000
0000
0000
0100
0000
0000
0000
1001
0000
0000
0000
1010
0000
0000
0000
,
0202
0000
0000
0000
0000
0000
0000
0000
0000
0000
0000
0000
0303
0000
0000
0000
0000
0000
0000
0000
0000
0000
0000
0000
0000
0000
0000
0000
0000
0000
0000
0000
0000
0000
0000
0000
1000
0000
0000
0000
0100
0000
0000
0000
0010
0000
0000
0000
0001
0000
0000
0000
0000
0000
0100
0000
0000
0000
0000
0000
0010
0000
0000
0000
0000
0000
1000
0000
0000
0000
0000
0000
0001
0000
0000
0000
0000
0000
0100
0000
0000
0000
0000
0000
0010
0000
0000
0000
0000
0000
1000
0000
0000
0000
0000
0000
0001
0000
0000
0000
0000
0000
0000
0000
0000
0000
0000
0000
0000
0000
0000
0000
0000
0000
0000
0000
0000
0000
0000
0000
0000
0000
0000
0000
0000
0000
0000
0000
0000
0000
0000
0000
0001
0000
0000
0000
0100
0000
0000
0000
0010
0000
0000
0000
1000
0000
0000
0000
0000
0000
0100
0000
0000
0000
0000
0000
0010
0000
0000
0000
0000
0000
0001
0000
0000
0000
0000
0000
1000
0000
0000
0000
0000
0000
0100
0000
0000
0000
0000
0000
0010
0000
0000
0000
0000
0000
0001
0000
0000
0000
0000
0000
,
1000
0000
0001
0100
0010
0000
1000
0000
0010
0100
0001
1000
0100
0010
0001
1000
0020
0000
0030
0000
0101
0000
0000
0011
0000
0000
1100
0000
0000
1010
0000
0000
,
0110
0000
0000
0000
0000
0000
0000
0000
0000
0000
0000
0000
1000
0000
0000
0000
0000
0000
0010
0000
0001
0000
0010
0000
0100
0000
0000
1000
0000
0000
0100
0000
0000
0010
0000
0000
0100
0000
0000
1000
0000
0000
0100
0000
0000
0010
0000
0000
,
0100
0000
0000
0000
0000
0000
0000
0000
0000
0000
0000
0000
0010
0000
0000
0000
0000
0000
0010
0000
1000
0000
0010
0000
0100
0000
0000
0001
0000
0000
0100
0000
0000
0010
0000
0000
0100
0000
0000
0001
0000
0000
0100
0000
0000
0010
0000
0000
,
0100
0010
1000
0001
1000
0100
0010
0001
1000
0100
1000
0010
0100
0010
0100
0001
,
0010
0100
1000
0001
0010
1000
0010
0001
0100
0010
1000
0001
0100
1000
0100
0001
,
2000
0000
0000
0000
,
0000
0000
0000
0000
,
3000
0000
0000
0000
;

//---------------dance-single - ----------------
#NOTES:
     dance-single:
     :
     Hard:
     17:
     0.726624,1.561829,0.057800,0.429369,0.544968,616.000000,609.000000,7.000000,52.000000,0.000000,0.000000,0.726624,1.561829,0.057800,0.429369,0.544968,616.000000,609.000000,7.000000,52.000000,0.000000,0.000000:
0000
0000
0000
0000
,
0000
0000
0000
0000
,
0000
0000
0000
0000
,
0000
0000
0000
0000
,
0000
0000
0000
0000
,
0000
0000
0000
0000
,
0000
0000
0000
0000
,
0000
0000
0000
0000
,
0000
0000
0000
0000
,
2000
0000
0000
0000
3000
0000
0100
1000
0100
0000
0010
0000
0001
0000
0100
0000
,
0020
0000
1030
0001
0200
0000
0300
0000
,
0020
0000
0000
0000
0030
0000
1000
0001
1000
0000
0100
0000
0010
0000
0001
0000
,
1000
0010
0100
0001
2000
0000
3001
0000
,
0200
0000
0000
0000
0300
0000
0001
0010
0001
0000
0010
0000
0100
0000
1000
0000
,
0020
0000
0130
0001
2000
0000
3100
0010
,
0001
0010
0100
1000
0002
0000
0203
0000
,
0320
0000
0000
0030
,
1000
0000
0000
0000
0001
0000
0000
0001
1000
0000
0000
0000
0010
0000
0000
0010
,
1000
0000
0000
0000
0100
0000
0000
0100
0010
0000
0000
0000
0001
0000
0000
0001
,
0100
0000
0000
0000
0010
0000
0000
0010
1000
0000
0000
0000
1000
0000
0000
1000
,
0100
0000
1000
0000
0010
0000
0100
0001
0100
0010
1000
0001
0200
0000
0300
0000
,
0010
0100
0001
0100
0010
1000
0001
1000
,
0010
0100
0001
0100
0010
1000
0100
0010
,
0001
1000
0100
1000
0010
0100
0001
0100
,
0010
1000
0001
1000
0100
0010
0001
1000
,
0100
1000
0100
1000
0100
1000
0100
1000
0001
0010
0001
0010
0001
0010
0001
0010
,
0001
0100
0001
0100
0001
0100
0010
0100
0010
0100
0010
1000
0010
1000
0010
1000
,
0002
0000
0000
2003
0000
3002
2000
3003
,
0010
0000
0000
0000
0100
0000
0000
0000
1001
0000
0000
0000
0001
0010
0100
1000
,
0001
0000
0000
0000
0100
0001
0100
0001
,
1000
0000
0010
1000
0010
0000
1000
0001
,
1000
0000
0100
0010
0001
0000
0010
0001
,
0010
0000
0001
0100
0001
0000
1000
0010
,
1000
0000
0001
0100
0010
1000
0010
0100
,
0001
0000
1000
0001
1000
0000
0100
0010
,
0100
0000
0010
0001
1000
0000
0100
1000
,
0100
0000
1000
0001
0010
0000
0100
0000
,
1001
0000
0000
0000
0010
1000
0010
1000
,
0001
0000
0100
0010
0100
0000
0001
1000
,
0010
0000
1000
0100
1000
0000
0001
0010
,
0001
0000
0010
0100
1000
0000
0100
0010
,
0001
0000
0100
0001
1000
0010
1000
0001
,
0100
0000
0010
0100
0010
0100
0010
0100
,
0020
0000
0000
0030
2000
0000
0000
3000
,
0002
0000
0000
0003
2000
0000
0000
3000
,
0000
0000
0000
0000
1000
0100
1000
0100
,
0010
0001
0010
0001
1000
0000
0010
0000
,
0100
0000
0000
0000
0001
1000
0001
1000
,
0001
0000
1000
0010
1000
0000
0001
0100
,
0001
0000
0010
0100
1000
0000
0100
0010
,
0001
0000
1000
0010
1000
0001
0100
0001
,
1000
0000
0010
1000
0001
0000
0100
0001
,
1000
0000
0100
1000
0010
0000
1000
0001
,
0200
0300
0000
0000
0001
0100
0001
0100
,
0001
0100
0001
0100
0010
0000
1000
0000
,
0002
0003
0000
0000
1000
0100
1000
0100
,
1000
0100
1000
0100
0010
0000
0001
0000
,
1000
0010
1000
0001
,
1000
0100
0010
0001
0100
0010
1000
0100
,
0020
0000
0000
0000
,
0000
0000
0000
0030
,
2002
0000
0000
0000
,
3003
0000
0000
0000
,
2000
0000
3000
0001
2000
0000
3000
0001
,
1000
0100
0010
0001
0200
0000
0300
0000
,
0200
0000
0300
0010
0200
0000
0300
0010
,
1000
0001
0100
0010
2000
0000
3000
0001
,
0020
0000
0030
0001
0020
0000
0030
0001
,
1000
0100
1000
0010
0100
0001
2000
0000
,
3002
0100
1000
0003
,
2000
0010
0001
3000
,
0200
0010
1000
0300
,
0020
0001
1000
0030
,
0001
0000
0000
1000
0001
0000
0000
1000
,
0001
1000
0010
0100
0001
0000
0000
0001
,
1000
0000
0000
0001
1000
0000
0000
0001
,
1000
0000
0001
0000
0010
0000
0100
0000
1000
0100
1000
0100
0020
0000
0030
0000
,
0001
0100
0001
1000
0010
1000
0001
0100
,
0010
1000
1000
0100
0001
0100
1000
0010
,
1000
0001
1000
0001
0100
0001
0010
0100
,
0010
0001
0001
0010
1000
0010
0001
0100
,
0010
1000
0010
1000
0010
1000
0010
1000
0001
0100
0001
0100
0001
0100
0001
0100
,
0010
1000
0100
1000
0100
0010
0001
0010
0001
1000
0100
0010
0001
0010
0100
1000
,
0002
2003
3002
2003
,
3001
0000
0010
0010
0010
0000
0000
0000
,
0110
0000
0000
0000
0000
0000
0000
0000
1000
0100
0010
0001
1000
0100
0010
0001
1000
0000
0000
0000
0000
0000
0000
0000
0001
0100
0010
1000
0001
0100
0010
1000
,
0001
0000
0100
0000
0100
0000
0001
0000
1000
0100
0010
0001
1000
0100
0010
0001
0000
0000
1000
0000
1000
0000
1000
0000
0001
0000
1000
0000
0010
0000
0000
0000
,
2020
0000
3030
0000
0000
0000
0000
0000
0010
0100
0001
1000
0010
0100
0001
1000
0010
0000
0000
0000
0000
0000
0000
0000
1000
0010
0100
0001
1000
0010
0100
0001
,
1000
0000
0001
0000
0010
0000
0010
0000
0001
0010
0100
1000
0001
0010
0100
1000
0002
0000
0000
0000
2003
0000
0000
0000
3002
0000
0000
0000
1003
0000
0000
0000
,
0220
0000
0330
0000
0000
0000
0000
0000
0100
0001
1000
0010
0100
0001
1000
0010
0100
0000
0000
0000
0000
0000
0000
0000
0100
1000
0001
0010
0100
1000
0001
0010
,
0100
0000
1000
0000
1000
0000
0100
0000
0010
0001
1000
0100
0010
0001
1000
0100
0010
0000
0000
0000
0100
0000
0000
1000
0000
0000
0010
0000
0000
0100
0000
0000
,
0001
0000
1000
0000
0010
0000
1000
0000
0001
0100
0001
0100
0010
1000
0010
1000
,
0100
0000
1000
0000
0100
0000
0010
0000
0001
0010
0001
0010
0100
1000
0100
1000
,
0010
0000
1000
0000
0001
0000
1000
0000
0100
1000
0010
1000
0001
0100
0001
0010
,
0100
1000
0100
0010
0001
0100
0010
1000
0001
0100
0010
0100
0001
0000
0000
0000
,
2002
0000
0000
0000
,
0000
0000
0000
0000
,
3003
0000
0000
0000
;

//---------------dance-single - ----------------
#NOTES:
     dance-single:
     :
     Medium:
     14:
     0.620462,1.561829,0.148628,0.255970,0.293127,526.000000,508.000000,18.000000,31.000000,0.000000,0.000000,0.620462,1.561829,0.148628,0.255970,0.293127,526.000000,508.000000,18.000000,31.000000,0.000000,0.000000:
0000
0000
0000
0000
,
0000
0000
0000
0000
,
0000
0000
0000
0000
,
0000
0000
0000
0000
,
0000
0000
0000
0000
,
0000
0000
0000
0000
,
0000
0000
0000
0000
,
0000
0000
0000
0000
,
0000
0000
0000
0000
,
0002
0000
0003
1000
0100
0010
0100
1000
,
0020
0000
1030
0001
0200
0000
0300
0000
,
0020
0000
0030
1000
0010
1000
0100
0010
,
0001
0100
0010
1000
0001
0000
1000
0000
,
0200
0000
0300
0010
0001
0010
0100
1000
,
0002
0000
0103
0010
2000
0000
3010
0100
,
0001
0100
0010
1000
0002
0000
2003
0000
,
3020
0000
0000
0100
0000
0000
1030
0000
,
0001
0000
1000
0000
0100
1000
0001
0000
,
1000
0000
0001
0000
0100
0001
1000
0000
,
0010
0100
2002
3003
,
0010
0000
1000
0000
0100
1000
0001
0000
,
0010
0100
0010
0001
0010
0100
1000
0000
,
0010
1000
0001
1000
0100
0010
0001
0000
,
1000
0001
2100
3001
,
0010
0100
1000
0010
0100
0001
1000
0000
,
0010
1000
0010
1000
0001
1000
0001
0100
,
1000
0100
0001
0010
0100
0010
0001
0010
,
0100
1000
0010
0001
0010
1000
0001
0100
,
0010
1000
2002
3003
,
2000
3000
0001
0100
,
0001
0000
1000
0000
0010
0000
1000
0100
,
2000
3000
0001
0100
,
0001
0000
1000
0000
0010
0000
0100
0001
,
0100
0010
1000
0001
,
1000
0100
0010
0001
,
1000
0001
0100
0001
,
1000
0100
0010
0100
,
0020
0030
0001
0010
,
0001
0000
1000
0000
0001
0000
0010
0100
,
0020
0030
0001
1000
,
0100
0000
1000
0000
0010
0000
1000
0001
,
1000
0001
0100
0010
,
0100
0001
1000
0010
,
0100
0000
0010
0000
,
1001
0000
1100
0000
,
0011
0000
1000
0100
,
0010
0001
0010
0001
0010
0000
0100
0000
,
1100
0000
0010
1000
,
0010
0000
0100
0000
0010
0000
0100
0001
,
0100
0010
1000
0001
,
1000
0100
0010
0001
,
1000
0000
0001
0100
0001
0000
1000
0100
,
1000
0010
1000
0001
,
0200
0300
0001
0100
,
1000
0100
0001
1000
,
1001
0000
1000
0010
,
0001
0010
1000
0001
,
1000
0010
0100
0001
,
0010
0100
1000
0001
,
0100
0010
0100
0001
,
1000
0010
1000
0001
,
0200
0000
0000
0000
,
0000
0000
0300
0000
,
0001
0000
0000
1000
0001
0000
0000
1000
,
0001
0100
0010
1000
0001
0000
0000
0000
,
1000
0000
0000
0001
1000
0000
0000
0001
,
1000
0010
0100
0001
1000
0000
0000
0010
,
1000
0000
0000
0100
0010
0000
0000
0001
,
0010
1000
0010
0001
1000
0000
0000
0000
,
0001
0000
1000
0001
1000
0000
0010
1000
,
0010
0100
0001
0010
0011
0000
0010
0100
,
0010
0000
0100
1000
0100
0000
1000
0001
,
0100
0010
1000
0100
0110
0000
0010
0000
,
0001
0000
1000
0001
0100
0000
0001
1000
,
0010
1000
0100
0010
0011
0000
0010
0001
,
1000
0000
0001
0100
0010
0000
0100
0001
,
1000
0010
1000
0100
1100
0000
0000
0000
,
0010
0000
1000
0001
0100
0000
0001
1000
,
0010
0000
1000
0001
0100
0000
0001
1000
,
0010
0100
0001
0100
0002
0000
0003
0000
,
0010
0000
1000
0001
0100
0000
0010
0100
,
0001
0010
0001
0010
0100
1000
0001
1000
,
0100
1000
0010
1000
0001
0100
0010
0100
,
0001
0010
0100
0100
0010
0001
1000
1000
,
0010
0000
1000
0001
0100
0000
0000
0000
,
2002
0000
3003
0000
0000
0000
0000
0000
0001
1000
0001
1000
0001
1000
0001
1000
0001
0000
0000
0000
0000
0000
0000
0000
1000
0010
1000
0010
1000
0010
1000
0010
,
1000
0000
0001
0000
0001
0000
1000
0000
0001
0100
0001
0100
0001
0100
0001
0100
0000
0000
0001
0000
0001
0000
0001
0000
0000
0000
0001
0000
2000
0000
3000
0000
,
0220
0000
0330
0000
0000
0000
0000
0000
0001
0010
0001
0010
0001
0010
0001
0010
0001
0000
0000
0000
0000
0000
0000
0000
1000
0100
1000
0100
1000
0100
1000
0100
,
1000
0000
0010
0000
0100
0000
0001
0000
0100
0010
0100
0010
0100
0010
0100
0010
0100
0000
0000
0000
0001
0000
0000
0000
1100
0000
0000
0000
0101
0000
0000
0000
,
2020
0000
3030
0000
0000
0000
0000
0000
0001
0100
0001
0100
0010
1000
0010
1000
0010
0000
0000
0000
0000
0000
0000
0000
1000
0100
1000
0100
0010
0001
0010
0001
,
0010
0000
0001
0000
1000
0000
0100
0000
1000
0010
1000
0010
0100
0001
0100
0001
1000
0000
0000
0000
0010
0000
0000
0000
1000
0000
0001
0000
0100
0000
0010
0000
,
1000
0000
0000
0000
0001
0000
1000
0000
0001
0100
0001
0000
1000
0010
1000
0000
,
0001
0000
1000
0000
0100
0000
0000
0000
0010
0001
0010
0000
0100
1000
0100
0000
,
1000
0000
0010
0000
1000
0000
0001
0000
0100
0010
0100
0000
0001
1000
0001
0000
,
0010
0100
1000
0100
0010
0001
1000
0000
,
2002
0000
0000
0000
,
0000
0000
0000
0000
,
3003
0000
0000
0000
;

//---------------dance-single - ----------------
#NOTES:
     dance-single:
     :
     Easy:
     11:
     0.391622,0.760891,0.156885,0.099085,0.074314,332.000000,313.000000,19.000000,12.000000,0.000000,0.000000,0.391622,0.760891,0.156885,0.099085,0.074314,332.000000,313.000000,19.000000,12.000000,0.000000,0.000000:
0000
0000
0000
0000
,
0000
0000
0000
0000
,
0000
0000
0000
0000
,
0000
0000
0000
0000
,
0000
0000
0000
0000
,
0000
0000
0000
0000
,
0000
0000
0000
0000
,
0000
0000
0000
0000
,
0000
0000
0000
0000
,
0010
0000
0000
0010
1000
0000
0001
1000
,
0100
0000
0010
0001
1000
0000
0000
0000
,
0001
0000
0000
0001
0010
0000
0100
1000
,
0010
0000
0100
0001
1000
0000
0001
0000
,
0100
0000
0000
0100
0010
0000
1000
0001
,
0100
0000
0001
0010
0100
0000
1000
0000
,
0010
0100
0010
1000
0010
0000
1000
0000
,
0002
0000
0000
0003
,
1000
0001
1001
0000
,
0010
1000
1010
0000
,
1000
0100
0200
0300
,
0010
0001
0101
0000
,
0010
1000
0001
0110
,
1000
0001
1000
0110
,
0010
0001
0002
1003
,
1000
0010
0100
1001
,
1000
0001
1000
0001
1000
0000
0010
0000
,
1000
0001
1000
0001
1000
0000
0100
0000
,
0010
0001
0010
0000
0100
1000
0100
0000
,
0110
0110
1001
0000
,
0010
0000
1000
0100
,
1000
0100
1000
0000
,
0001
0000
0010
0001
,
0010
0001
0010
0000
,
0001
0000
0100
0000
,
0010
0000
1000
0000
,
0001
0000
1000
0001
,
1000
0000
1001
0000
,
0010
0000
0100
0010
,
0100
0010
0100
0000
,
0001
0000
0010
0001
,
0010
0001
0010
0000
,
0100
0000
1000
0000
,
0001
0000
0100
0000
,
0002
0000
0000
0000
,
2003
0000
0000
0000
,
3010
0000
0000
0000
,
0000
0000
1001
0000
,
0001
0000
0100
0000
,
0010
0000
0100
0000
,
0001
0000
1000
0000
,
0100
0000
0010
0000
,
0001
0000
1000
0000
,
0010
0000
1000
0000
,
0100
0000
0010
0100
,
0010
0000
0010
0000
,
0011
0000
0001
0100
,
0001
0000
0001
0000
,
1010
0000
1000
0000
,
1001
0000
0100
0000
,
0001
0010
0100
0000
,
1000
0100
0010
0000
,
2002
0000
0000
0000
,
0000
0000
0000
0000
,
3003
0000
0000
0000
,
0000
0000
0000
0000
,
0001
0000
0000
1000
0001
0000
0000
1000
,
0010
0110
0101
0000
,
0001
0000
0000
1000
0001
0000
0000
1000
,
0001
0110
1100
0000
,
1000
0000
0000
0010
1000
0000
0000
0010
,
1000
0000
0010
0100
0010
0000
0100
0000
,
0001
0000
0000
0100
0001
0000
0000
0100
,
0001
0000
0010
0100
0010
0000
0001
0000
,
1000
0000
0001
1000
0001
0000
0000
0000
,
1000
0000
0001
1000
0001
0000
0000
0000
,
1000
1000
0020
0030
,
1000
0000
0001
1000
0001
0000
0000
0000
,
0001
0000
0100
0010
0100
0000
0000
0000
,
0001
0000
0100
0010
0100
0000
0000
0000
,
0001
0100
0200
0300
,
0001
0000
0100
0010
0100
0000
0000
0000
,
0010
1000
0001
1000
,
0100
0010
0001
1000
,
0010
1000
0010
0000
0100
0010
0100
0000
,
0001
0100
0001
0000
2000
0000
0000
3000
,
0001
0000
0000
0000
1000
0100
1000
0100
1000
0000
0000
0000
0001
0010
0001
0010
,
0001
0000
0100
0000
0010
0100
0010
0100
0000
0000
0001
0000
0000
0000
1000
0000
,
0100
0000
0000
0000
0010
0001
0010
0001
0010
0000
0000
0000
0001
1000
0001
1000
,
0001
0000
0000
0000
1000
0100
1000
0100
2000
0000
0000
0000
0000
0000
3000
0000
,
0010
0000
0000
0000
0100
0001
0100
0010
0100
0000
0000
0000
0001
1000
0001
0010
,
0001
0000
0000
0000
1000
0010
1000
0100
1000
0000
0000
0000
0000
0000
0000
0000
,
0100
0000
0010
0000
0001
0100
0001
0100
,
0001
0000
1000
0000
0010
1000
0010
1000
,
0010
1000
0001
1000
,
0100
0010
0100
0000
0010
0001
0010
0001
,
2000
0000
0000
0000
,
0000
0000
0000
0000
,
3000
0000
0000
0000
;

//---------------dance-single - ----------------
#NOTES:
     dance-single:
     :
     Beginner:
     7:
     0.278382,0.600704,0.033028,0.074314,0.000000,236.000000,232.000000,4.000000,9.000000,0.000000,0.000000,0.278382,0.600704,0.033028,0.074314,0.000000,236.000000,232.000000,4.000000,9.000000,0.000000,0.000000:
// measure 0
0000
0000
0000
0000
,  // measure 1
0000
0000
0000
0000
,  // measure 2
0000
0000
0000
0000
,  // measure 3
0000
0000
0000
0000
,  // measure 4
0000
0000
0000
0000
,  // measure 5
0000
0000
0000
0000
,  // measure 6
0000
0000
0000
0000
,  // measure 7
0000
0000
0000
0000
,  // measure 8
0000
0000
0000
0000
,  // measure 9
1000
0000
0001
0100
,  // measure 10
0010
1000
0100
0000
,  // measure 11
1000
0000
0001
0010
,  // measure 12
0100
0010
0001
0000
,  // measure 13
0010
0000
0001
0100
,  // measure 14
0010
0100
0001
1000
,  // measure 15
0100
1000
0010
1000
,  // measure 16
0002
0000
0003
0000
,  // measure 17
1000
1000
1000
0000
,  // measure 18
0001
0001
0001
0000
,  // measure 19
0010
0010
0110
0000
,  // measure 20
0100
0100
0100
0000
,  // measure 21
0001
0001
0001
0000
,  // measure 22
1000
1000
1000
0000
,  // measure 23
0001
0001
1001
0000
,  // measure 24
0100
0100
0100
0000
,  // measure 25
0010
1000
0010
0000
,  // measure 26
0100
0001
0100
0000
,  // measure 27
0001
0010
0100
1000
,  // measure 28
0001
0001
0001
0000
,  // measure 29
1000
0000
0010
0000
,  // measure 30
1000
0000
0001
0000
,  // measure 31
0010
0000
0100
0000
,  // measure 32
0010
0000
0001
0000
,  // measure 33
0001
0000
1000
0000
,  // measure 34
0010
0000
1000
0000
,  // measure 35
0001
0000
1000
0000
,  // measure 36
0100
0000
1000
0000
,  // measure 37
1000
0000
0010
0000
,  // measure 38
1000
0000
0001
0000
,  // measure 39
0001
0000
0010
0000
,  // measure 40
0001
0000
1000
0000
,  // measure 41
1000
0000
0100
0000
,  // measure 42
0010
0000
0001
0000
,  // measure 43
2000
0000
0000
0000
,  // measure 44
3002
0000
0000
0000
,  // measure 45
1003
0000
0000
0000
,  // measure 46
0010
0000
0100
0000
,  // measure 47
0010
0000
0010
0000
,  // measure 48
0100
0000
0001
0000
,  // measure 49
0100
0000
0100
0000
,  // measure 50
0010
0000
1000
0000
,  // measure 51
0010
0000
0010
0000
,  // measure 52
1000
0000
0001
0000
,  // measure 53
1000
0000
1000
0000
,  // measure 54
1000
0000
1000
0000
,  // measure 55
0001
0000
0001
0000
,  // measure 56
0001
0000
0001
0000
,  // measure 57
0010
0000
0100
0000
,  // measure 58
0010
0000
0100
0000
,  // measure 59
0020
0000
0000
0000
,  // measure 60
0000
0000
0000
0000
,  // measure 61
0130
0000
0000
0000
,  // measure 62
0000
0000
0000
0000
,  // measure 63
1000
0000
0010
0000
,  // measure 64
1000
0100
0010
0000
,  // measure 65
0001
0000
0100
0000
,  // measure 66
0001
0100
0010
0000
,  // measure 67
1000
0000
0001
0000
,  // measure 68
1000
1000
1000
0000
,  // measure 69
0010
0000
0100
0000
,  // measure 70
0010
0010
0010
0000
,  // measure 71
0100
0100
0001
0000
,  // measure 72
0001
0001
1000
0000
,  // measure 73
0010
1000
0010
0000
,  // measure 74
1000
1000
0001
0000
,  // measure 75
0010
0010
0100
0000
,  // measure 76
0100
0100
0010
0000
,  // measure 77
0100
1000
0001
0000
,  // measure 78
0010
0010
0001
0000
,  // measure 79
1000
0001
1000
0000
,  // measure 80
0100
0100
0010
0000
,  // measure 81
0001
0010
0001
0010
,  // measure 82
0100
1000
0100
1000
,  // measure 83
0001
0000
1000
0000
,  // measure 84
2002
0000
0000
3003
,  // measure 85
0000
0000
0001
0100
0010
0000
1000
0100
,  // measure 86
0010
0100
0010
0001
0000
1000
0000
1000
,  // measure 87
0010
0000
1000
0001
0100
0000
0001
1000
,  // measure 88
0100
0000
0010
0100
0020
0000
0030
0000
,  // measure 89
1001
0000
1000
1000
1000
0000
0001
0001
,  // measure 90
0001
0000
0100
0100
0010
0100
0010
1000
,  // measure 91
0001
1000
0001
0001
,  // measure 92
1000
0001
0100
0010
,  // measure 93
1000
0100
0010
0001
,  // measure 94
2000
0001
0001
0001
,  // measure 95
3002
0000
0000
0000
,  // measure 96
0000
0000
0000
0000
,  // measure 97
0003
0000
0000
0000
;
