#TITLE:Cut Me Out;
#SUBTITLE:(Fransis Derelle Remix);
#ARTIST:Flux Pavilion feat. Turin Breaks;
#TITLETRANSLIT:;
#SUBTITLETRANSLIT:;
#ARTISTTRANSLIT:;
#GENRE:;
#CREDIT:;
#BANNER:Cut Me Out (Fransis Derelle Remix).png;
#BACKGROUND:Cut Me Out (Fransis Derelle Remix)-bg.png;
#LYRICSPATH:;
#CDTITLE:;
#MUSIC:Cut Me Out (Fransis Derelle Remix).ogg;
#OFFSET:-0.180380;
#SAMPLESTART:69.691628;
#SAMPLELENGTH:13.241379;
#SELECTABLE:YES;
#BPMS:0.000000=145.000000
;
#STOPS:
;
#BGCHANGES:;
#KEYSOUNDS:;
#ATTACKS:;

//---------------dance-single - ----------------
#NOTES:
     dance-single:
     :
     Hard:
     11:
     0.462601,0.519483,0.205445,0.146747,0.092940,331.000000,310.000000,21.000000,15.000000,0.000000,0.000000,0.462601,0.519483,0.205445,0.146747,0.092940,331.000000,310.000000,21.000000,15.000000,0.000000,0.000000:
// measure 0
0000
0000
0000
0000
,  // measure 1
0000
0000
0000
0000
,  // measure 2
0000
0000
0000
0000
,  // measure 3
0000
0000
0000
0000
,  // measure 4
0000
0000
0000
0000
,  // measure 5
0000
0000
0000
0000
,  // measure 6
0000
0000
0000
0000
,  // measure 7
0000
0000
0000
0000
,  // measure 8
0000
0000
0000
0000
,  // measure 9
0000
0000
0000
0000
,  // measure 10
0000
0000
0000
0000
0100
0010
1000
0100
,  // measure 11
0010
0100
1000
0001
0100
0010
0100
0000
,  // measure 12
0010
0000
0020
0000
0000
0000
1030
0000
2000
0000
0000
0000
,  // measure 13
3000
0010
1000
0001
0010
0100
1000
0100
,  // measure 14
0010
0001
0010
0000
0001
1000
0010
0100
,  // measure 15
0010
1000
0001
0010
0100
0010
0001
0000
,  // measure 16
0100
0000
0200
0000
0000
0000
0310
0000
0020
0000
0000
0000
,  // measure 17
1030
0000
2000
0000
0000
0000
3001
0000
0100
0000
0010
0000
,  // measure 18
1000
0000
0100
0000
0010
0001
0010
0001
,  // measure 19
0100
0010
0100
0000
0010
1000
0010
1000
,  // measure 20
0100
0010
0100
0000
0010
0001
1000
0010
,  // measure 21
0100
0001
0001
0001
0010
0100
0100
0000
,  // measure 22
1100
0000
0010
0000
1000
0010
1000
0010
,  // measure 23
0100
0001
1000
0000
0001
0010
0001
0010
,  // measure 24
0100
1000
0001
0000
0110
0000
0010
1000
,  // measure 25
0100
0010
0001
0100
0010
1000
0100
0000
,  // measure 26
0010
0000
0010
0001
0000
0000
0100
0000
0010
0000
0010
1000
0000
0000
0001
0000
,  // measure 27
0100
0000
0100
0010
0000
0000
1000
0000
0100
0000
0100
0010
0000
0000
0001
0000
,  // measure 28
0100
0000
1100
0000
1001
0000
0010
1000
,  // measure 29
0001
0100
0100
0100
0010
0100
0100
0000
,  // measure 30
0100
0000
0001
1000
0000
0000
1000
0000
0100
0000
1000
0010
0000
0000
0010
0000
,  // measure 31
0100
0000
0001
0010
0000
0000
0010
0000
0100
0000
1000
0001
0000
0000
0001
0000
,  // measure 32
1000
0011
0110
1001
,  // measure 33
0100
0000
0000
0001
0000
0000
0100
0000
0000
0001
0000
0000
1000
0000
0000
0000
0010
0000
0000
0000
0100
0000
0000
0000
,  // measure 34
0002
0000
0000
0000
1003
0010
0100
0001
,  // measure 35
0100
0010
1000
0100
0010
0001
1000
0000
,  // measure 36
1000
0000
0001
0010
0100
0000
1000
0000
,  // measure 37
0001
0010
0100
0000
1000
0010
0100
0001
,  // measure 38
0010
0000
0011
0000
0101
0100
0010
0000
,  // measure 39
1000
0000
1100
0000
1010
0010
0100
0000
,  // measure 40
0100
0010
0100
0001
1000
0100
0010
0001
,  // measure 41
2000
0000
0000
3000
0001
0001
1000
1000
,  // measure 42
0120
0000
1030
0000
1001
0000
1000
0100
,  // measure 43
0010
0001
0010
0100
1000
0010
0100
0001
,  // measure 44
0010
0100
0010
0001
1000
0000
0110
0100
,  // measure 45
0001
0100
0001
1000
0010
1000
1000
0001
,  // measure 46
0002
0000
1003
0000
0110
0000
0100
0001
,  // measure 47
1000
0100
0010
0001
1000
0010
0100
0010
,  // measure 48
1000
0100
0010
0001
1000
0000
0101
0100
,  // measure 49
0001
0000
0000
0100
0000
0000
0010
0000
0000
1000
0000
0000
0100
0000
0000
0000
1000
0000
0000
0000
0010
0000
0000
0000
,  // measure 50
0210
0000
0301
0000
0101
0100
0010
1000
,  // measure 51
0010
0100
0001
1000
0100
0010
0001
0000
,  // measure 52
1001
0001
1000
0010
0100
0000
0110
0100
,  // measure 53
0001
0100
1000
0100
0001
0010
0010
0100
,  // measure 54
0200
0000
1300
0000
0010
1000
0001
0010
,  // measure 55
0100
1000
0010
0100
0001
0100
0010
0000
,  // measure 56
1000
0001
1000
0100
0010
0001
0100
0000
,  // measure 57
0020
0000
2030
0000
3100
0010
0001
0100
,  // measure 58
2020
0000
0000
0000
,  // measure 59
3030
0000
0000
0000
;

//---------------dance-single - ----------------
#NOTES:
     dance-single:
     :
     Medium:
     7:
     0.268337,0.317462,0.097831,0.156530,0.000000,192.000000,182.000000,10.000000,16.000000,0.000000,0.000000,0.268337,0.317462,0.097831,0.156530,0.000000,192.000000,182.000000,10.000000,16.000000,0.000000,0.000000:
0000
0000
0000
0000
,
0000
0000
0000
0000
,
0000
0000
0000
0000
,
0000
0000
0000
0000
,
0000
0000
0000
0000
,
0000
0000
0000
0000
,
0000
0000
0000
0000
,
0000
0000
0000
0000
,
0000
0000
0000
0000
,
0000
0000
0000
0000
,
2000
0000
0000
0000
0010
0000
0001
3000
,
0001
0000
0100
0000
0010
0100
0010
0000
,
0010
0000
0110
0000
,
1000
0010
1000
0100
,
0020
0000
0001
0100
,
0130
0000
1000
0000
0001
0010
0001
0000
,
1000
0000
1001
0000
,
0100
0000
0010
0000
,
1000
0001
1000
0100
,
0010
0001
1000
0010
,
0100
0010
1000
0001
,
1000
0001
1000
0000
0001
0100
0001
0000
,
0100
0010
1000
0100
,
0010
0001
1000
0010
,
0100
0010
1000
0100
,
0010
0001
0010
0000
0001
0100
0001
0000
,
0100
0010
0010
1000
,
0000
1000
2001
3001
,
0100
0010
1000
0100
,
0000
0100
0021
0031
,
0100
0001
1000
0020
,
0000
1030
1010
0100
,
0001
0100
0010
2000
,
0000
3001
0100
0001
,
0010
0000
0001
0100
,
0010
0000
1000
0000
0100
0010
0100
0000
,
0010
0000
0001
1000
,
0001
0000
0100
0010
,
1000
1000
0100
0100
,
0010
0010
0001
0001
,
0100
0010
1000
0001
,
1000
0000
0000
0000
,
2002
3003
0001
0100
,
0001
0000
0010
0000
0100
0010
0100
0000
,
1000
0100
0010
0001
,
1000
0001
0100
0010
,
2020
3030
1000
0001
,
0100
0000
0010
0000
1000
0010
1000
0000
,
0001
0100
0001
0100
,
0010
1000
0100
0010
,
0022
0033
1000
0010
,
0100
0000
0001
0000
0100
0001
0100
0000
,
0010
1000
0100
0010
,
0100
1000
0010
1000
,
2002
3003
0001
1000
,
0100
0000
0010
0000
0001
0010
0001
0000
,
0100
0010
0100
1000
,
0001
0100
0010
1000
,
2002
0000
0000
0000
,
3003
0000
0000
0000
;

//---------------dance-single - ----------------
#NOTES:
     dance-single:
     :
     Easy:
     4:
     0.177494,0.255339,0.078265,0.088048,0.000000,127.000000,119.000000,8.000000,9.000000,0.000000,0.000000,0.177494,0.255339,0.078265,0.088048,0.000000,127.000000,119.000000,8.000000,9.000000,0.000000,0.000000:
0000
0000
0000
0000
,
0000
0000
0000
0000
,
0000
0000
0000
0000
,
0000
0000
0000
0000
,
0000
0000
0000
0000
,
0000
0000
0000
0000
,
0000
0000
0000
0000
,
0000
0000
0000
0000
,
0000
0000
0000
0000
,
0000
0000
0000
0000
,
1000
0000
0010
0000
,
1000
0000
0100
0010
,
0100
0000
0110
0000
,
0010
0000
0001
0000
,
1000
0000
0010
1000
,
0001
0000
1000
0000
,
0100
0000
0110
0000
,
0010
0000
0001
0001
,
1001
0000
1000
0000
,
0001
0000
0100
0010
,
0100
0000
0010
0000
,
1000
0000
0001
0100
,
0001
0000
0010
0000
,
0001
0000
1000
0100
,
1000
0000
0010
0000
,
1000
0000
0001
1000
,
2000
0000
3010
0000
,
0020
0000
1030
0000
,
2000
0000
3001
0000
,
0001
1000
0001
1000
,
0020
0000
0130
0000
,
0200
0000
0310
0000
,
0020
0000
0130
0000
,
0001
0010
0100
0010
,
1001
0000
1000
0000
,
0001
0000
0100
0000
,
0010
0000
1000
0000
,
0100
0000
0010
0000
,
0001
0000
1000
0001
,
1000
0000
0010
0100
,
0010
0010
0010
0010
,
1010
0000
0000
0000
,
2002
3003
0001
0000
,
1000
0100
0010
0000
,
0001
0100
0001
0000
,
1000
0010
1000
0000
,
0200
0300
0010
0000
,
0001
0100
0001
0000
,
1000
0000
0100
0000
,
0001
0000
0010
0001
,
0100
0000
1001
0000
,
1000
0000
0010
0000
,
1000
0100
0010
0000
,
0010
0100
0010
0000
,
0001
0000
1000
0000
,
0001
1000
0001
0000
,
0100
0000
0010
0000
,
1000
0000
0001
0000
,
1001
0000
0000
0000
;

//---------------dance-single - ----------------
#NOTES:
     dance-single:
     :
     Beginner:
     1:
     0.079662,0.113484,0.039132,0.000000,0.000000,57.000000,53.000000,4.000000,0.000000,0.000000,0.000000,0.079662,0.113484,0.039132,0.000000,0.000000,57.000000,53.000000,4.000000,0.000000,0.000000,0.000000:
0000
0000
0000
0000
,
0000
0000
0000
0000
,
0000
0000
0000
0000
,
0000
0000
0000
0000
,
0000
0000
0000
0000
,
0000
0000
0000
0000
,
0000
0000
0000
0000
,
0000
0000
0000
0000
,
0000
0000
0000
0000
,
0000
0000
0000
0000
,
0010
0000
0010
0000
,
0000
0000
0000
0000
,
1000
0000
1000
0000
,
0000
0000
0000
0000
,
0001
0000
0001
0000
,
0000
0000
0000
0000
,
0100
0000
0100
0000
,
0100
0000
0000
0000
,
0010
0000
0000
0000
,
0100
0000
0000
0000
,
0001
0000
0000
0000
,
1000
0000
1000
0000
,
1000
0000
0000
0000
,
0010
0000
0000
0000
,
1000
0000
0000
0000
,
0100
0000
0100
0000
,
0100
0000
0000
0000
,
0010
0000
0000
0000
,
0001
0000
0000
0000
,
1000
0000
0000
0000
,
0001
0000
0000
0000
,
0100
0000
0000
0000
,
0010
0000
0000
0000
,
1000
0000
0000
0000
,
1001
0000
0000
0000
,
0000
0000
0000
0000
,
1000
0000
1000
0000
,
1000
0000
0000
0000
,
0001
0000
0000
0000
,
0010
0000
0000
0000
,
0001
0000
0000
0000
,
0100
0000
0000
0000
,
0000
0000
1001
0000
,
0000
0000
1000
0000
,
0000
0000
0010
0000
,
0000
0000
0100
0000
,
0100
0000
0100
0000
,
0000
0000
0010
0000
,
0000
0000
0010
0000
,
0000
0000
1000
0000
,
0000
0000
1001
0000
,
0000
0000
0001
0000
,
0000
0000
0010
0000
,
0000
0000
0001
0000
,
0000
0000
0010
0000
,
0000
0000
1000
0000
,
0000
0000
0001
0000
,
0001
0000
0000
0000
,
1001
0000
0000
0000
;
