#TITLE:Crab Rave;
#SUBTITLE:;
#ARTIST:Noisestorm;
#TITLETRANSLIT:;
#SUBTITLETRANSLIT:;
#ARTISTTRANSLIT:;
#GENRE:;
#CREDIT:;
#BANNER:crab rave.png;
#BACKGROUND:crab rave-bg.png;
#LYRICSPATH:;
#CDTITLE:;
#MUSIC:Crab Rave.ogg;
#OFFSET:1.959760;
#SAMPLESTART:46.056252;
#SAMPLELENGTH:15.360001;
#LASTBEATHINT:1.934298;
#SELECTABLE:YES;
#BPMS:0.000000=124.999992
;
#STOPS:
;
#BGCHANGES:4.000=Crab Rave.avi=1.000=0=0=1=====,
99999=-nosongbg-=1.000=0=0=0 // don't automatically add -songbackground-
;
#KEYSOUNDS:;
#ATTACKS:;

//---------------dance-single - ----------------
#NOTES:
     dance-single:
     :
     Hard:
     13:
     0.510450,0.718737,0.092409,0.297763,0.544187,348.000000,339.000000,9.000000,29.000000,0.000000,0.000000,0.510450,0.718737,0.092409,0.297763,0.544187,348.000000,339.000000,9.000000,29.000000,0.000000,0.000000:
0000
0000
0000
0000
,
0000
0000
0000
0000
,
0000
0000
0000
0000
,
0000
0000
0000
0000
,
0000
0000
0000
0000
,
0000
0000
0010
0001
0000
0000
1000
0001
0000
0000
0100
0010
0000
0000
1000
0000
,
0000
0000
0010
1000
0000
0000
0001
0100
0000
0000
0001
0010
0001
0000
0100
0000
,
0000
0000
0100
1000
0000
0000
1000
0001
0000
0000
0001
0010
0000
0000
0100
0000
,
0000
0000
0010
0100
0000
0000
0100
0010
0000
0000
0010
0001
0000
0000
1000
0000
,
0002
0000
0103
0000
0200
0010
0301
0000
,
0020
0000
0130
0000
2000
0001
3100
0000
,
0020
0000
1030
0000
0200
0010
0301
0000
,
0020
0000
0031
0000
0002
0100
1003
0000
,
0100
1000
0100
0010
0100
1000
0001
0000
,
0100
0001
0100
0010
0100
0001
1000
0000
,
0010
1000
0100
0001
0100
1000
0010
0000
,
0100
0001
0010
1000
0010
0001
1000
0000
,
0011
0000
0000
0000
1001
0000
0000
0001
1000
0100
0000
0000
0010
0000
0000
0000
,
1100
0000
0000
0000
1001
0000
0000
1000
0000
0000
0010
0000
0100
0000
0001
0000
,
0101
0000
0000
0000
1001
0000
0000
1000
0010
0100
0000
0000
0001
0000
0000
0000
,
1010
0000
0000
0000
1001
0000
0000
0100
0000
0000
0001
0000
0010
0000
0100
0000
,
1000
0000
0000
0100
1000
0000
0000
0001
0010
0001
0000
0000
0101
0000
0000
0000
,
0010
0000
0000
0100
0010
0000
0000
1000
0000
0000
0100
0000
1000
0000
0001
0000
,
0010
0001
0010
0001
0100
0010
0100
0010
1000
0100
1000
0100
0010
0001
0010
0100
,
1000
0000
0100
1000
0001
0000
0100
0010
1000
0000
0010
1000
0001
0000
0000
0000
,
0100
0000
0001
0000
0010
0000
0100
1000
0000
1000
0010
0000
0100
0000
0001
0010
,
0000
0010
0100
0000
1000
0000
0100
0010
0000
0001
0000
0100
0000
0100
0010
1000
,
0001
0000
0010
0000
0100
0000
1000
0010
0000
0010
0100
0000
0001
0000
0010
0100
,
0000
0100
1000
0000
0010
0000
1000
0001
0000
0100
0000
0010
0000
0010
1000
0100
,
0010
0000
0001
0000
1000
0000
0010
0100
0000
0100
0010
0000
1000
0000
0100
0010
,
0000
0010
0100
0000
1000
0000
0001
0010
0000
0100
0000
0010
0000
0010
0001
1000
,
0100
0000
1000
0000
0010
0000
1000
0001
0000
0001
1000
0000
0100
0000
0001
1000
,
0000
1000
0001
0000
0100
0000
1000
0010
0000
1000
0000
0001
0000
0100
0010
0100
,
0001
0000
0010
0000
0100
0000
1000
0001
0000
0001
1000
0000
0100
0000
0010
0001
,
0000
0001
1000
0000
0010
0000
0100
0001
0000
1000
0000
0010
0000
0010
0100
0001
,
1000
0000
0010
0000
0100
0000
0001
1000
0000
1000
0001
0000
0010
0000
0100
1000
,
0000
1000
0001
0000
0100
0000
0010
1000
0000
0001
0000
0010
0000
0001
1000
0100
,
0010
0000
0001
0000
0100
0000
0001
0010
0000
0010
0100
0000
1000
0000
0010
0100
,
0000
0100
0001
0000
1000
0000
0010
1000
0000
0001
0000
0100
0000
0100
0010
1000
,
0100
0000
0001
0000
0100
0000
1000
0001
0000
0001
0010
0000
1000
0000
0010
0001
,
0000
0001
0100
0000
1000
0000
0100
0010
0000
1000
0100
0001
0100
1000
0010
0100
,
0002
0023
0230
2300
,
3020
0000
0000
1030
0100
0001
0010
0000
,
0200
2300
3002
0023
,
0230
0000
0000
0310
0001
0100
0010
0000
,
2000
3002
0203
0320
,
2030
0000
0000
3010
0001
0100
1000
0000
,
0200
0320
0032
0203
,
0320
0000
0000
1030
0100
0010
0002
0000
,
0000
0000
0000
0000
,
0003
0000
0000
0000
;

//---------------dance-single - ----------------
#NOTES:
     dance-single:
     :
     Medium:
     10:
     0.374037,0.575632,0.102677,0.000000,0.030803,255.000000,245.000000,10.000000,0.000000,0.000000,0.000000,0.374037,0.575632,0.102677,0.000000,0.030803,255.000000,245.000000,10.000000,0.000000,0.000000,0.000000:
0000
0000
0000
0000
,
0000
0000
0000
0000
,
0000
0000
0000
0000
,
0000
0000
0000
0000
,
0000
0000
0000
0000
,
0010
0000
1000
0000
0001
1000
0001
0000
,
0010
0000
0001
0000
1000
0001
1000
0000
,
0010
0000
0100
0000
0001
0010
0001
0000
,
0010
0000
0100
0000
1000
0010
1000
0000
,
0010
0000
0010
0000
1000
1000
1000
0000
,
0100
0000
0100
0000
0010
0010
0010
0000
,
0001
0000
0001
0000
1000
1000
1000
0000
,
0010
0000
0010
0000
0100
0100
0100
0000
,
0010
0000
0010
0000
1000
1000
1000
0000
,
0001
0000
0001
0000
0010
0010
0010
0000
,
0001
0000
0001
0000
1000
1000
1000
0000
,
0100
0000
0100
0000
0010
0010
0010
0000
,
0001
0000
0000
0000
0001
0000
0000
1000
0000
1000
0000
0000
1000
0000
0000
0000
,
0010
0000
0000
0000
0010
0000
0000
0100
0000
0000
0100
0000
0001
0000
1000
0000
,
0001
0000
0000
0000
1000
0000
0000
0100
0000
0100
0000
0000
0100
0000
0000
0000
,
0010
0000
0000
0000
0001
0000
0000
1000
0000
0000
1000
0000
0001
0000
0100
0000
,
0010
0000
1001
0000
0100
0010
0001
0000
,
0010
0000
1100
0000
0010
1000
0001
0000
,
0100
0001
0100
0010
0100
0001
1000
0010
,
1000
0001
0001
1000
1000
0001
0001
0000
,
1000
0100
0001
0000
0001
0100
1000
0000
,
0001
1000
0010
0000
0100
0001
0100
0010
,
1000
0001
0100
0000
1000
0001
0010
0000
,
0101
1100
0101
1100
0101
1100
0101
1100
,
0001
0100
0001
0000
0001
0010
0001
0000
,
0100
0010
0100
0000
0001
1000
0100
0010
,
0001
0010
0100
0000
0001
1000
0010
0000
,
0010
0100
0001
0000
1000
0100
0001
0100
,
1000
0100
1000
0100
1000
0100
1000
0000
,
0001
0010
0001
0010
0001
0100
0001
0000
,
0100
0010
0100
0010
0100
0010
0100
0000
,
0001
0100
0001
0100
0010
0100
0010
0000
,
1000
0010
1000
0010
1000
0010
1000
0000
,
0001
0010
0001
0010
0001
0010
0100
0000
,
1000
0100
1000
0100
0010
0001
0010
0000
,
0001
0100
0001
0100
0010
0010
1000
1000
,
0001
1000
0010
0100
,
0001
0000
1000
0010
,
1000
0100
0010
0001
,
0100
0000
0001
1000
,
0010
1000
0100
0010
,
0001
0000
0010
0001
,
0100
0010
1000
0001
,
0100
0000
0010
1000
;

//---------------dance-single - ----------------
#NOTES:
     dance-single:
     :
     Easy:
     6:
     0.233223,0.325357,0.071874,0.328566,0.000000,159.000000,152.000000,7.000000,32.000000,0.000000,0.000000,0.233223,0.325357,0.071874,0.328566,0.000000,159.000000,152.000000,7.000000,32.000000,0.000000,0.000000:
0000
0000
0000
0000
,
0000
0000
0000
0000
,
0000
0000
0000
0000
,
0000
0000
0000
0000
,
0000
0000
0000
0000
,
0010
1000
0010
0000
,
1000
0001
1000
0000
,
0001
0100
0001
0000
,
0010
0100
0010
0000
,
0002
0000
2003
0000
,
3020
0000
0230
0000
,
0320
0000
2030
0000
,
3200
0000
0320
0000
,
0032
0000
2003
0000
,
3020
0000
2030
0000
,
3002
0000
0203
0000
,
0320
0000
2030
0000
,
3001
1000
0001
0001
,
1000
0001
1000
0010
,
0100
0100
0010
0010
,
1000
0100
0010
0001
,
1000
0001
1000
1000
,
0010
1000
0100
0010
,
0001
1000
0001
1000
,
0010
0110
1001
1100
,
0010
0000
0001
0000
0100
0010
0100
0000
,
0001
1000
0010
1000
,
0100
0000
0010
0000
0001
1000
0001
0000
,
1000
0010
1000
0100
,
0010
0000
0001
0000
1000
0001
1000
0000
,
0010
1000
0001
0100
,
0010
0000
1000
0000
0100
0010
0100
0000
,
0010
0001
1000
0001
,
0102
0000
0103
0000
1000
1000
1000
0000
,
0001
0100
0010
1000
,
2100
0000
3100
0000
0010
0010
0010
0000
,
0001
0001
1000
0010
,
0120
0000
0130
0000
0001
0001
0001
0000
,
1000
0001
1000
0100
,
1002
0000
1003
0000
0100
0100
0100
0000
,
0001
0010
0001
1000
,
0200
0000
0320
0000
,
0032
0000
0013
1000
,
0002
0000
0023
0000
,
0230
0000
1300
0010
,
2000
0000
3020
0000
,
2030
0000
3001
0100
,
0002
0000
2003
0000
,
3020
0000
1030
0100
;

//---------------dance-single - ----------------
#NOTES:
     dance-single:
     :
     Beginner:
     2:
     0.146681,0.174294,0.061606,0.000000,0.000000,100.000000,94.000000,6.000000,0.000000,0.000000,0.000000,0.146681,0.174294,0.061606,0.000000,0.000000,100.000000,94.000000,6.000000,0.000000,0.000000,0.000000:
// measure 0
0000
0000
0000
0000
,  // measure 1
0000
0000
0000
0000
,  // measure 2
0000
0000
0000
0000
,  // measure 3
0000
0000
0000
0000
,  // measure 4
0000
0000
0000
0000
,  // measure 5
1000
0000
0001
0000
,  // measure 6
1000
0000
0001
0000
,  // measure 7
1000
0000
0001
0000
,  // measure 8
1000
0000
0001
0000
,  // measure 9
0010
0000
0100
0000
,  // measure 10
1000
0000
0010
0000
,  // measure 11
1000
0000
0001
0000
,  // measure 12
0100
0000
0010
0000
,  // measure 13
0100
0000
0001
0000
,  // measure 14
1000
0000
0010
0000
,  // measure 15
1000
0000
0001
0000
,  // measure 16
1000
0000
0001
0000
,  // measure 17
0010
0010
0010
0000
,  // measure 18
0100
0100
0100
0000
,  // measure 19
1000
1000
1000
0000
,  // measure 20
0010
0010
0010
0000
,  // measure 21
1000
1000
1000
0000
,  // measure 22
0001
0001
0001
0000
,  // measure 23
0010
0000
0001
0000
,  // measure 24
1000
0000
1001
0000
,  // measure 25
1001
0000
0001
0000
,  // measure 26
1000
0000
0001
0000
,  // measure 27
0010
0000
0100
0000
,  // measure 28
0010
0010
0010
0000
,  // measure 29
0110
0000
0010
0000
,  // measure 30
0001
0000
0100
0000
,  // measure 31
1000
0000
0100
0000
,  // measure 32
0001
0001
0001
0000
,  // measure 33
1001
0000
1000
0000
,  // measure 34
0010
0000
1000
0000
,  // measure 35
0100
0000
0010
0000
,  // measure 36
0100
0100
0100
0000
,  // measure 37
0110
0000
0010
0000
,  // measure 38
0001
0000
1000
0000
,  // measure 39
0100
0000
1000
0000
,  // measure 40
0010
0010
0010
0000
,  // measure 41
1001
0000
0000
0000
,  // measure 42
0100
0000
0001
0000
,  // measure 43
1000
0000
0000
0000
,  // measure 44
0001
0000
0010
0000
,  // measure 45
0100
0000
0000
0000
,  // measure 46
1000
0000
0010
0000
,  // measure 47
0100
0000
0000
0000
,  // measure 48
0001
0000
1000
0000
;
