#VERSION:0.83;
#TITLE:Candyman;
#SUBTITLE:;
#ARTIST:Zedd & Grey feat. Aloe Blacc;
#TITLETRANSLIT:;
#SUBTITLETRANSLIT:;
#ARTISTTRANSLIT:;
#GENRE:;
#ORIGIN:;
#CREDIT:;
#BANNER:Candyman.png;
#BACKGROUND:Candyman-bg.png;
#PREVIEWVID:;
#JACKET:Candyman-jacket.jpg;
#CDIMAGE:;
#DISCIMAGE:;
#LYRICSPATH:;
#CDTITLE:;
#MUSIC:Candyman.ogg;
#OFFSET:-0.211900;
#SAMPLESTART:45.015301;
#SAMPLELENGTH:12.799999;
#SELECTABLE:YES;
#BPMS:0.000=75.000,
32.000=150.000,
210.000=75.000;
#STOPS:82.000=0.600,
179.500=0.200;
#DELAYS:;
#WARPS:;
#TIMESIGNATURES:0.000=4=4;
#TICKCOUNTS:0.000=4;
#COMBOS:0.000=1;
#SPEEDS:0.000=1.000=0.000=0;
#SCROLLS:0.000=1.000;
#FAKES:;
#LABELS:0.000=Song Start;
#BGCHANGES:;
#KEYSOUNDS:;
#ATTACKS:
;

//---------------dance-single - ----------------
#NOTEDATA:;
#CHARTNAME:;
#STEPSTYPE:dance-single;
#DESCRIPTION:;
#CHARTSTYLE:;
#DIFFICULTY:Hard;
#METER:13;
#RADARVALUES:0.488491,0.637197,0.297735,0.198490,0.180445,379.000000,346.000000,33.000000,22.000000,0.000000,0.000000,0.000000,0.000000,0.000000,0.488491,0.637197,0.297735,0.198490,0.180445,379.000000,346.000000,33.000000,22.000000,0.000000,0.000000,0.000000,0.000000,0.000000;
#CREDIT:Daniel Van Eden;
#NOTES:
// measure 0
0000
0000
0000
0000
,  // measure 1
0000
0000
0000
0000
,  // measure 2
0000
0000
0000
0000
,  // measure 3
0000
0000
0000
0000
,  // measure 4
1000
0010
0010
1000
0002
0000
0203
0000
0000
0300
0000
0000
0000
0000
0000
0100
,  // measure 5
0000
0000
0000
0010
0000
0000
0010
0000
0000
0100
0000
0000
0002
0000
0000
0000
0000
0000
0000
0000
0000
0000
0000
0000
0000
0000
0003
0000
0000
0000
0000
0000
0000
0000
0000
0000
0000
0000
0000
0000
0000
0000
0000
0000
0000
0000
0000
0000
,  // measure 6
0010
0001
0001
0010
0001
1000
0100
1000
0010
0100
0010
1000
0001
0000
0001
1000
,  // measure 7
0000
0100
0000
0100
0010
0000
0001
0000
1001
0000
0000
0000
0000
0100
0100
0010
,  // measure 8
1000
0100
0100
1000
0002
0000
0203
0000
,  // measure 9
0310
0010
1000
1000
,  // measure 10
0001
0100
0100
0001
2000
0000
0000
3100
,  // measure 11
0020
0000
0031
0000
0001
0000
1000
0100
,  // measure 12
1000
0000
0010
0000
0010
1000
0100
0010
,  // measure 13
0001
0010
0100
1000
0001
0000
1000
0010
,  // measure 14
0000
0100
0000
0100
0010
0000
1000
0000
,  // measure 15
0001
0001
1000
1000
,  // measure 16
0100
0000
0010
0000
0010
0000
0100
0000
1000
0000
0000
0000
0001
0000
0000
0001
,  // measure 17
1000
0000
0010
0000
0010
0000
0100
0000
0010
0000
0000
0010
1000
0000
0000
1000
,  // measure 18
0001
0000
0010
0000
0100
0000
1000
0000
0001
0000
0000
0001
1000
0000
0000
0001
,  // measure 19
1000
0000
0100
0000
0010
0000
0001
0000
1000
0000
0001
1000
0001
0000
1000
0100
,  // measure 20
1000
0000
0100
0010
0100
0000
0010
0001
0010
0000
1001
0000
1000
0000
1000
0000
,  // measure 21
0000
0101
0001
0100
0010
1000
0100
0001
,  // measure 22
0100
1000
0010
0100
0101
0000
0001
0010
,  // measure 23
0000
1100
2000
0000
3010
0100
0010
1000
,  // measure 24
0100
0010
0001
1000
0001
0100
0010
0010
,  // measure 25
0100
1001
1000
0100
0010
0001
0100
1000
,  // measure 26
0100
0001
0010
0100
1100
0000
1000
0010
,  // measure 27
0000
0101
0002
0000
0013
0100
0010
0100
,  // measure 28
1000
0010
1000
0001
0000
1000
0001
0000
0100
0020
0000
0000
0000
0000
0130
0000
,  // measure 29
0000
1010
1000
0010
0100
0001
0000
0010
,  // measure 30
0000
0110
0010
0001
0100
0000
1000
0100
,  // measure 31
0000
0101
2000
0000
3010
0100
1000
0100
,  // measure 32
0001
0010
0100
1000
0001
0100
0010
0010
,  // measure 33
0100
1001
0001
0010
0100
1000
0000
0010
,  // measure 34
0000
0110
0010
1000
0100
0000
0001
0100
,  // measure 35
0000
1100
2000
0000
3010
0100
0001
0010
,  // measure 36
0100
0010
0001
0000
1000
0000
0020
0000
0000
0000
0130
0000
0010
0000
0010
0000
,  // measure 37
0100
1001
0001
0100
0010
1000
0000
1001
,  // measure 38
0000
0001
0010
0100
1200
0000
0010
0010
,  // measure 39
0000
0001
1000
0000
1000
0310
0000
0011
,  // measure 40
0001
0100
1000
0000
0100
0001
0010
0010
,  // measure 41
0100
1001
1000
0100
0010
0001
0000
1001
,  // measure 42
0000
1000
0010
0100
0201
0000
0010
0010
,  // measure 43
0000
1000
0001
0000
0001
0310
0000
0010
,  // measure 44
1000
0001
0100
0010
0000
0000
0100
0000
0000
0001
0000
0000
0020
0000
0000
0000
0000
0000
0000
0000
0000
0030
0000
0000
,  // measure 45
1001
0001
0100
0010
1000
0000
0101
0000
,  // measure 46
1100
0100
0010
0011
0000
0010
0100
0000
,  // measure 47
1100
0200
0000
0310
0001
0000
0100
1000
,  // measure 48
0100
0001
0000
0010
0100
0010
0010
0100
,  // measure 49
1001
1000
0010
0100
0001
0000
1100
0000
,  // measure 50
0101
0100
0010
1010
0000
0010
0100
0000
,  // measure 51
0101
0200
0000
0310
1000
0000
0001
0000
,  // measure 52
1001
1000
0000
0000
1020
0000
0000
0000
,  // measure 53
0230
0000
0302
0000
,  // measure 54
0000
0000
0000
0000
0000
0000
0000
0000
0000
0003
0000
0010
0001
0000
0001
1000
0000
0000
0010
0000
0000
1000
0000
0100
,  // measure 55
0010
0000
0010
0100
0000
1000
0100
0000
0010
0001
0000
1000
0001
0000
0010
0100
0000
0000
0200
0000
0000
0000
0000
0000
,  // measure 56
0000
0000
0300
0000
;

//---------------dance-single - ----------------
#NOTEDATA:;
#CHARTNAME:;
#STEPSTYPE:dance-single;
#DESCRIPTION:;
#CHARTSTYLE:;
#DIFFICULTY:Beginner;
#METER:3;
#RADARVALUES:0.134045,0.176047,0.045111,0.000000,0.000000,104.000000,99.000000,5.000000,0.000000,0.000000,0.000000,0.000000,0.000000,0.000000,0.134045,0.176047,0.045111,0.000000,0.000000,104.000000,99.000000,5.000000,0.000000,0.000000,0.000000,0.000000,0.000000,0.000000;
#CREDIT:Daniel Van Eden;
#NOTES:
0000
0000
0000
0000
,
0000
0000
0000
0000
,
0000
0000
0000
0000
,
0000
0000
0000
0000
,
1000
0000
0001
0000
,
0010
0000
0000
0000
,
0001
0100
0010
1000
,
0001
0000
0000
0000
,
0010
0000
0010
0000
,
0001
0000
0000
0000
,
0001
0000
0001
0000
,
1000
0000
0000
0000
,
1000
0000
0100
0000
,
0010
0000
0001
0000
,
1000
0000
0000
0000
,
0010
0000
0000
0000
,
1000
0000
0100
0000
,
0100
0000
0010
0000
,
0010
0000
0001
0000
,
0001
0000
1000
0000
,
0010
0010
0010
0000
,
0000
1001
0000
0000
0000
0000
0000
0000
,
0000
0001
0000
0000
0000
0001
0000
0000
,
0000
0001
0000
0000
0000
0010
0000
0010
,
0000
0010
0000
0000
0000
0100
0000
0000
,
0000
1001
0000
0000
0000
0000
0000
0000
,
0000
1000
0000
0000
0000
1000
0000
0000
,
0000
0010
0000
0000
0000
0100
0000
0000
,
0000
0001
0000
0000
0000
0000
0000
0000
,
0000
0110
0000
0000
0000
0000
0000
0000
,
0000
0100
0000
0000
0000
0100
0000
0000
,
0000
0100
0000
0000
0000
0010
0000
0010
,
0000
0010
0000
0000
0000
0001
0000
0000
,
0000
1001
0000
0000
0000
0000
0000
0000
,
0000
1000
0000
0000
0000
0010
0000
0000
,
0000
1000
0000
0000
0000
0001
0000
0001
,
0000
0001
0000
0000
0000
0010
0000
0000
,
0000
0100
0000
0000
0000
0000
0000
0000
,
0000
0010
0000
0000
0000
0001
0000
0000
,
0000
0010
0000
0000
0000
0100
0000
0000
,
0000
1000
0000
0000
0000
0010
0000
0000
,
0000
0100
0000
0000
0000
0000
0000
0000
,
0000
0100
0000
0000
0000
0001
0000
0000
,
0000
0010
0000
0000
0000
0100
0000
0000
,
0000
1000
0000
0000
0000
0000
0000
0000
,
1001
0000
0001
0000
,
1000
0000
0010
0000
,
1000
0000
0100
0000
,
0010
0000
0001
0000
,
1000
0000
0010
0000
,
0100
0000
0001
0000
,
1000
0000
0001
0001
,
0001
0000
0010
0000
,
0100
0000
0100
0000
,
0000
0000
0010
0001
,
0100
0010
1000
0001
;

//---------------dance-single - ----------------
#NOTEDATA:;
#CHARTNAME:;
#STEPSTYPE:dance-single;
#DESCRIPTION:;
#CHARTSTYLE:;
#DIFFICULTY:Easy;
#METER:5;
#RADARVALUES:0.195912,0.251495,0.063156,0.153378,0.000000,152.000000,145.000000,7.000000,17.000000,0.000000,0.000000,0.000000,0.000000,0.000000,0.195912,0.251495,0.063156,0.153378,0.000000,152.000000,145.000000,7.000000,17.000000,0.000000,0.000000,0.000000,0.000000,0.000000;
#CREDIT:Daniel Van Eden;
#NOTES:
0000
0000
0000
0000
,
0000
0000
0000
0000
,
0000
0000
0000
0000
,
0000
0000
0000
0000
,
1000
0010
0001
0000
,
0001
0100
1000
0000
,
0001
0010
0100
1000
,
0010
0010
0100
0000
,
1000
1000
0001
0000
,
0001
0000
0010
0000
,
0100
0100
0010
0000
,
0001
0000
0100
0000
,
0010
0000
1000
0000
,
0100
0010
0100
0000
,
0010
0000
0001
0000
,
1000
0000
0000
0000
,
0010
0000
0010
1000
,
0010
0000
1000
0001
,
1000
0000
0100
0010
,
0100
0000
0010
0001
,
0010
0010
0010
0000
,
0000
1001
0000
0001
0000
1000
0000
0000
,
0000
0010
0000
1000
0000
0100
0000
0000
,
0000
0010
0000
0100
0000
0010
0000
0000
,
0000
0001
0000
0010
0000
0100
0000
0000
,
0000
1001
0000
1000
0000
0001
0000
0000
,
0000
0010
0000
0001
0000
0100
0000
0000
,
0000
0010
0000
0100
0000
0001
0000
0000
,
0000
1000
0000
0000
0002
0000
0000
0003
,
0000
0110
0000
0100
0000
0010
0000
0000
,
0000
1000
0000
0100
0000
0010
0000
0000
,
0000
0001
0000
0010
0000
0100
0000
0000
,
0000
1000
0000
0001
0000
0100
0000
0000
,
0000
0110
0000
0010
0000
0100
0000
0000
,
0000
0001
0000
0010
0000
0100
0000
0000
,
0000
1000
0000
0010
0000
0100
0000
0001
,
0000
1000
0000
0000
0000
1002
0000
0000
,
0000
0013
0000
0000
0000
2000
0000
0000
,
0000
3100
0000
0000
0020
0000
0000
0000
,
0000
0100
0000
0000
0000
1030
0000
0001
,
0000
1000
0000
0100
0000
2000
0000
0000
,
0000
3010
0000
0000
0000
0002
0000
0000
,
0000
0103
0000
0000
0020
0000
0000
0000
,
0000
0100
0000
0000
0000
0031
0000
1000
,
0000
0001
0000
0000
0200
0000
0000
0300
,
0020
1030
0200
0000
,
0301
0000
0000
0021
0000
0000
0000
0000
,
0100
0000
0031
1000
,
0010
1000
0002
0000
,
1003
0010
2000
0000
,
3100
0000
0000
0210
0000
0000
0000
0000
,
1000
0000
0310
0001
,
1000
0000
0020
0000
,
2030
0000
3002
0000
,
0000
0000
0000
0000
0013
0100
0010
0000
,
0001
0010
0100
1000
0010
0100
0001
0000
;

//---------------dance-single - ----------------
#NOTEDATA:;
#CHARTNAME:;
#STEPSTYPE:dance-single;
#DESCRIPTION:;
#CHARTSTYLE:;
#DIFFICULTY:Medium;
#METER:10;
#RADARVALUES:0.327379,0.382318,0.072178,0.090223,0.036089,254.000000,246.000000,8.000000,10.000000,0.000000,0.000000,0.000000,0.000000,0.000000,0.327379,0.382318,0.072178,0.090223,0.036089,254.000000,246.000000,8.000000,10.000000,0.000000,0.000000,0.000000,0.000000,0.000000;
#CREDIT:Daniel Van Eden;
#NOTES:
0000
0000
0000
0000
,
0000
0000
0000
0000
,
0000
0000
0000
0000
,
0000
0000
0000
0000
,
1000
0010
1000
0000
0001
0000
0020
0000
0000
0000
0000
0000
0030
0000
0000
0001
,
0000
0001
0010
0000
0200
0000
0000
0000
0300
0000
0000
0000
0000
0000
0000
0000
,
1000
0000
0010
0000
0100
0000
0001
0000
0010
0100
0010
0100
1000
0000
0000
0010
,
0000
1000
0000
0000
0001
0000
0010
0000
0100
0000
0000
0000
0000
0000
0000
0000
,
1000
0010
0100
0000
0001
0000
1000
0000
,
0100
0100
0010
0010
,
0001
0010
0100
0000
1000
0000
0001
0000
,
0100
0000
0100
0000
0010
0000
0010
1000
,
0010
1000
0100
0010
,
0001
1000
0001
1000
0100
0000
0000
0010
,
0000
0010
0000
0000
0001
0000
0100
0000
,
0010
0000
0000
0000
,
1000
0000
0000
0101
0000
0000
0001
0100
,
0001
0000
0000
1100
0000
0000
1000
0100
,
1000
0000
0000
0011
0000
0000
0010
0001
,
0010
0000
0000
1010
0000
0000
0010
1000
,
0020
0000
0230
0000
0301
1000
0001
1000
,
0000
0000
0010
1000
0010
1000
0000
1000
,
0000
0001
0010
0000
0001
0000
0001
0100
,
0000
0001
1000
0000
1000
0010
0000
0100
,
0000
0010
1000
0000
0001
0000
0001
0001
,
0000
0000
0010
0001
0010
0001
0000
0001
,
0000
1000
0010
0000
1000
0000
1000
0100
,
0000
0010
0100
0000
0100
1000
0000
0001
,
0000
0000
0010
0000
0000
0010
0000
0000
0020
0000
0000
0000
0000
0000
0030
0000
,
0000
1001
0000
0001
0010
0100
0000
0100
,
0000
0010
0100
0000
1000
0000
1000
0100
,
0000
0010
0001
0000
0001
0010
0000
0100
,
0000
1000
0010
0000
1000
0000
1000
1000
,
0000
0000
0001
1000
0010
0100
0000
0100
,
0000
0010
0100
0000
0001
0000
0001
0100
,
0000
0010
1000
0000
1000
0010
0000
1000
,
0000
0100
0010
0001
0000
1001
0000
1000
,
0000
0010
0000
1000
0000
0100
0000
0010
,
0000
0001
0000
0010
0100
0000
0100
0010
,
0000
0001
1000
0000
1000
0001
0000
0100
,
0010
1000
0001
0000
0010
0000
0010
0100
,
0000
1000
0000
0001
0000
0010
0000
0100
,
0000
1000
0000
0100
0010
0000
0010
0100
,
0000
1000
0001
0000
0001
1000
0000
0010
,
0000
0100
0001
0001
2000
0000
0000
3000
,
0110
0000
0010
1000
0010
0000
1000
0000
,
0100
0000
0010
0001
0000
0001
1000
0000
,
0010
1000
0000
1000
0001
0000
0100
0001
,
1000
0100
0000
0010
0000
0010
0001
0000
,
1000
0000
0010
1000
0010
0000
1000
0000
,
0001
0000
0100
0001
0000
0001
1000
0000
,
0100
1000
0000
1000
0001
0000
0010
0000
,
0010
0100
0000
0000
1002
0000
0000
0000
,
0023
0000
0230
0000
,
0000
0000
0000
0000
1300
0001
0010
0001
,
0100
0010
1000
0100
0010
0001
0002
0000
,
0000
0000
0003
0000
;
