#TITLE:Calamity Fortune;
#SUBTITLE:;
#ARTIST:LeaF;
#TITLETRANSLIT:;
#SUBTITLETRANSLIT:;
#ARTISTTRANSLIT:;
#GENRE:;
#CREDIT:;
#BANNER:calamity fortune.png;
#BACKGROUND:calamity fortune-bg.png;
#LYRICSPATH:;
#CDTITLE:;
#MUSIC:calamity fortune.ogg;
#OFFSET:-0.007443;
#SAMPLESTART:102.278656;
#SAMPLELENGTH:9.599998;
#SELECTABLE:YES;
#DISPLAYBPM:100.000000:400.000000;
#BPMS:0.000000=160.000000
,4.000000=200.000000
,189.000000=100.000000
,218.750000=200.000000
,261.000000=100.000000
,268.500000=200.000000
,291.000000=400.000000
,293.000000=800.000000
,298.000000=400.000000
,426.000000=100.000000
;
#STOPS:14.750000=0.150000,
78.000000=0.300000,
85.250000=0.150000,
128.750000=0.150000,
144.500000=0.150000,
218.750000=0.150000,
219.250000=0.150000,
219.750000=0.075000,
228.000000=0.150000,
228.375000=0.150000,
268.500000=0.150000,
272.000000=0.150000,
275.500000=0.150000,
277.000000=0.150000,
278.500000=0.150000,
291.000000=0.150000,
292.000000=0.150000,
293.000000=0.225000
;
#BGCHANGES:0.000=Calamity Fortune.avi=1.000=0=0=0=StretchNoLoop====,
99999=-nosongbg-=1.000=0=0=0 // don't automatically add -songbackground-
;
#KEYSOUNDS:;
#ATTACKS:;

//---------------dance-single - ----------------
#NOTES:
     dance-single:
     :
     Challenge:
     19:
     1.203891,1.781632,0.739880,0.214565,1.246698,1139.000000,1039.000000,100.000000,29.000000,0.000000,0.000000,1.203891,1.781632,0.739880,0.214565,1.246698,1139.000000,1039.000000,100.000000,29.000000,0.000000,0.000000:
0000
0000
0000
0000
,
0000
0000
0000
0000
,
0100
0000
0010
0000
0011
0000
0001
1000
0010
0000
1000
0000
1010
0000
0100
0000
,
0010
0000
1000
0000
0001
0000
0100
0010
0100
0001
1000
0000
0000
0000
1000
0000
,
0001
0000
0101
0000
0100
0001
1000
0010
1000
0000
0100
0000
0010
0000
0011
0000
,
1100
0000
1010
0000
0110
0000
2002
0000
0000
0000
3003
0000
0100
0010
0100
0000
,
0010
1000
0001
0000
0010
0000
0001
0100
0001
0000
0010
0100
0010
0001
0010
0000
,
0001
0000
0100
0000
0010
1000
0001
0000
1000
0000
0100
0010
0100
1000
0100
0000
,
0000
0100
0010
0000
0011
0000
0101
0000
0000
0000
0001
0000
1000
0000
1001
0000
,
1001
0000
1001
0000
0000
0000
0110
0000
0000
0000
1000
0100
0010
0001
1000
0000
,
0010
1000
0000
0010
0001
0000
0010
0000
1000
0000
0001
1000
0001
0100
0010
0000
,
1000
0010
0000
1000
0100
0000
0010
0000
0001
0000
1000
0001
0100
0010
1000
0000
,
0100
0001
0000
0100
1000
0000
0001
0000
0010
0000
0100
1000
0100
1000
0010
0000
,
0100
0000
0101
0000
0100
0000
1100
0000
0100
0000
0010
1000
0010
0100
0001
0000
,
1000
0001
0000
0001
1000
0000
1000
0000
0110
0000
0001
0010
0100
1000
0010
0000
,
0100
0010
0000
0010
1000
0000
0001
0000
1100
0000
0010
1000
0001
0100
0001
0000
,
1000
0001
0000
0100
0010
0000
1000
0000
0010
0000
1000
0100
1000
0000
1010
0000
,
0010
0100
0001
0000
0101
0000
0100
0010
1000
0000
0001
1000
0001
0000
0100
0000
,
0010
0000
1010
0000
1000
0000
0100
0000
0001
1000
0010
0000
1001
0000
0001
0000
,
1000
0000
1010
0000
0100
0000
0010
0001
0010
0000
0001
0000
0100
0000
0110
0000
,
1000
0000
0100
0000
0010
0100
0001
0000
1010
0000
0000
0000
1001
0000
0101
0000
,
0010
0000
2000
0000
0000
3000
0000
0000
0001
0100
0001
0100
0010
1000
0010
1000
,
0100
0010
0001
1000
0100
0001
0100
1000
0010
0000
0100
0001
0000
0100
0010
0000
,
1000
0010
0000
0100
0010
0000
0110
0000
0001
0000
0010
0100
0000
1000
0010
0000
,
1000
0100
0000
1000
0001
0000
0011
0000
0100
0000
0010
0100
0000
1000
0001
0000
,
0100
0001
0000
0100
0010
0000
1000
0000
0002
0000
0100
0000
0010
0000
1000
0003
,
1000
0010
0001
0000
0010
0000
0100
0000
0010
0000
1000
0001
0000
0010
0100
0000
,
0010
0001
0000
1000
0100
0000
0010
0000
0100
0000
0010
0001
0010
0100
1000
0001
,
0010
0000
0001
0000
0100
0000
0010
0000
1010
0000
0000
0101
0110
0000
1010
0000
,
2002
3003
0100
0010
0012
0100
0103
0000
,
1001
0000
0110
0000
0010
1000
1010
0100
,
0001
0010
0001
0000
1100
0000
0010
0000
0001
0000
0100
0010
0100
0000
0100
0000
,
0200
0000
0000
0300
0000
0000
0100
0000
0010
0000
0101
0000
0010
0000
0001
1000
,
0001
0000
1100
0000
0010
0000
0001
0010
0000
0010
0001
0000
0010
0000
0100
0000
,
1000
0010
0001
0010
1000
0100
0001
0000
0100
0000
1100
0000
1000
0000
0010
0000
,
0100
0110
0100
0101
0010
1100
0010
1001
,
0100
0000
0110
0000
1000
0000
0001
0000
0011
0000
0010
0100
1000
0001
1000
0000
,
0010
0000
0100
0000
0010
0000
1000
0100
0010
0000
0010
0100
0000
1100
0000
1000
,
0010
0000
0101
0000
2001
0000
0000
0000
0000
0000
0000
0000
0010
0000
0000
0100
,
0000
0000
0001
0000
3002
0000
0000
0000
0000
0000
0000
0000
0100
0000
0000
0010
,
0000
0010
1003
0000
0010
0000
0101
0000
,
0100
2020
0000
0000
,
3030
0000
0000
0000
0100
1000
0100
1000
0100
1000
0100
1000
0100
1000
0100
1000
,
0100
1000
0100
1000
0001
0010
0001
0010
0001
0010
0001
0010
0001
0010
0001
0010
,
0001
0010
0001
0010
0001
0100
0001
0100
0001
0100
0001
0100
0010
1000
0010
1000
,
0010
1000
0010
1000
1100
0000
0000
0000
1100
0000
0110
0000
1001
0000
0000
0000
,
0101
0000
0000
0000
0001
0100
0010
1000
0001
0010
0000
0001
0000
1000
0100
0010
,
0002
0000
0000
0000
0000
0000
0000
0000
0013
0000
0010
0000
0011
0000
0000
0001
0000
0100
0010
0000
1000
0000
0001
0000
1000
0000
0100
0000
1000
0000
0001
0000
,
0010
0100
0010
0000
0001
0000
0100
0000
0001
0000
0010
0000
0110
0000
0000
0001
0000
0001
1000
0000
0100
0000
0000
0010
0000
0010
0001
0000
0100
0000
0010
1000
,
0010
0000
1000
0000
0000
0001
0000
0000
0010
0000
0010
0000
0001
0000
1000
0010
1000
0000
0010
0000
0110
0000
0110
0000
0020
0000
1030
0000
0001
0000
1000
0000
,
0100
0010
0100
0000
0020
0000
0031
0000
0001
0000
0100
0000
0010
0000
0000
0010
1000
0010
0100
0001
2000
0000
3001
0010
0100
0000
0010
0000
0001
1000
0001
0000
,
0100
0000
0010
0000
0000
1000
0000
0000
0001
0000
1000
0100
1000
0000
0001
0000
0010
0001
0010
0000
0100
1000
0100
0000
0010
0000
0001
0100
0001
0000
1000
0000
,
0010
0100
0010
0000
1000
0100
1000
0000
0010
0000
0001
0010
0001
0000
0100
0000
0001
1000
0001
0000
1000
0010
1000
0000
0100
0010
0100
0000
0010
0001
0020
0000
,
0000
0000
0001
0000
0031
0000
0100
0000
0010
0000
1000
0001
0010
0000
0001
0000
0010
0001
1000
0000
0100
0001
1000
0000
0010
0000
0100
0001
0010
0000
0001
0000
,
0100
0010
1000
0000
0001
0100
0010
0000
1000
0000
0001
0100
1000
0000
0100
0000
1000
0100
0001
0000
1000
0000
0101
0000
0000
0000
0011
0000
0000
0000
0101
0000
,
1100
0110
1001
0000
0100
0010
1010
1000
,
0001
0010
0110
1000
0011
0001
1001
0001
,
0011
0000
0000
0000
0001
0000
0100
0010
1000
0000
0001
0000
0010
0000
2100
0000
,
3001
0100
0101
0010
1010
0100
0011
1001
,
1001
0000
0100
0010
0001
0000
1000
0001
0010
0000
0100
0010
0001
0010
0001
1000
,
0100
0000
0010
0001
1000
0000
0100
1000
0010
0000
1000
0001
0100
0010
1000
0001
,
0100
0000
0010
0100
0010
0000
1000
0010
0100
0000
0001
1000
0001
0010
0100
0010
,
0001
0000
1000
0100
1000
0000
0010
1000
0001
0000
1000
0100
0010
0001
1000
0001
,
0100
0010
0100
0010
1000
0000
0100
0000
1001
0000
0010
0000
0100
0001
0100
0001
,
1000
0000
0110
0000
0001
0000
1000
0001
0100
0000
0010
1000
0000
0100
0000
0010
,
0001
0000
0000
0000
0010
0000
0000
0000
1001
0000
0001
0000
1000
0000
0010
1000
0010
1000
0100
0000
0010
0000
0010
0000
0001
0010
0001
0010
1000
0000
0000
0000
,
0001
0100
1000
0000
0010
0000
0000
0000
1000
0010
0001
0010
1000
0000
0001
0100
0010
0000
1000
0000
0100
0000
0010
0000
0011
0000
0010
0000
0101
0000
0001
1000
,
0001
1000
0100
0000
0000
0000
0000
0000
0001
0000
0100
0000
0010
0000
0100
0000
0010
0000
1000
0000
0001
0000
1000
0000
0100
0000
0010
0000
0001
0000
0010
0000
,
0100
0000
1000
0100
0010
0100
1000
0001
1000
0010
1000
0100
0010
0001
0100
0000
,
0001
0100
0001
0100
0010
0000
1000
0100
1000
0100
0010
0000
0002
0000
0000
0000
,
2003
0000
3200
0000
0020
0300
0000
0000
0002
0000
0000
0000
0033
0000
0000
0000
,
0010
0001
0010
0100
1000
0010
1000
0001
0100
1000
0100
0001
1000
0100
0010
0001
,
0100
0010
1000
0001
0010
1000
0001
0100
1000
0001
0010
0001
0101
0000
0000
0000
,
0110
2002
0000
0000
,
0000
0000
3003
0000
0010
0000
1000
0001
,
1000
0010
0100
0000
0010
0000
1000
0000
,
0100
0000
0010
0000
0001
0000
0100
0001
,
0010
0000
0000
0001
0000
0000
1000
0000
0010
0000
1000
0000
0010
0000
0000
0000
0000
0000
0100
0000
0000
0000
0000
0000
,
0001
0000
0010
0000
0100
0000
0001
0100
,
0010
0001
1000
0000
0100
0000
1000
0000
,
0010
0000
0100
0000
0001
0000
0100
0010
,
1000
0000
0000
0100
0010
0001
0010
0000
0000
0100
0000
0000
,
1001
0000
0100
0000
0010
0000
1000
0001
,
1000
0100
1000
0000
0010
0000
0001
0000
,
0010
0000
0100
0000
1000
0000
0100
1000
,
0010
0000
0000
0100
0000
0000
0001
0000
1000
0000
0001
0000
0010
0000
0000
0000
0000
0000
0001
0000
0000
0000
0000
0000
,
0100
0000
0010
0000
1000
0000
0001
0010
,
0001
1000
0100
0000
1000
0000
0010
0000
,
1000
0000
0100
0000
0010
0001
0010
0000
,
0110
0000
0100
1100
0000
1010
0000
0010
,
0110
0000
1001
0000
1000
0000
0010
1000
,
0010
0100
0001
0000
0010
0001
1000
0000
,
0100
1000
0001
0000
1000
0000
0010
0100
,
0001
0000
0000
0010
0000
0000
0100
0000
1000
0000
0100
0000
0010
0000
0000
0001
0000
0000
0010
0000
0000
0100
0000
0000
,
1000
0001
0010
0100
1000
0000
0010
0001
,
0010
1000
0100
0000
0010
0100
1000
0000
,
0100
1000
0001
0000
1000
0000
0100
1000
,
0100
0000
0000
0010
0001
0010
0100
0000
0000
0010
0000
0000
,
1001
0000
0001
0000
0100
0001
0010
0100
,
1000
0010
1000
0100
0001
0100
1000
0001
,
0010
0100
0010
0001
0100
0001
1000
0010
,
1000
0000
0000
0100
0000
0000
0010
0000
0001
0000
0010
0000
0001
0000
0000
0010
0000
0000
0100
0000
0000
1000
0000
0000
,
0001
0010
0001
0100
1000
0100
0001
1000
,
0010
1000
0100
0010
0001
0100
0001
1000
,
0010
1000
0100
0010
0001
0100
0001
0000
,
1010
0000
0010
0110
0000
0101
0000
0001
,
0011
0000
0000
0000
0000
0000
0000
0000
1001
0000
0000
0000
0000
0000
0000
0000
0001
0000
0000
1000
0000
0000
0001
0000
0100
0000
0010
0000
1000
0000
0001
0000
,
1000
0000
0000
0010
0000
0000
1000
0000
0100
0000
0010
0000
0001
0000
0010
0000
0100
0000
0000
1000
0000
0000
0001
0000
0100
0000
0010
0000
1000
0000
0010
0000
,
0001
0010
0100
0001
0100
1000
0200
0000
0302
0000
0000
0013
0100
0010
0100
1000
,
0001
0100
0001
1000
0010
0100
0001
1000
0100
0010
0100
0010
0001
0100
0001
0100
,
0010
1000
0001
0100
0001
0010
0100
0000
2002
0000
0000
0000
0000
0000
0000
0000
,
0000
0000
0000
0000
,
3003
0000
0000
0000
;

//---------------dance-single - ----------------
#NOTES:
     dance-single:
     :
     Hard:
     18:
     1.015750,1.574465,0.369940,0.258958,0.917452,961.000000,911.000000,50.000000,35.000000,0.000000,0.000000,1.015750,1.574465,0.369940,0.258958,0.917452,961.000000,911.000000,50.000000,35.000000,0.000000,0.000000:
0000
0000
0000
0000
,
0000
0000
0000
0000
,
1000
0000
0001
0000
0100
0000
0001
0000
0010
0100
0010
0000
0001
0000
0010
0000
,
0100
0000
0100
0000
0010
0000
0001
1000
0001
1000
0001
0000
0000
0000
0100
0000
,
0001
0000
0100
0000
0010
0000
1000
0010
1000
0000
0100
0000
1000
0000
0200
0000
,
0302
0000
0023
0000
2030
0000
3002
0000
0000
0000
0003
0000
1000
0100
1000
0000
,
0010
0000
1000
0000
0001
0000
0100
0010
0100
0000
0001
0000
0010
0000
0001
0000
,
1000
0000
0100
0000
0010
0000
0100
1000
0100
0000
1000
0000
0001
0000
0101
0000
,
0000
0010
1000
0000
0100
0000
0110
0000
0000
0000
0010
0000
0002
0000
0100
0000
,
0100
0000
0103
0000
0000
0000
1100
0000
0000
0000
1000
0100
0010
0001
1000
0000
,
0100
0010
0000
0100
0010
0000
0001
0000
0010
0000
0100
0010
0100
0000
0001
0000
,
0100
0010
0000
1000
0010
0000
1000
0000
0001
0000
0010
0001
0010
0000
0100
0000
,
1000
0001
0000
1000
0100
0000
0010
0000
0001
0000
1000
0001
1000
0000
0010
0000
,
0100
0000
1001
0000
0001
0000
1001
0000
1000
0000
0001
0100
0010
1000
0100
0000
,
1000
0001
0000
0010
0001
0000
0010
0000
0100
0000
0010
0001
0010
0000
0100
0000
,
1000
0001
0000
1000
0010
0000
0100
0000
0001
0000
0100
0010
0100
0000
0001
0000
,
0100
0010
0000
1000
0001
0000
0100
0000
0010
0000
0001
1000
0001
0000
0010
0000
,
0001
0010
0100
0000
1000
0000
0010
1000
0020
0000
0000
0000
0030
0000
1000
0000
,
0001
0000
0110
0000
0000
0000
0001
0000
0010
0100
0010
0000
0001
0000
0000
0000
,
1100
0000
0101
0000
0100
0010
0100
0010
0100
0000
0010
0000
1000
0000
1001
0000
,
0000
0000
1000
0000
0001
0010
0100
0000
1010
0000
0000
0000
1000
0000
0001
0100
,
0001
0100
0010
1000
0010
0000
0000
0000
1000
0001
0010
0001
1000
0100
0010
0001
,
0100
0010
0100
0001
0010
0100
1000
0010
1000
0000
0001
1000
0000
0010
0100
0000
,
0010
1000
0000
0100
0010
0000
0001
0000
0100
0000
0010
0100
0000
0010
1000
0000
,
0100
1000
0000
0001
0100
0000
0010
0000
1000
0000
0100
0010
0000
0001
0010
0000
,
0001
0100
0000
0010
0100
0000
0001
0000
0100
0000
0010
0000
0010
0000
1000
0000
,
0100
0010
0100
0000
0001
0000
0100
0000
1000
0000
0001
0100
0000
0001
0010
0000
,
0100
0010
0000
0001
1000
0000
0100
0000
1000
0000
0010
1000
0010
1000
0001
0100
,
0010
0000
1000
0000
0100
0000
0010
0000
0101
0000
0000
1000
0001
0000
0011
0000
,
0110
0000
0100
0010
1100
1100
1100
0000
,
1001
0000
0000
0000
0010
0100
0010
0100
0010
0000
1000
0000
0001
0000
0100
0000
,
0001
1000
0001
0000
0010
0000
0001
0000
0010
0000
0100
1000
0100
0000
1000
0000
,
0002
0000
0000
0003
0000
0000
0100
0000
1000
0000
0001
0000
0010
0000
0100
1000
,
0100
0000
0010
0000
0001
0000
1000
0010
0000
0010
1000
0000
0001
0000
0010
0000
,
0001
0010
0001
0010
0100
1000
0001
0000
0100
0000
0001
0000
1000
0000
0100
1000
,
0100
0010
0100
1010
0000
0110
0000
0101
,
0000
0000
1001
0000
1000
0000
0010
0000
1000
0000
0001
0000
0010
0100
1000
0000
,
0010
0000
1000
0000
0100
0000
1000
0100
0010
0000
0100
0010
0000
0001
0000
0010
,
0001
0000
0100
0000
0020
0000
0000
0000
0000
0000
0000
0000
1000
0000
0000
0100
,
0000
0000
1000
0000
2030
0000
0000
0000
0000
0000
0000
0000
0100
0000
0000
0010
,
0000
0001
3002
0000
0010
0000
0203
0000
,
0010
0302
0000
0003
,
0000
0000
0000
0000
1000
0000
0100
0000
1000
0000
0010
0000
1000
0000
0100
1000
,
0000
0100
1000
0000
0100
0000
0010
0000
0001
0000
0010
0000
0100
0000
0010
0100
,
0000
0010
0100
0000
0010
0000
0001
0000
0100
0000
0001
1000
0010
0000
1000
0000
,
0001
0100
0110
0000
1100
0110
0011
0000
,
1001
0000
0000
0000
0100
0010
0100
0010
0001
0010
0000
0001
0000
0010
0100
1000
,
0001
0000
0000
0000
0000
0000
0000
0000
0010
0000
1000
0000
0001
0000
0000
1000
0000
1000
0100
0000
1000
0000
0100
0000
1000
0000
0010
0000
0100
0000
0000
0010
,
0000
0010
1000
0000
0001
0000
0010
0000
0001
0000
0010
0000
0001
0000
0100
0000
0010
0000
1000
0000
0010
0000
0100
0000
0001
0000
1000
0000
0001
0000
1000
0000
,
0000
0000
1010
0000
0000
0101
0000
0000
0110
0000
0100
0000
1000
0000
0100
0000
0010
0000
0001
0000
0100
0000
0001
0000
1000
0000
0010
0000
0010
0000
1000
0000
,
0001
1000
0000
0001
0010
0000
0100
0000
0010
0000
0010
0000
1000
0000
0100
0000
0001
0000
0100
0000
1000
0000
0010
0000
0001
0000
0010
0000
1000
0000
0001
0000
,
0000
0000
1100
0000
0000
0011
0000
0000
1001
0000
0001
0000
1000
0000
0100
0000
1000
0000
0010
0000
0100
0000
0010
0000
1100
0000
1000
0000
0010
0000
0100
0000
,
0001
0000
1000
0000
0001
0000
0010
0000
0101
0000
0001
0000
1000
0000
0010
0000
1000
0000
0100
0000
0010
0000
0100
0000
0010
0001
0010
0000
0100
1000
0200
0000
,
0000
0010
0010
0310
0001
0100
1000
0100
0001
0100
0010
0001
0100
1000
0100
0001
,
0010
0001
1000
0100
0010
0001
0010
0100
1000
0010
0100
1001
0000
0011
0000
0110
,
1100
1000
0002
0000
1003
0010
1000
0001
,
1000
0001
0010
0001
0101
0100
0110
0010
,
1010
0000
0000
0000
0001
0000
0100
0001
0100
0000
0010
0000
1000
0000
2000
0000
,
0000
3100
0100
1000
0010
1000
0100
0110
,
0110
0000
0000
0000
0010
0000
0001
0000
1000
0000
0001
0000
0100
0010
0100
0000
,
0010
1000
0001
0000
1000
0000
0001
0000
0100
0000
0010
0000
0100
0001
0100
0000
,
0001
0010
0001
0000
1000
0000
0001
0000
0010
0000
0100
0000
0010
0001
0010
0000
,
0100
1000
0001
0000
1000
0000
0001
0000
0010
0000
0100
0000
0010
0100
0010
0001
,
1000
0001
1000
0100
0010
0000
0001
0000
0100
0000
0001
0000
0100
0010
0100
0010
,
1000
0000
0001
0000
1000
0000
0100
0010
0001
0000
0010
0100
0000
1000
0000
0010
,
0100
0000
0000
0000
0001
0000
0000
0000
1000
0000
1000
0000
0010
0000
0100
0000
0001
1000
0001
0000
0010
0000
0000
0000
0100
1000
0100
1000
0100
0000
0000
0000
,
0010
0001
0100
0000
1000
0000
0000
0000
1000
0000
0010
0000
0001
0000
1000
0000
0001
0000
0100
0000
1000
0000
0000
0000
0010
0000
1000
0000
0100
0000
1000
0100
,
0010
0001
1000
0000
0000
0000
0000
0000
1000
0000
0010
0000
1000
0000
0010
0000
1000
0000
0010
0000
1000
0000
0010
0000
1000
0000
0010
0000
1000
0000
0010
0000
,
1000
0000
0001
0100
0001
0100
0001
0100
0001
0100
0001
0100
0001
0100
0001
0000
,
1000
0100
1000
0100
1000
0000
0001
0010
0001
0010
0001
0000
0020
0000
0000
0000
,
0032
0203
0320
0000
2030
0000
3000
0000
,
0001
0100
0010
1000
0010
1000
0001
0010
0001
1000
0100
1000
0001
0100
0001
0010
,
0100
1000
0100
0010
0001
1000
0100
0010
0100
1000
0010
0100
0001
0000
0000
0000
,
0110
2002
0000
0000
,
0000
0000
3003
0000
0010
0000
0100
0001
,
0000
0100
0010
0000
1000
0000
0100
0000
,
0010
0000
0001
0000
1000
0000
0010
1000
,
0000
0100
0010
0000
0001
0000
1000
0000
,
0001
0000
0010
0000
0100
0000
0010
0001
,
0000
1000
0010
0000
0100
0000
0010
0000
,
1000
0000
0001
0000
0010
0000
0001
0100
,
0001
0000
1000
0010
1000
0000
0100
0010
,
0200
0000
0000
0000
0310
0000
0001
0100
,
0000
1000
0100
0000
0001
0000
1000
0000
,
0100
0000
0010
0000
0001
0000
0010
1000
,
0000
0010
0001
0000
0100
0000
0010
0000
,
1000
0000
0001
0000
0100
0000
0010
0100
,
0000
0010
1000
0000
0100
0000
0010
0000
,
0001
0000
1000
0000
0001
0100
0001
0000
,
1000
0000
0010
1000
0000
0100
0000
0010
,
0001
0000
0001
0000
0100
0000
0010
0100
,
0000
0010
1000
0000
0001
0000
0010
0000
,
1010
0000
0100
0000
0001
0000
0100
0001
,
0000
0100
0010
0000
1000
0000
0010
0000
,
1001
0000
0010
0000
1000
0000
0100
0010
,
0000
0001
1000
0000
0001
0000
0100
0000
,
0010
0000
1000
0000
0001
0000
0010
0001
,
0010
0000
0100
0010
0100
0000
1000
0100
,
0020
0000
0000
0000
0031
0000
1000
0010
,
0000
0100
0010
0000
1000
0001
1000
0000
,
0010
1000
0010
0000
1000
0000
0001
1000
,
0000
0100
1000
0000
0010
0100
0010
0000
,
0100
0001
0100
0000
0001
0000
0010
0100
,
0000
0100
1000
0000
0010
0100
0010
1000
,
0001
0100
0010
1000
0001
0100
0001
0000
,
1000
0000
1000
0010
0000
0110
0000
0100
,
0010
0000
0000
0000
0000
0000
0000
0000
1010
0000
0000
0000
0000
0000
0000
0000
1000
0000
0000
0001
0000
0000
0100
0000
0010
0000
0100
0000
0010
0000
0000
0000
,
0100
0000
0000
0001
0000
0000
0010
0000
0001
0000
0010
0000
0100
0000
0000
0000
0010
0000
0000
0001
0000
0000
0100
0000
0010
0000
1000
0000
0001
0000
0100
0000
,
0020
0000
2030
0000
3002
0000
0203
0000
0320
0000
0000
1000
1030
0100
1000
0010
,
0100
0000
0001
0010
0001
1000
0001
0010
0000
1000
0100
0001
0100
1000
0010
1000
,
0002
0203
0320
1030
2002
0000
0000
0000
,
0000
0000
0000
0000
,
3003
0000
0000
0000
;

//---------------dance-single - ----------------
#NOTES:
     dance-single:
     :
     Medium:
     15:
     0.813868,1.408732,0.177571,0.207166,0.429131,770.000000,746.000000,24.000000,28.000000,0.000000,0.000000,0.813868,1.408732,0.177571,0.207166,0.429131,770.000000,746.000000,24.000000,28.000000,0.000000,0.000000:
0000
0000
0000
0000
,
0000
0000
0000
0000
,
0001
0010
0001
0010
0100
0010
0001
0010
,
0001
0000
0001
0000
1000
0000
0010
0000
1000
0001
1000
0000
0000
0000
0010
0000
,
1000
0001
1000
0010
0100
0001
0010
0002
,
2003
0000
3200
0000
0320
0000
0032
0000
0000
0000
0003
0000
1000
0010
1000
0000
,
0001
0010
0100
1000
0010
1000
0001
0100
,
0001
0010
0100
0010
0001
0100
0010
1000
,
0000
1010
0000
0000
0110
0000
1001
0000
0000
0000
0001
0000
0100
0000
0010
0000
,
0010
0010
0000
0010
0000
1001
0000
1000
,
0000
0001
0000
0000
1000
0000
0010
0000
0100
0000
0010
0000
1000
0000
0001
0000
,
0000
0010
0000
0000
0001
0000
0100
0000
0010
0000
0100
0000
0001
0000
0100
0000
,
0000
0010
0000
0000
1000
0000
0001
0000
0100
0000
0001
0000
0010
0000
0001
0000
,
0010
0000
0100
0000
1000
0000
0100
0000
0000
0000
0010
0001
0010
0001
0010
0000
,
0000
0010
0001
0000
0100
0000
0001
0000
1000
0000
0010
0000
0000
0000
1000
0000
,
0000
1000
0100
0000
0010
0000
0100
0000
1000
0000
0001
0000
0010
0000
0001
0000
,
0000
0001
0100
0000
0010
0000
1000
0000
0001
0000
0010
0000
0100
0000
0010
0000
,
0001
1000
0001
0000
0100
0000
0010
1000
0020
0000
0000
0000
0030
0000
1000
0000
,
1000
0100
0010
0000
0000
0000
0010
0000
0010
0001
0100
0000
0001
0000
0000
0000
,
0001
0000
1100
0000
0000
0000
0100
0010
0001
0000
0100
0000
1000
0000
1100
0000
,
0000
0000
0100
0000
0010
0001
0010
0000
0001
0000
0000
0000
1000
0000
0001
0000
,
0100
0000
0020
0000
0000
0030
0000
0000
1000
0000
0001
0000
1000
0000
0010
0000
,
0100
0010
0100
0000
0001
0100
0001
0000
1000
0000
0000
0001
0000
0000
0010
0000
,
0001
0000
0100
0000
0010
0000
1000
0000
0100
0000
0000
0010
0000
0000
0100
0000
,
0010
0000
0100
0000
1000
0000
0100
0000
0010
0000
0000
0001
0000
0000
0100
0000
,
0001
1000
0010
1000
0100
0010
0001
0100
,
0001
1000
0001
0000
0100
0000
0010
0000
0100
0000
0000
0001
0000
0000
0100
0000
,
0010
0100
0000
0010
1000
0000
0001
0000
0010
0000
0100
0000
1000
0000
0100
0000
,
0001
0000
0100
0000
1000
0000
0010
0000
1000
0000
0000
0001
0010
0000
0100
0000
,
0110
0000
0010
0001
1000
0001
1000
0000
,
1100
0000
0011
0000
0010
1000
0001
0100
,
0010
0000
1000
0000
0001
0000
0100
0000
0010
0000
0010
1000
0010
0000
0100
0000
,
0002
0000
0000
0003
0000
0000
0010
0000
0001
0000
1000
0000
0100
0000
0010
0000
,
0001
0000
1000
0000
0100
0000
0010
0001
0000
0010
0100
0000
0010
0000
0100
0000
,
2000
0000
3000
0100
1000
0001
1000
0010
,
0100
0000
0001
0000
0010
0001
1000
0000
0001
0000
0100
0000
0001
0000
0010
0000
,
0001
0100
0010
0100
0001
1000
0010
0100
,
0001
0000
0010
0000
0100
0000
0010
0001
0010
0000
0100
1000
0000
0001
0000
1000
,
0100
0010
0002
0000
0010
0000
0000
0000
,
0013
0200
0010
0000
,
0310
0010
1000
0001
,
0010
0200
0000
0300
,
0000
0000
0000
0000
0100
0000
0001
0000
0100
0000
1000
0000
0100
0000
0000
0010
,
0000
0000
0001
0000
1000
0000
0010
0000
0001
0000
0010
0000
1000
0000
0000
0001
,
0000
0010
0100
0010
0100
1000
0001
0010
,
0001
0000
0101
0000
0101
0110
1010
0000
,
1001
0000
0000
0000
1000
0000
0010
0000
0100
0010
0000
1000
0000
0001
0010
0001
,
0010
0000
0000
0000
0010
0100
1000
0000
1000
0001
1000
0000
0010
0100
0001
0000
,
1000
0001
1000
0010
1000
0100
0010
0000
0010
0001
0000
1000
0000
1000
0001
0200
,
0000
0010
0310
0000
0010
1000
0001
0000
0100
0001
0100
0001
0010
0001
0010
0000
,
0100
0010
0100
1000
0100
0010
0001
0000
1000
0001
1000
0010
0000
0010
0100
0002
,
0000
1000
1003
0000
0010
1000
0100
0001
0100
1000
0010
0100
0001
0010
1000
0010
,
0001
0100
0010
1000
0001
0100
0001
0010
0100
0010
0001
1000
0001
1000
0010
0200
,
0000
0010
0310
0010
0010
1000
0001
0100
0001
0010
0001
1000
0100
1000
0100
0010
,
0001
1000
0010
0100
0001
1000
0010
1000
0100
0010
0001
1001
0000
1001
0000
1001
,
1001
0000
0110
0000
0010
0100
0001
0100
,
0010
1000
0001
0010
0100
0010
0100
0010
,
0100
0000
0000
0000
0100
0000
0100
0010
0001
0000
0100
0000
0001
0000
2000
0000
,
0000
3010
0100
0001
0100
0001
0100
0000
,
0000
0000
0000
0000
1000
0000
0001
0000
1000
0000
0100
0000
0010
0001
0010
0000
,
0001
0000
0100
0000
0001
0000
1000
0000
0010
0000
0100
0000
0001
0100
0001
0000
,
1000
0000
0010
0000
1000
0000
0100
0000
0010
0000
0001
0000
0010
0100
0010
0000
,
0001
0000
0100
0000
0001
0000
1000
0000
0010
0000
0100
0000
0001
1000
0001
0000
,
0010
0000
0100
0000
0010
0000
0001
0000
2000
0000
0000
0000
3010
0100
0010
0000
,
0100
0001
0101
0000
0110
0000
1001
0000
,
0000
0000
0000
0000
0000
0000
0000
0000
1000
0000
1000
0000
0010
0000
0000
0000
1000
0000
0000
0001
0000
0000
0010
0000
0100
0000
0100
0000
0010
0000
0000
0000
,
0001
0000
0000
0100
0000
0000
0001
0000
2000
0000
0000
0000
3010
0000
0000
0000
0002
0000
0000
0000
0103
0000
0000
0000
0010
0000
1000
0000
0001
0000
1000
0000
,
0010
0100
0010
0000
0000
0000
0000
0000
0001
0000
0000
0000
0100
0000
0000
0000
1000
0000
0000
0000
0100
0000
0000
0000
0001
0000
0000
0000
0010
0000
0000
0000
,
0001
1000
0100
1000
0010
1000
0001
0100
,
0001
0100
0001
0100
0001
0000
1000
0010
1000
0010
1000
0000
0200
0000
0000
0000
,
2300
3020
0230
0000
0302
0000
0003
0000
,
0001
0000
0010
0000
0100
0000
1000
0000
0010
0000
0100
0000
0010
0000
1000
0010
,
1000
0000
0100
0000
0010
0000
0001
1000
0001
0000
0100
0000
0001
0000
0000
0000
,
1000
1001
0000
0000
,
0000
0000
0000
0000
0001
0000
0100
0001
,
0000
0001
0010
0000
0100
0000
1000
0000
,
0001
0000
0100
0000
0001
0000
1000
0010
,
0000
0010
1000
0000
0100
0000
1000
0000
,
0010
0000
0100
0000
0010
0000
0100
0001
,
0000
0001
1000
0000
0100
0000
1000
0000
,
0010
0100
0001
0010
,
0001
1000
0100
0010
,
0001
0000
0000
0000
0100
0000
0010
1000
,
0000
1000
0001
0000
0100
0000
0001
0000
,
0010
0000
0100
0000
0010
0000
0100
1000
,
0000
1000
0001
0000
0010
0000
0100
0000
,
0010
0000
0001
0000
0100
0000
0010
0100
,
0000
0100
0001
0000
1000
0000
0010
0000
,
1000
0000
0100
0000
0010
0001
0010
0000
,
0001
0000
0100
0010
0000
1000
0000
1000
,
0010
0000
1000
0000
0001
0000
0010
0100
,
0010
0100
0010
0000
0001
0000
1000
0000
,
0001
0000
0000
0000
0001
0000
0010
0001
,
0010
0001
0010
0000
0100
0000
1000
0000
,
0001
0000
0000
0000
0100
0000
0010
1000
,
0010
1000
0010
0000
1000
0000
0001
0000
,
0010
0100
0001
0100
,
0010
0100
1000
0100
,
0010
0000
0000
0000
0001
0000
0100
0001
,
0100
0010
1000
0001
,
0010
0000
0100
0000
0010
0000
0001
0010
,
0001
0100
0010
1000
,
0001
0000
0010
0000
0100
0000
1000
0100
,
1000
0100
0010
0001
,
0100
0000
0010
0000
1000
0001
1000
0000
,
0001
0000
0100
0010
0000
0010
0000
1000
,
0100
0000
0100
0000
0010
0000
0001
1000
,
0010
0000
0010
0100
0001
0000
0010
0001
,
0010
1000
0010
0001
0200
0010
0010
0301
,
0002
0000
0010
1003
1000
0010
0100
0001
,
0010
0100
1000
0010
2002
0000
0000
0000
,
0000
0000
0000
0000
,
3003
0000
0000
0000
;

//---------------dance-single - ----------------
#NOTES:
     dance-single:
     :
     Easy:
     12:
     0.559138,0.910515,0.244161,0.140577,0.118381,529.000000,496.000000,33.000000,19.000000,0.000000,0.000000,0.559138,0.910515,0.244161,0.140577,0.118381,529.000000,496.000000,33.000000,19.000000,0.000000,0.000000:
0000
0000
0000
0000
,
0000
0000
0000
0000
,
0010
0000
0001
0000
0100
0010
0100
0000
,
0010
1000
0001
0100
0001
1000
0000
0010
,
0000
1000
0000
0100
1000
0010
0000
0010
,
0100
0010
1000
0020
0000
0000
0030
1000
,
0000
0100
0000
0010
0001
1000
0000
0010
,
0000
0100
0000
0001
0010
0001
0000
0100
,
0000
0100
0010
0100
0000
1000
0000
0001
,
1000
0001
0000
0001
0000
1010
0000
0100
,
0000
0001
0000
0010
0000
0001
1000
0010
,
0000
1000
0000
0100
0000
0010
0001
0010
,
0000
0100
0000
0010
0000
0100
0000
1000
,
0001
1000
0001
0200
0000
0310
0000
0010
,
0000
0100
0010
1000
0000
0001
0000
0010
,
0000
0001
0010
0100
0000
0010
0000
0001
,
0000
0001
1000
0001
0000
1000
0000
0010
,
0100
0010
0100
0010
2000
0000
0000
3001
,
0000
0011
0000
0010
0000
0000
0100
0000
,
0010
0100
1000
0001
0000
0001
0000
0100
,
0000
0001
0000
0000
0010
0000
0010
0001
,
0010
0100
0000
0000
1000
0100
0010
0001
,
1000
0100
0010
0001
1000
0000
0010
0000
,
1000
0101
0010
0001
,
0100
1001
0010
1000
,
0001
0000
0101
0000
1000
0001
1000
0000
,
0010
0100
0010
0000
1000
0000
0010
0000
,
1000
0101
0010
0001
,
0010
0000
0110
0000
1000
0000
0010
1000
,
0010
0000
0010
0100
0010
0010
0010
0000
,
1100
0101
0010
0001
,
1000
0100
1000
0000
0010
0100
0010
1000
,
0001
0100
0000
0010
0000
1000
0000
0100
,
0010
0000
0001
0000
0000
0000
0010
0001
0000
0000
0010
0000
0001
0000
0020
0000
,
0000
0000
0000
0031
0000
0100
0000
0001
,
1000
0010
0000
1010
0000
1001
0000
0110
,
0000
0011
1000
0000
0010
0000
1000
0100
,
1000
0000
0000
0000
0010
0000
0000
0000
0001
0000
0000
0100
0000
0010
0000
0000
,
1000
0001
0020
0000
0000
0000
0001
0000
,
0030
0200
0000
1000
,
0300
2000
3010
0002
,
0103
0020
0000
0000
,
0030
0000
1000
0000
0001
0000
1000
0001
,
1000
0000
0010
0000
0100
0000
0010
0100
,
0010
1000
0001
0010
,
0001
0000
1000
0000
0100
1000
0100
0000
,
0010
0000
0000
0000
,
0000
0000
0000
0000
0010
0000
1000
0000
0001
0010
0001
0000
1000
0000
0001
0000
,
0100
0001
0100
0000
0001
0000
0010
0000
0100
1000
0100
0000
1000
0000
1000
0001
,
0000
0001
0100
0000
0010
0000
1000
0000
0010
0100
0010
0000
0100
0000
0001
0000
,
1000
0001
1000
0000
0001
0000
0010
0000
0001
0100
0001
0000
0010
0000
0100
1000
,
0000
1000
0001
0000
1000
0000
0010
0000
1000
0010
0000
1000
0100
0000
0010
0000
,
0100
0010
0000
0100
0010
0000
0001
0000
0010
0001
0000
0010
0001
0000
1000
0010
,
0000
0010
0100
0010
1000
0000
0001
0000
1000
0100
0000
1000
0100
0000
0010
0000
,
0100
0010
0000
0100
0010
0000
0001
0000
1000
0001
0000
0001
0000
1000
0000
0001
,
0000
1001
0010
1000
,
0100
0000
0010
0000
0001
1000
0001
1000
,
0001
0000
0001
0000
0100
0000
0010
0100
,
0000
0100
0010
0000
1000
0000
0010
0000
,
0000
0000
1000
0000
0100
0000
0010
0100
,
0010
0000
0001
0000
1000
0000
0001
0100
,
0001
0000
0010
0000
0100
0000
1000
0100
,
1000
0000
0010
0000
1000
0000
0001
1000
,
0001
0000
1000
0000
0001
0000
0001
0100
,
0010
0000
0000
0000
1000
0000
0000
0000
0010
0000
0000
1000
0000
0001
0000
0000
,
0100
0000
0020
0000
1030
0001
2000
0000
,
3100
0010
0001
0010
0010
0100
0200
0000
,
0300
0100
1000
0001
,
1010
0010
0000
1000
0000
0001
0000
0110
,
0010
0000
0101
1000
0000
1010
0001
0000
,
1000
0100
0010
0000
0001
0000
0000
0000
,
0010
0001
1000
0100
1000
0010
0100
0000
,
1001
0011
0110
1001
,
1010
0101
0000
0000
,
0000
0000
0000
0000
1000
0000
0000
0010
,
0000
1000
0001
0000
,
0010
0000
0000
0000
0100
0000
0000
0010
,
0000
0001
1000
0001
,
1000
0000
0000
0000
0010
0000
0000
1000
,
0000
0010
0100
0000
,
0100
0010
1000
0000
,
0011
0000
0110
0000
,
1100
0000
0000
0000
0100
0000
0000
0010
,
0000
0100
1000
0000
,
0010
0000
0000
0000
0100
0000
0000
0010
,
0000
0100
0001
0100
,
0010
0000
0000
0000
1000
0000
0000
0001
,
0000
0010
0100
0000
,
0010
0000
0001
1000
,
0001
0000
0000
0100
0000
0010
0000
0000
,
0100
0000
0010
0000
0100
0000
0000
0001
,
0000
1000
0010
0000
,
1010
0000
0000
0000
1000
0000
0000
0100
,
0000
1000
0010
0100
,
0001
0000
0000
0000
1000
0000
0000
0001
,
0000
1000
0010
0000
,
0100
0001
0100
0000
,
0110
0000
1010
0000
,
1001
0000
0000
0000
1000
0000
0000
0100
,
0000
1000
0001
0000
,
0011
0000
0000
0000
0010
0000
0000
0100
,
0000
0010
0001
1000
,
0001
0000
0000
0000
0100
0000
0000
0001
,
0000
0100
0010
0000
,
1000
0010
1000
0001
,
1000
0000
0000
0100
0000
0010
0000
0000
,
0100
0000
0010
0000
0002
0000
0100
0010
,
2003
0000
0010
0010
3200
0000
0310
0001
,
0010
0100
1000
0001
0020
0000
0031
0100
,
0001
1000
0010
1000
0002
0000
1003
0010
,
0100
0010
1000
0001
2002
0000
0000
0000
,
0000
0000
0000
0000
0000
0000
0000
3003
;

//---------------dance-single - ----------------
#NOTES:
     dance-single:
     :
     Beginner:
     8:
     0.351972,0.579419,0.155375,0.096184,0.000000,333.000000,312.000000,21.000000,13.000000,0.000000,0.000000,0.351972,0.579419,0.155375,0.096184,0.000000,333.000000,312.000000,21.000000,13.000000,0.000000,0.000000:
// measure 0
0000
0000
0000
0000
,  // measure 1
0000
0000
0000
0000
,  // measure 2
0010
0000
0001
0000
,  // measure 3
1000
0000
0010
0000
1000
0000
0000
0100
,  // measure 4
0000
0000
0000
0010
0000
0000
0000
0001
,  // measure 5
0000
1000
0000
1001
0000
0000
0010
0001
,  // measure 6
0000
0100
0000
0010
0000
0100
0000
0010
,  // measure 7
0000
1000
0000
0001
0000
1000
0000
0100
,  // measure 8
0000
0010
0000
0001
0000
0000
0000
0001
,  // measure 9
0001
0001
0000
0001
0000
0000
0000
0001
,  // measure 10
0000
0100
0000
0010
0000
1000
0000
0100
,  // measure 11
0000
1000
0000
0001
0000
0010
0000
0001
,  // measure 12
0000
1000
0000
0010
0000
1000
0000
0100
,  // measure 13
0000
0010
0000
0002
0000
0000
0000
0013
,  // measure 14
0000
0001
0000
0010
0000
0010
0000
0100
,  // measure 15
0000
0010
0000
0100
0000
0100
0000
1000
,  // measure 16
0000
0010
0000
1000
0000
0001
0000
1000
,  // measure 17
0000
0001
0000
0100
0000
0000
0000
0100
,  // measure 18
0000
0000
0000
1001
0000
0000
0000
0010
,  // measure 19
0000
0001
0000
1100
0000
1000
0000
0000
,  // measure 20
0000
0010
0000
0000
0000
0100
0000
0010
,  // measure 21
0000
1010
0000
0000
1000
0000
0001
0000
,  // measure 22
1000
0001
0010
0000
,  // measure 23
0001
0100
0010
0000
,  // measure 24
1000
0001
1000
0000
,  // measure 25
0100
0010
0001
0010
,  // measure 26
0100
1000
0001
0000
,  // measure 27
0100
0010
1000
0000
,  // measure 28
1001
0000
0010
0010
,  // measure 29
0011
0000
0000
0000
1000
1000
1000
0000
,  // measure 30
1000
0000
0001
0000
,  // measure 31
0100
0000
0010
0100
,  // measure 32
0010
0000
0000
1000
0000
0000
0000
0110
,  // measure 33
0000
0000
0000
0001
0000
0010
0000
0001
,  // measure 34
0000
0100
0000
0010
0000
1000
0000
0001
,  // measure 35
0000
1000
0000
0010
0000
0010
0000
0010
,  // measure 36
0000
0010
0010
0000
0000
0000
1001
0000
,  // measure 37
0000
1000
0100
0010
,  // measure 38
0001
0200
0000
0000
,  // measure 39
0000
0320
0000
0000
,  // measure 40
0000
2030
0000
3002
,  // measure 41
0000
0023
0000
0000
,  // measure 42
0030
0001
0000
0001
,  // measure 43
0100
0010
0000
0010
,  // measure 44
1000
0100
1000
0010
,  // measure 45
0100
0001
1000
0001
,  // measure 46
1000
0000
0000
0000
,  // measure 47
0000
1000
0010
0100
,  // measure 48
0010
0000
1000
0000
0001
0000
0010
0001
,  // measure 49
0100
0001
1000
0000
0010
0000
1000
0000
,  // measure 50
0001
0000
0010
0000
0100
0000
1000
0001
,  // measure 51
0100
0010
1000
0000
0010
0100
0001
0000
,  // measure 52
1000
0001
1000
0000
0100
0010
0001
0010
,  // measure 53
0100
1000
0001
0000
0010
0001
0100
0000
,  // measure 54
0010
1000
0001
0000
1000
0000
0000
0000
,  // measure 55
0000
1001
0002
0000
,  // measure 56
0000
0000
0010
0010
,  // measure 57
0013
0001
0000
1000
,  // measure 58
0010
0100
0100
0100
,  // measure 59
0000
0010
1000
0001
,  // measure 60
0000
1000
0100
0010
,  // measure 61
0000
0001
0010
0001
,  // measure 62
0000
1000
0010
0100
,  // measure 63
0000
0001
1000
0001
,  // measure 64
0001
0110
0110
0110
,  // measure 65
0000
0020
0230
0302
,  // measure 66
0023
0000
0130
1000
0100
0010
0002
0000
,  // measure 67
0003
1000
0000
0001
,  // measure 68
0000
0010
0000
0000
0000
0100
0000
0000
,  // measure 69
0110
0000
0000
1001
0000
0000
1010
0000
,  // measure 70
1000
0001
0100
0000
,  // measure 71
0001
0010
0100
1000
,  // measure 72
0100
0010
0001
1000
,  // measure 73
0001
1000
0000
0000
,  // measure 74
0000
0000
0001
0000
,  // measure 75
0000
0000
1000
0000
,  // measure 76
0100
0000
0010
0000
,  // measure 77
0000
0000
0001
0000
,  // measure 78
0100
0000
0001
0000
,  // measure 79
0000
0000
0010
0000
,  // measure 80
0100
0000
1000
0000
,  // measure 81
0001
0000
0010
0000
,  // measure 82
0100
0000
0010
0000
,  // measure 83
0000
0000
0001
0000
,  // measure 84
1000
0000
0010
0000
,  // measure 85
0000
0000
0100
0000
,  // measure 86
0010
0000
1000
0000
,  // measure 87
0000
0000
0001
0000
,  // measure 88
1000
0000
0100
0000
,  // measure 89
0100
0000
0010
0000
,  // measure 90
0010
0000
0001
0000
,  // measure 91
0000
0000
1000
0000
,  // measure 92
0100
0000
0010
0000
,  // measure 93
0000
0000
0100
0000
,  // measure 94
1000
0000
0010
0000
,  // measure 95
0000
0000
1000
0000
,  // measure 96
0001
0000
0100
0000
,  // measure 97
0010
0000
1000
0000
,  // measure 98
0100
0000
0010
0000
,  // measure 99
0001
0000
1000
0000
,  // measure 100
0001
0000
0100
0000
,  // measure 101
0010
0000
1000
0000
,  // measure 102
0100
0000
0010
0000
,  // measure 103
0001
0000
1000
0000
,  // measure 104
0010
0000
0100
0000
,  // measure 105
0100
0000
0010
0000
,  // measure 106
0010
0000
1001
0000
,  // measure 107
0011
0000
1100
0000
,  // measure 108
1000
0010
1000
0001
0101
0000
0100
0000
,  // measure 109
0110
0010
1001
1000
,  // measure 110
0010
1000
0001
0100
0020
0000
0000
0000
,  // measure 111
0000
0000
0000
0000
0000
0000
0000
0030
;
