#VERSION:0.83;
#TITLE:CAND¥¥¥LAND;
#SUBTITLE:(Pa's Lam System Remix);
#ARTIST:tofubeats feat. LIZ;
#TITLETRANSLIT:;
#SUBTITLETRANSLIT:;
#ARTISTTRANSLIT:;
#GENRE:;
#ORIGIN:;
#CREDIT:;
#BANNER:Candyyyland (Pas Lam System Remix).png;
#BACKGROUND:Candyyyland (Pas Lam System Remix)-bg.png;
#PREVIEWVID:;
#JACKET:Candyyyland (Pas Lam System Remix)-jacket.png;
#CDIMAGE:;
#DISCIMAGE:;
#LYRICSPATH:;
#CDTITLE:;
#MUSIC:Candyyyland (Pas Lam System Remix).ogg;
#OFFSET:0.849808;
#SAMPLESTART:48.661488;
#SAMPLELENGTH:12.000000;
#SELECTABLE:YES;
#BPMS:0.000=160.000;
#STOPS:;
#DELAYS:;
#WARPS:;
#TIMESIGNATURES:0.000=4=4;
#TICKCOUNTS:0.000=4;
#COMBOS:0.000=1;
#SPEEDS:0.000=1.000=0.000=0;
#SCROLLS:0.000=1.000;
#FAKES:;
#LABELS:0.000=Song Start;
#BGCHANGES:;
#KEYSOUNDS:;
#ATTACKS:
;

//---------------dance-single - ----------------
#NOTEDATA:;
#CHARTNAME:;
#STEPSTYPE:dance-single;
#DESCRIPTION:;
#CHARTSTYLE:;
#DIFFICULTY:Challenge;
#METER:17;
#RADARVALUES:0.752492,1.010973,0.216100,0.180084,0.565012,1170.000000,1122.000000,48.000000,40.000000,0.000000,0.000000,0.000000,0.000000,0.000000,0.752492,1.010973,0.216100,0.180084,0.565012,1170.000000,1122.000000,48.000000,40.000000,0.000000,0.000000,0.000000,0.000000,0.000000;
#CREDIT:Daniel Van Eden;
#NOTES:
// measure 0
0000
0000
0000
0000
,  // measure 1
0000
0000
0000
0000
,  // measure 2
0000
0000
0000
0000
,  // measure 3
0000
0000
0000
0000
,  // measure 4
0000
0000
0000
0000
,  // measure 5
0000
0000
0000
0000
,  // measure 6
0000
0000
0000
0000
,  // measure 7
0000
0000
0000
0000
,  // measure 8
0000
0000
0000
0000
,  // measure 9
1000
0000
0001
0000
,  // measure 10
1000
0000
0001
0100
,  // measure 11
0100
0000
0010
0000
,  // measure 12
0100
0000
0000
0100
0000
0000
0100
0000
0010
0000
0000
0000
0100
0000
0000
0000
,  // measure 13
0001
0000
1000
0000
,  // measure 14
0001
0000
1000
0010
,  // measure 15
0010
0000
1000
0000
,  // measure 16
0200
0000
0000
0000
,  // measure 17
0310
0001
1000
0000
0100
0000
1000
0000
0010
0000
0100
0000
0010
0000
1000
0000
,  // measure 18
0010
1000
0001
0000
1000
0000
0100
0000
0010
0000
0100
0000
0010
0000
0000
0000
,  // measure 19
0001
0010
0100
0000
1000
0000
0010
0000
0100
0000
0010
0000
0100
0000
0001
0000
,  // measure 20
1000
0010
0100
0000
0001
0000
0010
0000
0100
0000
1000
0000
0001
0000
1000
0000
,  // measure 21
0010
0100
0010
0000
1000
0000
0001
1000
0001
0000
1000
0000
0100
0000
0010
0000
,  // measure 22
0001
0100
0001
0000
1000
0000
0010
0100
0001
0000
0010
0000
0100
0000
1000
0000
,  // measure 23
0100
0010
0100
0000
1000
0000
0001
1000
0001
0000
0100
0000
0010
0000
1000
0000
,  // measure 24
0001
0010
0001
0000
0100
0000
0010
1000
0010
0000
1000
0000
0100
0000
0010
0000
,  // measure 25
0011
1000
0101
0010
,  // measure 26
1010
0110
0101
1000
,  // measure 27
0001
0010
1000
0010
0001
0010
1000
0000
,  // measure 28
1000
0010
0001
0100
1000
0000
0100
0000
,  // measure 29
0101
0100
0010
1000
0100
0010
0001
0001
,  // measure 30
0100
0010
1000
1000
0010
0100
0001
0001
,  // measure 31
0010
0001
0010
0100
1000
0010
1000
0001
0100
0001
0100
0010
1000
0010
1000
0100
,  // measure 32
0010
0001
1000
0100
1000
0001
0010
0100
2000
0000
3200
0000
0320
0000
0032
0000
,  // measure 33
0103
0010
1000
0001
0200
0000
0300
0000
0001
0100
0010
1000
0100
0010
0002
0000
,  // measure 34
0003
0000
0001
0010
0100
0010
0100
1000
0010
0000
0000
0000
1010
0000
0000
0000
,  // measure 35
0101
0000
0000
0000
0000
0000
0000
0000
0000
0000
0000
0000
0000
0000
0000
0000
0000
0000
0000
0000
0000
0000
0000
0000
0000
0000
0000
0000
0000
0000
0000
0000
0000
0000
0000
0000
1001
0000
0000
0000
0000
0000
0000
0000
0000
0000
0000
0000
0000
0000
0000
0000
0000
0000
0000
0000
0000
0000
0000
0000
0000
0000
0000
0000
0000
0000
0000
0000
0000
0000
0000
0000
1000
0000
0000
0000
0000
0000
0000
0000
0000
0000
0000
0000
0010
0000
0000
0000
0000
0000
0000
0000
0000
0000
0000
0000
0200
0000
0000
0000
0000
0000
0000
0000
0000
0000
0000
0000
0300
0000
0000
0000
0000
0000
0000
0000
0000
0000
0000
0000
0000
0000
0000
0000
0000
0000
0000
0000
0000
0000
0000
0000
0000
0000
0000
0000
0000
0000
0000
0000
0000
0000
0000
0000
0000
0001
0000
0000
0000
0000
0000
0000
0000
0000
0000
0000
0000
0000
0000
0000
0000
0000
0000
0000
0000
0000
0000
0000
0000
1000
0000
0000
0000
0000
0000
0000
0000
0000
0000
0000
0000
0000
0000
0000
0000
0000
0000
0000
0000
0000
0000
0000
,  // measure 36
1100
0000
0110
0011
0001
0010
0100
1000
,  // measure 37
2020
0000
3030
0000
2002
0000
3003
0000
1000
0010
0100
0001
0010
0000
0022
0000
,  // measure 38
0033
0000
0010
0100
0020
0000
0030
0000
0011
0000
0000
0000
0110
0000
0000
0000
,  // measure 39
0100
0000
1000
1000
0010
0000
0010
0000
0100
0000
0100
0000
1001
0000
0000
0000
,  // measure 40
1000
0000
0001
0100
0010
0000
1000
0100
0010
0000
0010
0000
0100
0000
0000
0000
,  // measure 41
2000
0000
3000
0000
0220
0000
0330
0000
0001
0100
0010
1000
0100
0000
2200
0000
,  // measure 42
3300
0012
0103
0000
0220
0330
2002
3003
,  // measure 43
0101
0000
0001
0000
1000
0010
1000
0010
0100
0000
0100
0001
0000
1000
0001
0000
,  // measure 44
0011
0000
0000
1001
0000
0000
1010
0000
0210
0000
0000
0000
0301
0000
0000
0000
,  // measure 45
0010
0100
1001
0000
0200
0000
0310
2002
,  // measure 46
3003
0000
0100
1000
0001
0010
0001
0010
0100
0000
0000
0000
2200
0000
3300
0000
,  // measure 47
1010
0000
0000
0101
0000
0000
0101
0000
1001
0000
1000
0000
0100
0000
0020
0000
,  // measure 48
0002
0000
0030
0000
0103
0010
0100
0000
,  // measure 49
0010
0000
0000
0000
0000
0000
0000
0000
0010
1000
0000
0000
0000
0000
0000
0000
1000
0000
0000
0000
0000
0000
0000
0000
0010
0000
0000
0000
0000
0000
0000
0000
,  // measure 50
1000
0100
0020
0000
,  // measure 51
0030
0000
0000
0000
0000
0000
0000
0000
0010
0001
0000
0000
0000
0000
0000
0000
0001
0000
0000
0000
0000
0000
0000
0000
0010
0000
0000
0000
0000
0000
0000
0000
,  // measure 52
0001
0000
0000
0000
0000
0000
0000
0000
0100
0000
0000
0000
0000
0000
0000
0000
0010
1000
0000
0000
0001
0000
0000
0000
1000
0000
0000
0000
0100
0000
0000
0000
,  // measure 53
0000
0000
0000
0000
0000
0000
0100
0010
0000
0000
0000
0000
0010
0000
0000
0000
0000
0000
0001
0000
0000
0000
0000
0000
,  // measure 54
0010
0100
2000
0000
,  // measure 55
3010
0200
0000
0000
0000
0000
0000
0000
0000
0301
0000
0000
0000
0000
0000
0000
0000
0000
0020
0000
0000
0000
0000
0000
,  // measure 56
0000
0000
0030
0000
0100
0010
0001
1000
,  // measure 57
0010
1000
1000
0010
1000
0100
0100
0000
,  // measure 58
0000
0000
0010
0000
0010
0000
0001
0000
0010
0000
0100
0000
0100
0010
0100
1000
,  // measure 59
0000
0001
0001
0010
0001
1000
0100
0000
,  // measure 60
1000
0000
0000
0100
0000
0000
0020
0000
0000
0000
0000
0000
0130
0000
0000
0000
,  // measure 61
0010
0001
0001
0010
0001
0100
0100
0000
,  // measure 62
0000
0000
0010
0000
0010
0000
1000
0000
0010
0000
0100
0000
0100
0010
0100
0001
,  // measure 63
0000
1000
1000
0010
1000
0001
0100
0000
,  // measure 64
0001
0000
0000
0100
0000
0000
0010
0000
1000
0000
0100
0000
0010
0000
0001
0000
,  // measure 65
0101
1000
0011
1000
,  // measure 66
1010
0110
0101
0010
,  // measure 67
0001
0100
1000
0100
0001
0100
1000
0000
,  // measure 68
1000
0100
0001
0010
1000
0000
0010
0000
,  // measure 69
0001
0010
0100
0000
1000
0010
0100
0000
,  // measure 70
0100
0001
0010
0000
0100
1000
0010
0000
,  // measure 71
1000
0010
0100
0010
1000
0001
0010
0100
,  // measure 72
0001
0100
0010
0001
0100
0010
1000
0100
,  // measure 73
0010
0000
0000
0010
0001
0000
0010
0000
0001
0000
0000
0001
0010
0000
0100
0000
,  // measure 74
1000
0001
0000
0000
0100
0000
0010
0000
0100
0000
0000
0100
0010
0000
1000
0000
,  // measure 75
0100
0000
0000
0100
1000
0000
0010
0000
0100
0000
0000
0100
0001
0000
0010
0000
,  // measure 76
0001
1000
0000
0000
0010
0000
1000
0000
0010
0000
0100
0001
0000
0000
1000
0000
,  // measure 77
0010
1000
0100
0100
0010
0001
0100
0100
,  // measure 78
0010
1000
0001
0001
0010
0001
1000
1000
,  // measure 79
0100
1000
0010
1000
0001
0100
0001
0010
,  // measure 80
0200
0000
0000
0000
0310
0000
0001
0001
,  // measure 81
1000
0000
0010
0000
0100
0000
0010
0000
1000
0000
0001
0100
0000
0001
1000
0000
,  // measure 82
0001
0000
0010
0000
0010
0000
0100
0000
0010
0000
0001
0010
0100
1000
0001
0000
,  // measure 83
0100
0000
0010
0000
0100
0000
0001
0000
0100
0000
0010
1000
0000
0001
0100
0000
,  // measure 84
0010
0000
0100
0000
0100
0000
0010
0000
1000
0000
0001
0010
0100
0000
1000
0000
,  // measure 85
0001
0000
0010
0000
0100
0000
0010
0000
0001
0000
1000
0100
0000
1000
0001
0000
,  // measure 86
1000
0000
0010
0000
0010
0000
0100
0000
0010
0000
1000
0010
0100
0001
1000
0000
,  // measure 87
0100
0000
0010
0000
0100
0000
1000
0000
0100
0000
0010
0001
0000
0001
1000
0000
,  // measure 88
0001
1000
0100
0000
1000
0000
0010
0100
0001
0000
1000
0010
1000
0000
0001
0000
,  // measure 89
0101
0000
0001
1000
0100
0000
1000
0000
0010
0100
0010
0000
1000
0000
0001
0000
,  // measure 90
0100
0001
1000
0001
0100
0001
1000
0000
0010
1000
0001
1000
0010
0000
0100
0000
,  // measure 91
0001
0100
0010
0000
0010
0100
0001
0000
0001
1000
0010
0000
0010
1000
0100
0000
,  // measure 92
0010
0001
0010
0001
0010
0100
1000
0000
0010
1000
0010
0100
0001
0000
1000
0000
,  // measure 93
1100
0000
1000
0001
0100
0000
0001
0000
0010
0100
0010
0000
0001
0000
1000
0000
,  // measure 94
0010
1000
0001
1000
0010
1000
0001
0000
0100
0001
1000
0001
0100
0000
0010
0000
,  // measure 95
1000
0100
0010
0000
0010
0100
1000
0000
1000
0001
0010
0000
0010
0001
0100
0000
,  // measure 96
0010
1000
0010
1000
0100
0010
0001
0000
0010
0001
0100
0010
1000
0100
0010
0001
,  // measure 97
1000
0000
0000
1000
0001
0000
0000
0000
0010
0000
0010
0001
0000
0010
0100
0000
,  // measure 98
0000
0000
0100
0000
1000
0000
0000
0000
0010
0000
0000
1000
0000
0000
1000
0000
,  // measure 99
0001
0000
0000
0001
1000
0000
0000
0000
0010
0000
0010
1000
0000
0001
0010
0000
,  // measure 100
0100
0000
0010
0000
0010
0000
0001
0000
1000
0000
0001
0100
0000
0001
1000
0000
,  // measure 101
0010
0000
1000
0000
0001
0000
1000
0000
0010
0000
0100
0010
0000
1000
0010
0000
,  // measure 102
1000
0000
0001
0000
0001
0000
0100
0000
0001
0000
0010
0100
0000
0010
0001
0000
,  // measure 103
1000
0000
0100
0000
0001
0000
0100
0000
1000
0000
0010
1000
0000
0010
0100
0000
,  // measure 104
0010
0000
1000
0000
1000
0000
0001
0000
0010
0000
0001
1000
0000
0100
1000
0000
,  // measure 105
0010
0000
1000
0010
1000
0000
0100
1000
0100
0000
0010
0100
0000
0010
0100
0000
,  // measure 106
0010
0001
0010
0000
0001
0000
0100
0001
0100
0000
0010
0100
0000
0010
0100
0000
,  // measure 107
0010
0000
1000
0001
1000
0000
0001
0100
0001
0000
1000
0001
0000
1000
0010
0000
,  // measure 108
1000
0001
0010
0000
0100
0000
0010
0001
1000
0000
0010
1000
0000
0001
0100
0000
,  // measure 109
0010
1000
0001
0100
0010
0100
1000
0100
,  // measure 110
0001
1000
0100
0010
0100
0001
0100
1000
,  // measure 111
0010
1000
0010
0100
0001
0100
0001
1000
0010
1000
0100
0010
0001
1000
0010
1000
,  // measure 112
0100
0000
0100
0000
0100
0000
0000
0000
0010
0000
0000
0000
0010
0001
1000
0100
,  // measure 113
0010
0100
1000
0010
0100
0000
0010
0100
0001
0010
0100
0000
1000
0000
0100
1000
,  // measure 114
0001
1000
0100
0010
0001
0100
0010
1000
0001
0000
0010
0100
0010
0000
0100
0000
,  // measure 115
1000
0010
0100
0001
1000
0000
0001
1000
0010
0000
1000
0100
0010
0001
1000
0010
,  // measure 116
0100
0001
0100
0010
1000
0001
0010
0000
0100
0000
0010
0000
0001
0010
0100
1000
,  // measure 117
0010
0100
0001
0010
0100
0000
1000
0100
0010
0000
0001
0000
1000
0000
0001
0100
,  // measure 118
0010
0100
0001
1000
0100
0010
0001
1000
0010
0000
1000
0000
0001
0000
0100
0000
,  // measure 119
0010
0100
0010
0100
0001
0100
0001
0100
0010
1000
0010
1000
0100
0010
0001
1000
,  // measure 120
0100
1000
0100
1000
0010
1000
0010
0100
0001
0100
0010
0000
1000
0000
0010
0100
,  // measure 121
0001
0000
0000
1001
0000
0000
1010
0000
0010
1000
0001
0000
0010
0100
0010
0001
,  // measure 122
0010
0100
1000
0010
0100
0001
0010
0001
1000
0000
0100
0010
0100
0000
0010
0000
,  // measure 123
0001
0010
0100
1000
0010
0000
0100
0010
0100
0001
0100
0010
1000
0100
0010
0001
,  // measure 124
1000
0001
0100
0010
1000
0010
0100
0001
0010
0000
0100
0000
2000
0000
0000
0000
,  // measure 125
3010
0000
0000
1000
0010
0000
0000
1000
0001
0000
0100
0010
0000
0100
0001
0000
,  // measure 126
0000
0010
0001
0000
0001
0000
1000
0010
1000
0000
1000
0001
0000
0100
0001
0000
,  // measure 127
0010
0100
0010
0100
0010
0100
0010
0000
,  // measure 128
0010
0000
0100
0000
0010
0000
0100
0000
0010
0000
0000
0000
0001
0000
1000
0001
,  // measure 129
1000
0000
0000
0000
0010
0000
1000
0000
1001
0000
0001
0000
0001
0000
0100
0010
,  // measure 130
0100
0000
0100
0000
0100
0000
0010
1000
0010
0000
0010
1000
0001
0000
0010
0000
,  // measure 131
0100
0000
0000
0000
1000
0000
0100
0000
0110
0000
0010
0000
0010
0000
0001
1000
,  // measure 132
0001
0000
0001
0000
0001
0000
0010
0001
0010
0000
0100
1000
0001
0000
0100
0000
,  // measure 133
0010
0000
0000
0000
1000
0000
0010
0000
0110
0000
0100
0000
0100
0000
0001
0100
,  // measure 134
0001
0000
0001
0000
0001
0000
1000
0001
1000
0000
1000
0001
0010
0000
0100
0000
,  // measure 135
1000
0000
0000
0000
0010
0000
1000
0000
1001
0000
0001
0000
0001
0000
1000
0100
,  // measure 136
1000
0000
1000
0000
1000
0000
0010
0100
0001
0100
0010
1000
0001
0000
1000
0000
,  // measure 137
0100
0000
0010
0100
0010
0010
0010
0001
,  // measure 138
0100
0100
0100
0010
1000
1000
0001
0100
,  // measure 139
0010
0000
0100
0010
1000
1000
1000
0010
,  // measure 140
0001
0001
0001
0010
1000
0100
0010
0001
,  // measure 141
1000
0000
0001
0100
0010
0010
0010
0100
,  // measure 142
0001
0001
0001
1000
0100
1000
0010
0100
,  // measure 143
0001
0000
0010
0100
1000
1000
1000
0100
,  // measure 144
0001
0001
0001
0100
1000
0010
0100
0001
;
