#TITLE:Burnt Rice;
#SUBTITLE:;
#ARTIST:Shawn Wasabi + ¥DG feat. Yung GEMMY;
#TITLETRANSLIT:;
#SUBTITLETRANSLIT:;
#ARTISTTRANSLIT:;
#GENRE:;
#CREDIT:;
#BANNER:burnt rice.png;
#BACKGROUND:burnt rice-bg.png;
#LYRICSPATH:;
#CDTITLE:;
#MUSIC:Burnt Rice.ogg;
#OFFSET:0.671441;
#SAMPLESTART:36.122627;
#SAMPLELENGTH:12.000000;
#SELECTABLE:YES;
#DISPLAYBPM:160.000000;
#BPMS:0.000000=160.000000
,65.000000=320.000000
,67.000000=160.000000
,256.000000=320.000000
,258.000000=160.000000
,304.000000=320.000000
,308.000000=160.000000
,308.500000=320.000000
,309.000000=160.000000
,309.250000=320.000000
,309.750000=160.000000
;
#STOPS:95.000000=0.094000,
95.250000=0.094000,
95.500000=0.094000,
95.750000=0.094000,
222.000000=0.094000,
222.250000=0.094000,
222.500000=0.094000,
222.750000=0.094000
;
#BGCHANGES:0.000=burnt rice.avi=1.000=0=0=0=StretchNoLoop====,
99999=-nosongbg-=1.000=0=0=0 // don't automatically add -songbackground-
;
#KEYSOUNDS:;
#ATTACKS:;

//---------------dance-single - ----------------
#NOTES:
     dance-single:
     :
     Hard:
     15:
     0.777027,1.041011,0.099346,0.066231,0.533985,657.000000,645.000000,12.000000,8.000000,0.000000,0.000000,0.777027,1.041011,0.099346,0.066231,0.533985,657.000000,645.000000,12.000000,8.000000,0.000000,0.000000:
0000
0000
0000
0000
,
0000
0000
0000
0000
,
0000
0000
0000
0000
,
0000
0000
0000
0000
,
0000
0000
0000
0000
1000
0000
0001
1000
,
0001
0100
0010
0000
1000
0010
0100
0010
,
1000
0000
0001
0000
1000
0000
0001
1000
,
0100
0010
0001
0000
0100
0010
1000
0100
,
0010
0100
0010
0100
0010
0001
1000
0000
,
0101
0001
0100
0010
1000
0010
0100
0001
,
0011
0010
0100
0010
0001
1000
0010
0100
,
0101
0010
1000
0100
1000
0010
0100
0001
,
0011
1000
1000
0001
0001
0100
0010
1000
,
1001
0100
0001
0100
1000
0100
0010
1000
,
0100
0000
0010
0000
0001
0010
0001
0010
0100
0000
1000
0000
0100
0000
0001
0000
,
0100
1000
0100
0010
0100
0010
0001
0100
,
0010
1000
0002
0000
0000
0003
1000
0100
,
1000
0000
0010
1000
0010
0100
0010
1000
,
0100
0000
0010
0000
0001
0000
0100
0001
0100
0000
0010
0000
1000
0000
0100
0000
,
1000
0100
0010
0001
0010
1000
0010
0001
,
0100
0000
0010
0000
1000
0000
0001
1000
0001
0000
0010
0100
0010
0000
0001
0000
,
1000
0010
0100
0001
1000
0100
0001
0100
,
1000
0000
0010
0000
1000
0000
0001
0100
0001
0000
1000
0000
0010
0000
1000
0000
,
0100
0000
1000
0000
0010
0000
0100
0000
0001
0010
0100
1000
0010
0010
0010
0010
,
0010
0000
1000
0000
0001
0000
0100
0000
0010
0000
0000
1000
0000
0000
0100
0000
,
0010
0000
0100
0000
1000
0000
0100
0010
0001
0000
0000
0100
0000
0000
0010
0000
,
0100
0000
0001
0000
1000
0000
0010
0100
0001
0000
0000
0010
0000
0000
0100
0000
,
1000
0000
0001
0000
0100
0000
0010
1000
0001
0000
0100
0001
0100
0000
0010
0000
,
1000
0000
0100
1000
0100
0000
0010
0001
1000
0000
0000
0010
0000
0000
0100
0000
,
0001
0000
0010
0000
0001
0000
0100
0010
1000
0000
0000
0001
0000
0000
0100
0000
,
0010
0000
0100
0000
0001
0000
0010
0100
1000
0100
1000
0100
1000
0001
0100
0001
,
0010
0001
0010
0100
0010
0100
0010
0001
0010
0001
1000
0010
1000
0010
1000
0100
,
1000
0000
0001
1000
0001
0000
0100
0010
0100
0000
0000
0001
0000
0000
0010
0000
,
0100
0000
1000
0100
1000
0000
0001
0010
0100
0000
0000
1000
0000
0000
0001
0000
,
0100
0000
0010
0000
0100
0000
0001
1000
0100
0000
0000
0001
0000
0000
0100
0000
,
1000
0000
0010
0000
1000
0000
0010
1000
0100
0000
0000
0001
0000
0000
0100
0000
,
1000
0000
0010
1000
0001
0000
0100
0001
0010
0000
0100
0010
0000
0100
1000
0000
,
0001
0000
1000
0000
0100
0000
1000
0001
0010
0000
0000
0001
0000
0000
1000
0000
,
0100
0000
1000
0000
0010
0000
0100
0001
0010
0000
0000
0100
1000
0010
1000
0010
,
0100
0000
0001
0010
0001
0000
1000
0000
0010
0000
0000
0001
0000
0000
0010
0000
,
1000
1000
0001
1000
0010
0000
0010
0000
,
0010
0000
0010
0100
0001
0000
0001
0000
,
0001
0000
0000
0001
0000
0000
0010
0000
0100
0000
0000
0000
0100
0000
0000
0000
,
0100
0000
0100
0010
0001
1000
0001
0000
,
0100
0001
0100
0001
1000
0010
1000
0010
0100
0000
0000
0000
0100
0000
0000
0000
,
0100
0000
0000
0000
0100
0000
0010
0000
1000
0010
0000
0000
0100
0000
0000
0000
,
0001
0010
0000
0100
0000
0000
1100
0000
2002
0000
0000
0000
0003
0000
3001
0000
,
0220
0000
0000
0300
0000
0000
0130
0000
0000
0010
0000
0000
1000
0000
0000
0100
0000
0000
0010
0000
0001
0000
1000
0000
,
0100
0000
0000
0000
1000
0000
0000
0000
0010
0000
0000
0000
0100
0000
0000
0001
0000
0000
0100
0000
0000
0001
0000
0000
,
0010
0100
1000
0100
0001
0100
1000
0010
,
0100
0000
0010
1000
0010
0000
0100
0000
0001
0000
1000
0000
0010
0000
0100
0000
,
0001
0010
0001
0100
0001
0010
0100
1000
,
0010
0000
1000
0010
0100
0000
0001
1000
0010
0000
1000
0000
0100
0000
1000
0000
,
0001
0100
0010
0100
0001
0010
0100
1000
,
0100
0000
0010
0001
1000
0000
0010
1000
0010
0000
1000
0000
0100
0000
0001
0000
,
0100
0000
1000
0000
0010
0100
0001
0010
0100
0100
0100
0100
0100
0000
0010
0000
,
0100
0000
1000
0000
0010
0000
0000
0010
0100
0000
0001
0000
1000
0000
0000
0000
,
0110
0000
0010
1000
0001
0000
0000
0010
0001
0000
0010
0000
1000
0000
0010
0000
,
0001
0000
1000
0100
0010
0000
0000
0001
0000
0000
0010
0000
0100
0000
1000
0000
,
0010
0000
1000
0001
0000
0000
0100
0000
0010
0000
1000
0000
0001
0000
0010
0001
,
0010
0000
0100
1000
0100
0000
0000
0001
0100
0000
1000
0000
0010
0000
0000
0000
,
1001
0000
0001
1000
0010
0000
0000
0010
0100
0000
0001
0000
0010
0000
0100
0000
,
1000
0000
0100
0010
0001
1000
0001
1000
0010
1000
0001
0010
0100
1000
0100
1000
,
0100
0010
0001
0010
0001
0100
0010
0100
0010
0000
1000
0000
0100
0000
0010
0000
,
0002
0000
0000
0000
0000
0000
0003
0000
0100
0000
0000
0001
0100
0000
0010
0000
,
1000
0100
1000
0000
0100
0000
0010
0001
0100
0000
0000
0001
1000
0000
0010
0000
,
0100
0001
0010
0000
0100
0000
0010
0001
1000
0000
0000
0001
1000
0000
0001
0000
,
0100
0010
0100
0000
0010
0000
1000
0100
0010
0000
0000
0001
0010
0000
0100
0000
,
0010
0001
1000
0100
0010
0000
0100
0010
0001
0000
0000
0001
0010
0000
0100
0000
,
1000
0100
1000
0000
0010
0000
0100
0010
1000
0000
0000
0001
1000
0000
0100
0000
,
0010
0001
0010
0000
0100
0000
0010
0100
1000
0000
0000
1000
0010
0000
0100
0000
,
0001
0100
0010
0000
1000
0000
0100
1000
0010
0000
0000
0100
0001
0000
0010
0000
,
0001
0010
0100
0000
1000
0000
0100
0010
0001
0000
0000
0000
0001
0000
0010
0000
,
0001
1000
0001
0000
0001
0100
0010
1000
,
0100
0000
1000
0000
1001
0000
0001
0010
0100
0000
0000
0000
1000
0000
0100
0000
,
1000
0001
1000
0000
0010
1000
0001
0100
,
2020
0000
0000
0000
,
3030
0000
0000
0000
0010
1000
0000
0001
,
0010
0000
0001
0000
0010
0000
0100
0000
1000
0000
0100
0000
0001
0000
0100
0010
,
0001
1000
0100
0000
0000
0000
1000
0000
0010
0000
0100
0000
0001
0000
0100
0000
,
0000
0001
1000
0010
0100
0001
0100
1000
,
0100
0010
0001
0000
0000
0000
0000
0000
0000
0000
0000
0000
0000
0000
0000
0000
;

//---------------dance-single - ----------------
#NOTES:
     dance-single:
     :
     Medium:
     12:
     0.611451,0.602595,0.264923,0.074509,0.206971,517.000000,485.000000,32.000000,9.000000,0.000000,0.000000,0.611451,0.602595,0.264923,0.074509,0.206971,517.000000,485.000000,32.000000,9.000000,0.000000,0.000000:
0000
0000
0000
0000
,
0000
0000
0000
0000
,
0000
0000
0000
0000
,
0000
0000
0000
0000
,
0000
0000
0000
0000
0001
0000
0010
0100
,
1000
0000
0010
0000
0010
1000
0100
0001
,
0100
0000
1100
0000
1010
0000
0010
1000
,
0001
0000
0101
0000
0010
1000
0010
0100
,
0001
0010
0010
0010
0001
1000
0001
0000
,
0101
0100
0010
1000
0010
1000
0001
1000
,
0100
0010
0100
0010
0001
0010
0100
1000
,
0001
0010
0100
0010
0010
0001
1000
0010
,
0100
0001
0001
0000
1000
1000
0010
0000
,
1010
0010
1000
0100
1000
0010
0100
0001
,
0010
0001
0100
1000
0100
0001
0010
0100
,
0001
0100
1000
0010
1000
0001
1000
0010
,
0100
0001
0020
0000
0000
0000
0031
0000
,
1100
0000
0011
0000
0001
0010
0100
0000
,
0100
0000
0000
0000
1000
0000
0000
0100
0000
0000
0001
0000
0010
0000
0000
0000
,
0011
0000
1100
0000
0010
1000
0001
0000
,
0100
0000
0000
0000
0010
0000
0000
1000
0000
0000
0001
0000
0100
0000
0000
0000
,
0011
0000
1010
0000
0001
0100
0010
0000
,
1000
0000
0000
0000
0100
0000
0000
0010
0000
0000
0001
0000
1000
0000
0010
0000
,
0100
0000
0010
0000
1000
0000
0100
0000
0010
0001
0010
0001
0000
0000
0000
0000
,
0010
0000
1000
0000
0001
0000
0100
0000
0001
0000
0000
0100
0000
0000
0010
0000
,
1000
0000
0001
0000
1000
0000
0100
0000
0010
0000
0000
0001
0000
0000
1000
0000
,
1100
0000
0000
0000
0010
0000
0100
0000
0010
0000
0000
0001
0000
0000
0100
0000
,
0101
0000
0000
0000
0010
0000
1000
0000
0010
0000
0000
0100
0000
0000
0001
0000
,
1000
0000
0001
0000
1001
0000
0000
0000
0010
0000
0000
0100
0000
0000
1000
0000
,
1010
0000
0000
0000
0010
0000
0100
0000
0010
0000
0000
0001
0000
0000
0010
0000
,
1000
0000
0000
0000
1000
0000
0001
0000
1000
0000
0100
0000
1000
0000
0001
0010
,
0001
0000
0010
0000
0001
0000
1000
0001
1000
0000
0000
0010
0000
0000
0100
0000
,
0010
0000
1000
0000
0001
0000
0000
0000
0001
0000
0000
0010
0000
0000
0100
0000
,
0010
0000
0001
0000
1100
0000
0000
0000
0010
0000
0000
0100
0000
0000
1000
0000
,
1100
0000
0000
0000
1000
0000
0100
0000
0010
0000
0000
0001
0000
0000
0100
0000
,
0101
0000
0000
0000
0010
0000
1000
0000
0001
0000
0000
0100
0000
0000
0010
0000
,
1000
0000
0001
0000
1001
0000
0000
0000
0100
0000
0000
0010
0000
0000
0001
0000
,
0011
0000
0000
0000
0001
0000
1000
0000
0010
0000
0000
0100
0000
0000
0010
0000
,
1010
0000
0000
0000
0100
0000
0010
0000
0100
0000
0000
0100
0001
0000
1000
0000
,
0001
0000
0000
0001
0010
0000
0100
0000
0020
0000
0000
0001
0000
0000
0031
0000
,
0100
0100
0010
0100
0010
0000
0010
0000
,
0010
0000
0010
1000
0100
0000
0100
0000
,
0100
0000
0000
0010
0000
0000
0001
0000
0010
0000
0000
0000
0010
0000
0000
0000
,
0010
0000
0010
0100
1000
0000
0010
0000
,
0100
0000
0000
0001
0000
0000
0010
0000
0001
0000
0000
0000
0001
0000
0000
0000
,
0001
0000
0001
0100
0010
0000
1000
0000
,
1000
0100
0000
0010
0000
0000
0001
0000
2002
0000
3000
0000
0003
0000
1000
0000
,
2010
0000
0000
3000
0000
0000
0100
0000
0000
0100
0000
0000
0210
0000
0000
0300
0000
0000
0010
0000
0100
0000
0010
0000
,
0200
0000
0000
0000
1000
0000
0000
0000
1000
0000
0000
0000
1300
0000
0000
0010
0000
0000
1000
0000
0000
0000
0000
0000
,
0010
0100
0010
1000
0001
0010
0100
1000
,
0100
0000
0000
0001
0000
0000
0100
0000
1000
0000
0100
0000
0010
0000
0001
0000
,
1000
0010
0100
0010
1000
0010
0001
0010
,
1000
0000
0000
0001
0000
0000
1000
0000
0100
0000
0010
0000
0100
0000
0000
0000
,
0010
0001
1000
0001
0010
0100
1000
0010
,
0100
0000
0000
0001
0000
0000
0100
0000
0010
0000
1000
0000
0001
0000
1000
0000
,
0100
0010
0001
0100
0000
0000
0100
0010
,
1000
0001
1001
0000
0101
0000
1010
0000
,
0100
0000
0010
0000
0100
0000
0000
0001
0000
0000
0100
0000
0110
0000
0000
0000
,
1000
0000
0001
0000
1000
0000
0000
0010
0000
0000
0100
0000
0001
0000
0010
0000
,
0100
0000
1000
0001
0000
0000
0100
0000
0010
0000
1000
0000
0010
0000
1000
0000
,
0001
0000
0010
0000
0100
0000
0000
1000
0000
0000
0010
0000
1010
0000
0000
0000
,
0001
0000
1000
0000
0010
0000
0000
1000
0000
0000
0100
0000
1100
0000
0000
0000
,
1000
0000
0001
0000
0010
0000
0000
0001
0000
0000
0100
0000
0001
0000
0100
0000
,
1000
0000
0100
0001
0000
0000
0001
0000
0001
0000
0010
0000
0010
0000
0100
0000
,
2000
0000
0000
0000
0000
0000
0000
0000
3010
0000
0000
0100
0010
0000
0100
0000
,
0010
0000
1000
0000
0010
0000
1000
0000
0001
0000
0000
1000
0001
0000
1000
0000
,
0010
0000
1000
0000
0010
0000
1000
0000
0100
0000
0000
0010
0100
0000
0010
0000
,
0100
0000
0010
0000
0001
0000
0010
0000
0001
0000
0000
1000
0100
0000
1000
0000
,
0100
0000
1000
0000
0010
0000
0100
0000
0001
0000
0000
1000
0001
0000
1000
0000
,
0100
0000
1000
0000
0100
0000
1000
0000
0010
0000
0000
0100
0001
0000
0100
0000
,
0001
0000
0100
0000
0010
0000
0100
0000
0010
0000
0000
1000
0000
0000
0001
0000
,
0100
0010
0100
0000
0010
0000
0000
0000
0100
0000
0000
0001
0000
0000
0010
0000
,
0100
1000
0100
0100
1000
0000
1000
0010
,
0100
0000
0010
0000
0010
0001
0010
1000
,
0100
0000
0011
0000
1100
0000
0001
0010
,
0001
0000
1000
0000
1000
0001
0100
0010
,
2000
0000
0000
0000
,
3000
0000
0000
0000
0010
1000
0000
0100
,
0000
0100
1000
0001
1000
0100
0000
0010
,
0000
0001
0000
0010
0001
0100
0000
0010
,
0000
1000
0001
0100
0010
1000
0000
0001
;

//---------------dance-single - ----------------
#NOTES:
     dance-single:
     :
     Easy:
     8:
     0.402115,0.402351,0.182134,0.132461,0.004139,340.000000,318.000000,22.000000,16.000000,0.000000,0.000000,0.402115,0.402351,0.182134,0.132461,0.004139,340.000000,318.000000,22.000000,16.000000,0.000000,0.000000:
0000
0000
0000
0000
,
0000
0000
0000
0000
,
0000
0000
0000
0000
,
0000
0000
0000
0000
,
0000
0000
0010
1000
,
0100
0000
1000
0000
0001
1000
0001
0000
,
0010
0100
0010
0100
,
1000
0000
0010
0000
0100
0010
0100
0000
,
0010
1000
0010
0000
1000
0000
0001
0000
,
0101
0001
0010
0100
,
0010
0100
0010
0000
0100
0000
1000
0000
,
1001
0100
0010
1000
,
0001
0100
0001
0000
1000
0000
0100
0000
,
1100
0010
0100
0010
,
0100
0010
0100
0000
0001
0000
0010
0000
,
0100
1000
0010
1000
,
0001
0020
0000
0031
,
0001
0000
0001
0000
0010
0100
0010
0000
,
0010
0010
0001
1000
,
1000
0000
1000
0000
1000
0010
1000
0000
,
0100
0110
0110
0010
,
0100
0000
0010
0000
0001
1000
0001
0000
,
0100
0010
1000
0010
,
1000
0000
0001
1000
0001
1000
0000
0000
,
0000
0000
0000
0000
1000
0000
0000
1000
,
0010
0000
0100
0000
0100
0000
0000
0100
,
0010
0000
0010
0000
1000
0000
0000
0100
,
0010
0000
0010
0000
0001
0000
0000
0100
,
0001
0101
0110
0010
,
1010
0000
1000
0000
0100
0000
0000
0100
,
0010
0000
0100
0000
1000
0000
0000
0001
,
1000
0000
1000
0001
1000
0000
0010
0000
,
0101
0001
1000
0000
,
1100
0000
0011
0000
0010
0000
0000
0010
,
0100
0000
1000
0000
0010
0000
0000
1000
,
0001
0000
1000
0000
0100
0000
0000
0100
,
0010
0110
0001
1000
,
1010
0000
0010
0000
1000
0000
0000
1000
,
0001
0000
0010
0000
0100
0000
0000
0100
,
0010
0110
0001
1000
,
0010
1000
0010
1000
0100
0000
1000
0000
,
0001
1000
0100
0010
,
0001
0000
0100
0010
0100
0000
0010
0000
,
1000
0001
0010
0100
,
1000
0001
1000
0001
1000
0000
0100
0000
,
0010
0001
0100
0010
,
1000
0000
0001
0000
2002
0000
3003
0020
,
2000
0000
3030
0000
0220
0000
0000
0330
,
2002
0000
0000
3003
0010
0000
1000
0000
,
0100
0000
0010
0100
0010
0000
0001
0000
,
1000
0010
0100
0001
,
1000
0000
0010
1000
0010
0000
0001
0000
,
0010
1000
0001
1000
,
0100
0000
0010
0001
0010
0000
0001
0000
,
1000
0001
0100
0010
,
1000
0100
1000
0100
0000
0000
0000
0000
,
0000
0100
0100
1001
,
0000
0001
1100
0100
,
0100
0010
0100
0000
0010
0000
0001
0000
,
0001
1000
0000
0000
1000
0000
0010
0000
,
0100
0000
0000
0000
0010
0000
0000
1000
0000
0000
0010
0000
1000
0000
0000
0000
,
0000
1000
1001
0001
,
1000
0000
0010
0000
1000
0000
0100
0010
,
0100
0010
1000
0001
,
2000
0000
3001
0001
,
0010
0001
0010
0010
,
0100
0010
0100
0100
,
1000
0010
1000
1000
,
0010
0100
0010
1000
,
0001
1000
0001
0000
0010
0000
0001
0000
,
0010
0001
0010
0000
0100
0000
0010
0000
,
0100
0010
0100
0000
0020
0000
1000
0000
,
0100
0000
0130
0000
2000
0000
0000
0010
,
0010
0000
0010
0000
0000
0010
0010
0000
,
3010
0000
0101
0000
0002
0000
0000
0010
,
0010
0000
0010
0000
0000
0010
0010
0003
,
0200
0000
0000
0000
,
0300
0000
0000
0000
0000
1001
0000
0200
,
0000
0000
0010
0010
0000
0301
0000
1000
,
0001
2000
0000
0000
0100
0100
0000
0001
,
0000
0000
0010
3010
0000
0100
0010
0100
,
0001
0000
0000
0000
;

//---------------dance-single - ----------------
#NOTES:
     dance-single:
     :
     Beginner:
     6:
     0.277932,0.334775,0.165577,0.000000,0.000000,235.000000,215.000000,20.000000,0.000000,0.000000,0.000000,0.277932,0.334775,0.165577,0.000000,0.000000,235.000000,215.000000,20.000000,0.000000,0.000000,0.000000:
// measure 0
0000
0000
0000
0000
,  // measure 1
0000
0000
0000
0000
,  // measure 2
0000
0000
0000
0000
,  // measure 3
0000
0000
0000
0000
,  // measure 4
0000
0000
0010
0000
,  // measure 5
0010
1000
0000
1000
,  // measure 6
0001
1000
0010
0000
,  // measure 7
0100
0100
0000
0010
,  // measure 8
1000
0000
0001
0000
,  // measure 9
1001
0000
0010
1000
,  // measure 10
0001
0000
0010
0100
,  // measure 11
0100
0010
0001
0010
,  // measure 12
0100
0000
1000
0000
,  // measure 13
1010
0000
0010
0100
,  // measure 14
0001
0000
1000
0000
,  // measure 15
0100
0000
0010
0000
,  // measure 16
0001
0000
0000
1000
,  // measure 17
0000
1000
0001
1000
,  // measure 18
0000
0010
0100
0001
,  // measure 19
0010
0001
1000
0100
,  // measure 20
1000
0010
0100
0010
,  // measure 21
0000
1000
0001
1000
,  // measure 22
0000
0100
0010
0001
,  // measure 23
1000
0001
1000
0000
,  // measure 24
0000
0000
0010
0000
,  // measure 25
1000
1000
1000
0000
,  // measure 26
1001
0000
0001
0000
,  // measure 27
1001
0000
0010
0010
,  // measure 28
0011
0000
0001
0000
,  // measure 29
0101
0000
0010
0010
,  // measure 30
1010
0000
0100
1000
,  // measure 31
0100
0010
0001
0010
,  // measure 32
0100
1000
0010
0000
,  // measure 33
1010
0000
1000
1000
,  // measure 34
1001
0000
0100
0000
,  // measure 35
0011
0000
0010
0010
,  // measure 36
0110
0000
0001
0000
,  // measure 37
1001
0000
1000
1000
,  // measure 38
1010
0000
0100
1000
,  // measure 39
1000
0010
0010
0100
,  // measure 40
0000
0000
0010
0010
,  // measure 41
0010
0000
1000
1000
,  // measure 42
0001
1000
0100
0100
,  // measure 43
0100
0000
0010
0001
,  // measure 44
0010
0100
1000
1000
,  // measure 45
1000
0000
0010
0010
,  // measure 46
1000
0000
0001
0000
,  // measure 47
1000
0000
0010
0000
,  // measure 48
0100
0000
0010
0010
,  // measure 49
0010
0000
1000
0001
,  // measure 50
1000
0100
0010
0001
,  // measure 51
0010
0000
0100
0100
,  // measure 52
1000
0001
1000
1000
,  // measure 53
1000
0000
0010
1000
,  // measure 54
0001
0100
0010
0010
,  // measure 55
0010
0010
0000
0000
,  // measure 56
0000
0010
0000
0000
,  // measure 57
1001
1000
0000
1001
,  // measure 58
0000
0010
0000
0011
,  // measure 59
0000
0000
0010
0011
,  // measure 60
0010
0010
0000
1100
,  // measure 61
0000
1000
0001
1001
,  // measure 62
0000
1000
0010
0010
,  // measure 63
0100
0100
0001
1000
,  // measure 64
0001
0000
1000
0000
,  // measure 65
0010
1000
0001
0000
,  // measure 66
0100
0001
1000
0000
,  // measure 67
0010
1000
0100
0000
,  // measure 68
0010
0100
0010
0000
,  // measure 69
0001
0010
1000
0000
,  // measure 70
1000
0001
0100
0000
,  // measure 71
1000
0100
0001
0000
,  // measure 72
0000
0000
1000
0000
,  // measure 73
1000
0010
0000
0010
,  // measure 74
1000
1001
0001
0000
,  // measure 75
0010
0001
0000
0100
,  // measure 76
0010
0000
0000
0000
,  // measure 77
0000
0000
0000
0000
0000
1000
0000
0010
,  // measure 78
0000
0000
0000
1000
0000
0010
0000
0100
,  // measure 79
0000
0001
0000
0000
0000
1000
0000
0001
,  // measure 80
0000
0000
0000
0010
0000
0100
0000
0010
;

//---------------pump-double - ----------------
#NOTES:
     pump-double:
     :
     Challenge:
     1:
     1.260748,1.625549,2.591274,0.124182,0.467754,1066.000000,587.000000,313.000000,15.000000,0.000000,135.000000,1.260748,1.625549,2.591274,0.124182,0.467754,1066.000000,587.000000,313.000000,15.000000,0.000000,135.000000:
0000000000
0000000000
0000000000
0000000000
0000000001
0000000000
0000000010
0000000100
,
0000010000
0000000000
0000001000
0000000000
0000010000
0000000001
0000000010
0000000100
,
0000010000
0000000000
0000001000
0000000000
0000000001
0000000000
0000000010
0000000100
,
0000010000
0000000000
0000001000
0000000000
0000000001
0000010000
0000001000
0000000100
,
0000000001
0000000000
0000000010
0000000000
1010000001
0000000000
1000000010
0010000100
,
1000010000
0100000000
1010001000
0000000000
1000010000
0100000001
1010000010
0000000100
,
1010010000
0001000000
0000000000
0000000000
1010001000
0001000000
0000000000
0000000000
1010000001
0000000000
0000000000
0000000000
1000000010
0000000000
0010000100
0000000000
,
1000010000
0100000000
1010001000
0000000000
1000000001
0100010000
1010001000
0000000100
,
1010000001
0000000000
1010001000
0001000010
1000110001
0000000000
1000000010
0010000100
,
1001010000
0000000000
1000001000
0000000000
1000010000
0000100001
1000100010
0000000100
,
1001010000
0000000000
1000001000
0000100000
1000100001
0000000000
1000000010
0010000100
,
1001010000
0000000000
1000001000
0010000000
1000000001
0000110000
1000101000
0000000100
,
1001000001
0000000000
1000010010
0000100000
1010110001
0000000000
1000000010
0010000100
,
1001010000
0100000000
1010001000
0000000000
1000010000
0100100001
1010100010
0000000100
,
1001010000
0000000000
1010101000
0000000000
1000100001
0000000000
0000000010
0000000100
,
0000010000
0000000000
0000001000
0000000000
0000000001
1000010000
0200001000
0300000100
,
0010000001
0000000000
0000000000
0010000000
0001000000
0000000000
0000000000
0000000000
0000000000
0000000000
0000000000
0000000000
0000100001
0000000000
0000000000
0000000000
,
0000100001
0000000000
0000100001
0000000000
0000100001
0000100010
0000100100
0000000000
,
0000100100
0000000000
0000000000
0000000000
0000101000
0000000000
0000000000
0000100100
0000000000
0000000000
0010100001
0000000000
0000100010
0000000000
0000000000
0000000000
,
0000100010
0000000000
0000100010
0000000000
0000100010
0000100100
0000101000
0000000000
,
0000101000
0000000000
0000000000
0000000000
0010100001
0000000000
0001000000
0000100001
0010000000
0000000000
0001001000
0000000000
1100110100
0000000000
0001000000
0000000000
,
1000110100
0001000000
1000110100
0001000000
1000110100
0001110100
1000110100
0001000000
,
1000110100
0000000000
0001000000
0000000000
1000111000
0000000000
0001000000
0000110100
1000000000
0000000000
0010110001
0000000000
1001100200
0000000000
0001100000
0000000000
,
1000100000
0001100000
1000100000
0001100000
1000100000
0000000000
0010100300
0000000000
,
0000000000
0000000000
0000000000
0000000000
0000000000
0000000000
0000000000
0000000000
0000000000
0000000000
0000000000
0000000000
0000000100
0000000000
0000000000
0000000000
0000000000
0000000000
0000000000
0000000000
0000000000
0000000000
0000000000
0000000000
0000000100
0000000010
0000000001
0000000000
0000000000
0000000000
0000000000
0000000000
0000000000
0000001000
0000000100
0000000010
0000000000
0000000000
0000000000
0000000000
0000000000
0000000000
0000000100
0000000010
0000000001
0000000000
0000000000
0000000000
,
0000010010
0000000000
0000000001
0000000000
0000110000
0000000000
0000001000
0000010000
0000001000
0000000000
0000000000
0000000001
0000100000
0000000000
0000010000
0000000000
,
0001000010
0000000000
0000000001
0000000000
0000010000
0000000000
0000001000
0000010000
0000101000
0000000000
0000000000
0000000001
0000000000
0000000000
0000010000
0000000000
,
0001000010
0000000000
0000000001
0000000000
0000010000
0000000000
0010001000
0000010000
0000001000
0000000000
0001000000
0000000001
0000100000
0000000000
0000000010
0000000000
,
1001000100
0000000000
0000000000
0000000000
0000000000
0000000000
0000010000
0000000000
0000000000
0000000000
0000000000
0000000000
1000101000
0000000000
0000000000
0000000000
0000000000
0000000000
0000000000
0000000000
0000000000
0000000000
0000000000
0000000000
0100000100
0000000010
0000000001
0000000000
0000000000
0000000000
0000000000
0000000000
0000000000
1000001000
0000000100
0000000010
0000000000
0000000000
0000000000
0000000000
0000000000
0000000000
0001000100
0000000010
0000000001
0000000000
0000000000
0000000000
,
0010010010
0000000000
0000000001
0000000000
0100110000
0000000000
0000001000
0000010000
0000001000
0000000000
0000000000
0000000001
0000100000
0000000000
0000010000
0000000000
,
0001000010
0000000000
0000000001
0000000000
0000010000
0000000000
0000001000
0000010000
0011101000
0000000000
0001000000
0000000001
0001000000
0000000000
0011110000
0000000000
,
0001100010
0000000000
0001100001
0000000000
0011110000
0000000000
0001001000
0000010000
0001001000
0000000000
0010100000
0100000001
0011100000
0000000000
0000000010
0000000000
,
0010100100
0000000000
0000000000
0000000000
0000000000
0000000000
0000010000
0000000000
0000000000
0000000000
0000000000
0000000000
0000101000
0000000000
0000000000
0000000000
0000000000
0000000000
0000000000
0000000000
0000000000
0000000000
0000000000
0000000000
1000000100
0000000010
0000000001
0000000000
0000000000
0000000000
0000000000
0000000000
0000000000
0001001000
0000000100
0000000010
0000000000
0000000000
0000000000
0000000000
0000000000
0000000000
0000100100
0000000010
0000000001
0000000000
0000000000
0000000000
,
1110010010
0000000000
0001000001
0000000000
1000110000
0000000000
0000001000
0000010000
1000001000
0000000000
0001000000
0000000001
1000100000
0000000000
0000010000
0000000000
,
1010000010
0000000000
0000000001
0000000000
1000010000
0000000000
0000001000
0000010000
1000101000
0000000000
0000000000
0000000001
1000000000
0000000000
0000010000
0000000000
,
1010000010
0000000000
0001000001
0000000000
1000010000
0000000000
0010001000
0000010000
1000001000
0000000000
0001100000
0000000001
1000100000
0000000000
0000000010
0000000000
,
1010100100
0000000000
0000000000
0000000000
0000000000
0000000000
0000010000
0000000000
0000000000
0000000000
0000000000
0000000000
1110001000
0000000000
0000000000
0000000000
0000000000
0000000000
0000100000
0000000000
0000000000
0000000000
0000000000
0000000000
1000100100
0000000010
0000000001
0000000000
0000000000
0000000000
0000000000
0000000000
0000000000
0000101000
0000000100
0000000010
1000000000
0000000000
0000000000
0000000000
0000000000
0000000000
0000100100
0000000010
0000000001
0000000000
0000000000
0000000000
,
1010010010
0000000000
0001000001
0000000000
0100110000
0000000000
0000001000
0000010000
1000001000
0000000000
0001000000
0000000001
1000100000
0000000000
0000010000
0000000000
,
1010000010
0000000000
0000000001
0000000000
1000010000
0000000000
0000001000
0000010000
0010101000
0000000000
0000000000
0000000001
0010000000
0000000000
0000110000
0000000000
,
0011000100
0000000000
0100001000
0010000001
0000100000
0000000000
0000010000
0000000000
1000001000
0000000000
0000000000
0000000001
1000000000
0000000000
0000000010
0000000000
,
0000000001
0000010000
0100000010
0000001000
1000000001
0000000000
0000000001
0000000000
,
0000000001
0000000000
0000000001
0000000010
0000000100
0000000000
0000000100
0000000000
,
0000001000
0000000000
0000000000
0000000100
0000000000
0000000000
0000000001
0000000000
0000000010
0000000000
0000000000
0000000000
0000000010
0000000000
0000000000
0000000000
,
0000000010
0000000000
0010000010
0100100100
1000001000
0000100000
0100001000
0000000000
,
0020200001
0000000000
0030000000
0000000001
0002000000
0000000000
0003301000
0000000000
0000000001
0000000000
0000000000
0000000000
0000000001
0000000000
0000000000
0000000000
,
0000000001
0000000000
0000000000
0000000000
0000000001
0000000000
1000000010
0000000000
0010000100
0001000000
1000000000
0000000000
0000100100
0000000000
1000000000
0000000000
,
0001001000
0000100000
0000000000
0001000100
0000000000
0000000000
0010000001
0000000000
1001100020
0000000000
0001000000
0000000000
0001000000
0000000000
1001000000
0000000000
,
0100100032
0100000000
1000000000
0010000000
0100100023
0010000000
1000000000
0000000031
,
1001101000
0000000000
0000100001
0000100001
,
0000100001
0000000000
0000100001
0000100010
0000100100
0000000000
0000100100
0000000000
,
0000101000
0000000000
0000000000
0000100100
0000000000
0000000000
0010100001
0000000000
0000100010
0000000000
0000000000
0000000000
0000100010
0000000000
0000000000
0000000000
,
0000100010
0000000000
0000100010
0000100100
0000101000
0000000000
0000101000
0000000000
,
0010100001
0000000000
0001000000
0000100001
0010000000
0000000000
0001001000
0000000000
1100110100
0000000000
0001000000
0000000000
1000110100
0000000000
0001000000
0000000000
,
1000110100
0001000000
1000110100
0001110100
1000110100
0001000000
1000110100
0001000000
,
1000111000
0000000000
0001000000
0000110100
1000000000
0000000000
0010110001
0000000000
1001100200
0000000000
0001100000
0000000000
1000100000
0000000000
0001100000
0000000000
,
1000100000
0001100000
1000100000
0000000000
0010100300
0000000000
0000000000
0000000000
,
0000000100
0000000000
0000000000
0000000000
0000000000
0000000000
0000000000
0000000000
0000000000
0000000000
0000000000
0000000000
0010000100
0000000010
0000000001
0000000000
0000000000
0000000000
0000000000
0000000000
0000000000
0000001000
0000000100
0000000010
0010000000
0000000000
0000000000
0000000000
0000000000
0000000000
0000000111
0000000000
0000000000
0000000000
0000000000
0000000000
0010000000
0000000000
0000000000
0000000000
0000000000
0000000000
0001000000
0000000000
0000000000
0000000000
0000000000
0000000000
,
0110110000
0000000000
0000001000
0000010000
1000001000
0000000000
0000000000
0000000001
1000100000
0000000000
0000010000
0000000000
1010000001
0000000000
0000001000
0000000000
,
1000010000
0000000000
0000000100
0000010000
1000101000
0000000000
0000000000
0000000001
1000000000
0000000000
0000010000
0000000000
1010000001
0000000000
0000001000
0000000000
,
1000010000
0000000000
0010001000
0000000100
0000000000
0000000000
0001001000
0000000000
1000101000
0000000000
0000001000
0000000000
1010101000
0000000000
0000010000
0000000000
,
1010100100
0000000000
0000000000
0000000000
0000000000
0000000000
0000010000
0000000000
0000000000
0000000000
0000000000
0000000000
0010100100
0000000010
0000000001
0000000000
0000000000
0000000000
0000000000
0000000000
0000000000
1000101000
0000000100
0000000010
0000000000
0000000000
0000000000
0000000000
0000000000
0000000000
0101000111
0000000000
0000000000
0000000000
0000000000
0000000000
0010000000
0000000000
0000000000
0000000000
0000000000
0000000000
0001000000
0000000000
0000000000
0000000000
0000000000
0000000000
,
0110110000
0000000000
0000001000
0000010000
1000001000
0000000000
0000000000
0000000001
1000100000
0000000000
0000010000
0000000000
1010000001
0000000000
0000001000
0000000000
,
1000010000
0000000000
0000000100
0000010000
0011101000
0000000000
0001000000
0000000001
0001000000
0000000000
0011110000
0000000000
0011100001
0000000000
0001101000
0000000000
,
0011110000
0000000000
0001001000
0000000100
0001000000
0000000000
0010102000
0100000000
0011100000
0000000000
0000000000
0000000000
1000100000
0000000000
0000003000
0000000000
,
1000100000
0000000000
0000000000
0000000000
0000000000
0000000000
0000000000
0000000000
0000100001
0000000000
0000000000
0000100010
0000100010
0000000000
1000100100
0000000000
,
0010000001
0000001000
0000001000
0000000000
1000110000
0000000000
0010001000
0000010000
0000000100
0000000000
0000000000
0000100010
0000100010
0000000000
0000100100
0000000000
,
0010000001
0000001000
0000001000
0000000000
0000110000
0000000000
0010001000
0000010000
0000100100
0000000000
0000000000
0000100010
0000100010
0000000000
0000100100
0000000000
,
0010000001
0000001000
0000001000
0000000000
0000110000
0000000000
0100001000
0010010000
0000001000
0000000000
0000000000
0001000001
0000100001
0000000000
0000100010
0000000000
,
1010000100
0000100100
0000110000
0000000000
1000101000
0000000000
0010000000
0100000000
0000100100
0000000000
0000000000
0000101000
1000001000
0000000000
0001010000
0000000000
,
0010000001
0000001000
0000001000
0000000000
1000110000
0000000000
0010001000
0000010000
0000000100
0000000000
0000000000
0000100010
0000100010
0000000000
0000100100
0000000000
,
0010000001
0000001000
0000001000
0000000000
0000110000
0000000000
0010001000
0000010000
0000100100
0000000000
0000000000
0000100010
0000110010
0000000000
0000100100
0000000000
,
0010100001
0010101000
0010101000
0000000000
0010110000
0000000000
0100001000
0010010000
0000001000
0000000000
0000000000
0000000001
0000000001
0000000000
0000000010
0000000000
,
0000000100
0000000100
0000010000
0000000000
0000000100
0000000000
0010001000
0100000000
0000110001
0000000000
0000000000
0000000000
0000000010
0000000000
0000100100
0000000000
,
1000110000
0000000000
0000101000
0000000000
1000010000
0000100001
0000100010
0000000100
,
1000110000
0000000000
0000000000
0000000000
0010001000
0001000000
0010000000
0100000000
0000100001
0000000000
0000000000
0000000000
0000000010
0000000000
0000100100
0000000000
,
1000110000
0000000000
0000101000
0000000000
1000000001
0000110000
0000101000
0000000100
,
2200200002
0000000000
0000000000
3300300000
0002000000
0000000000
0000000000
0000000000
,
0003000003
0000000000
0000000000
0000000000
;
