#VERSION:0.83;
#TITLE:Boxel Adventure;
#SUBTITLE:;
#ARTIST:7mai;
#TITLETRANSLIT:;
#SUBTITLETRANSLIT:;
#ARTISTTRANSLIT:;
#GENRE:;
#ORIGIN:;
#CREDIT:;
#BANNER:Boxel Advernture.png;
#BACKGROUND:Boxel Advernture-bg.png;
#PREVIEWVID:;
#JACKET:Boxel Advernture-jacket.png;
#CDIMAGE:;
#DISCIMAGE:;
#LYRICSPATH:;
#CDTITLE:;
#MUSIC:Boxel Adventure.ogg;
#OFFSET:0.874423;
#SAMPLESTART:12.635334;
#SAMPLELENGTH:9.846153;
#SELECTABLE:YES;
#BPMS:0.000=195.000,
140.000=97.500,
156.000=195.000,
220.000=97.500,
236.000=195.000;
#STOPS:;
#DELAYS:;
#WARPS:;
#TIMESIGNATURES:0.000=4=4;
#TICKCOUNTS:0.000=4;
#COMBOS:0.000=1;
#SPEEDS:0.000=1.000=0.000=0;
#SCROLLS:0.000=1.000;
#FAKES:;
#LABELS:0.000=Song Start;
#BGCHANGES:2.500=boxel adventure.avi=1.000=0=0=0=StretchNoLoop====,
99999=-nosongbg-=1.000=0=0=0 // don't automatically add -songbackground-
;
#KEYSOUNDS:;
#ATTACKS:
;

//---------------dance-single - ----------------
#NOTEDATA:;
#CHARTNAME:;
#STEPSTYPE:dance-single;
#DESCRIPTION:;
#CHARTSTYLE:;
#DIFFICULTY:Challenge;
#METER:18;
#RADARVALUES:1.010554,1.416649,0.376761,0.461340,1.260995,920.000000,871.000000,49.000000,60.000000,0.000000,0.000000,0.000000,0.000000,0.000000,1.010554,1.416649,0.376761,0.461340,1.260995,920.000000,871.000000,49.000000,60.000000,0.000000,0.000000,0.000000,0.000000,0.000000;
#CREDIT:Daniel Van Eden;
#NOTES:
0000
0000
0000
0000
,
0000
0000
0000
0000
,
0000
0000
0000
0000
,
0000
0000
0000
0000
,
0000
0000
0000
0000
,
0000
0000
0000
0000
,
0000
0000
0000
0000
,
0000
0000
0000
0000
,
0000
0000
0000
0000
,
2100
3100
0010
0012
0000
0103
0010
2010
,
0000
0000
3010
0000
0100
0000
0102
0000
0000
0000
1003
0000
0000
0000
0010
1000
,
0001
0000
1000
0100
0010
0001
1000
0010
0100
0000
0010
0000
1000
0000
0200
0000
,
0000
0000
0301
0000
0100
0000
2000
0000
0000
0000
3010
0000
0100
0001
0020
0000
,
0000
0000
0031
1000
0001
0100
0010
1000
0100
0000
0010
0000
0001
0000
2000
0000
,
0000
0000
3010
0000
0100
0000
0002
0000
0000
0000
1003
0000
0100
0000
0010
0001
,
1000
0000
0001
0100
0010
1000
0001
0010
0100
0000
1000
0000
0010
0000
2000
0000
,
0000
3001
0010
0200
0000
1300
0001
0020
,
0031
1000
0010
1000
0001
0100
1000
0100
0001
1000
0100
0010
0001
0100
0020
0000
,
1030
0100
0001
0100
1000
0010
0200
0000
0301
1000
0010
0000
1000
0001
0010
0100
,
1000
0000
0001
1000
0100
0010
0001
0010
0100
0000
1000
0000
0010
0000
0002
0000
,
0000
0013
1000
0200
0000
0301
1000
0020
,
0000
0000
0031
0100
0010
1000
0001
0010
0100
0000
0001
0000
0100
0000
2000
0000
,
0000
3010
0100
0002
0000
1003
2010
0000
,
3001
0000
1000
0001
0100
0010
1000
0010
0100
0001
0010
0100
0010
0001
2000
0000
,
0000
0000
3010
0000
0100
0000
0002
0000
0000
0000
0013
0100
0010
0100
1000
0000
,
1020
0000
0130
0210
0000
0301
0021
0000
,
0130
0000
2100
0000
0000
0000
3001
0010
0100
1000
0001
0010
0100
0000
1000
0001
,
0100
0000
0010
1000
0010
1000
0001
0000
0010
0000
0110
0000
0100
0000
1000
0001
,
1000
0000
0100
1000
0100
1000
0001
0000
0010
0000
1100
0000
1000
0001
0010
0100
,
1000
0000
0010
1000
0010
1000
0001
0000
0100
0000
0110
0000
0010
0000
1000
0100
,
1000
0001
0010
0001
0100
0010
1000
0100
1000
0001
0010
0001
0010
0001
0100
0010
,
1000
0000
0001
0010
1000
0010
0001
0000
0100
0000
0110
0000
0010
0000
1000
0001
,
0010
0000
0001
0100
1000
0100
0001
0000
1000
0000
0011
0000
0001
0010
0100
1000
,
0001
1000
0001
0010
0100
0010
0001
0100
0010
1000
0001
0010
0001
1000
0001
1000
,
0100
0010
0001
0010
0100
1000
0001
1000
0010
0100
0010
0100
0001
0100
0010
1000
,
0200
0000
0000
0000
0000
0000
0000
0000
0000
0000
0000
0000
0000
0000
2300
0000
0000
0000
0000
0000
0000
0000
0000
0000
0000
0000
3020
0000
0000
0000
1030
0001
,
0200
0000
0000
0000
0300
0001
0100
0020
0000
1030
0100
0020
0000
0031
1000
0100
,
0000
0000
0010
0001
1000
0000
0001
1000
0001
0100
0010
1000
0100
0010
0001
0000
0000
0000
0100
0000
0001
0000
0200
0000
0000
0000
0301
0000
1000
0000
2001
0000
,
0000
0000
3001
0100
0010
0100
0001
1000
0100
0010
0001
1000
0100
0010
0002
0000
0000
0000
0013
0000
0100
0000
2000
0000
0000
0000
3010
0000
0100
0000
0001
0000
,
1000
0000
0101
0000
0010
1000
0001
1000
,
0100
0010
0001
1000
0010
0100
0001
1000
,
0010
0000
0100
0001
0100
0010
1000
0001
0010
0000
0100
0000
1000
0000
1020
0000
,
0000
0000
0130
0000
0001
0000
0021
0000
0000
0000
0130
0000
1000
0000
0001
1000
,
0001
0000
1000
0100
0010
0001
1000
0010
0100
0000
0010
0000
1000
0000
1200
0000
,
0000
0000
0310
0000
0001
0000
0201
0000
0000
0000
0310
1000
0001
1000
0100
0010
,
0002
0000
0013
2100
0000
3010
0100
0001
,
1001
0000
1000
0001
0000
0000
0100
0000
0110
0000
0010
0100
0000
0100
0010
0000
,
1000
0000
0001
0010
0000
0001
1000
0000
0001
0000
1000
0010
0000
1000
0001
0000
,
1000
0000
0010
0100
0000
0010
1000
0000
0001
1000
0001
1000
0100
0010
0100
0010
,
0001
0000
1000
0001
0200
0300
1000
0100
0001
0000
1000
0001
0020
0030
1000
0010
,
0001
0000
1000
0001
0100
0000
0010
1000
0001
0100
0001
1000
0010
0000
1000
0010
,
0100
0000
0001
1000
0000
0010
1000
0000
0100
0000
1000
0001
0000
0010
0001
0000
,
0100
0000
0010
1000
0000
0010
0100
0000
0001
1000
0001
1000
0100
0010
0001
1000
,
0100
0000
1000
0001
0020
0030
1000
0010
0001
0000
1000
0001
0200
0300
1000
0100
,
0010
1000
0010
0100
0001
0010
0100
0010
0001
0000
0011
0000
0110
0000
0100
1000
,
0001
0000
0000
0001
0000
0000
0100
0000
1000
0000
0000
1000
0000
0000
0100
0000
0010
0000
0000
0010
0000
0000
0100
0000
0002
0000
0023
0000
0230
0000
2300
0000
,
3010
0000
0000
0010
0000
0000
0001
0000
0010
0000
0000
0010
0000
0000
1000
0000
0100
0000
0000
0100
0000
0000
0001
0000
0100
0000
0000
0100
0000
0000
1000
0000
,
0001
0000
0000
0001
0000
1000
0001
0000
1000
0000
0000
1000
0000
0010
1000
0000
0010
0000
0000
0010
0000
0100
0010
0000
2000
0000
3200
0000
0320
0000
0031
1000
,
0001
0000
0000
0101
0000
0000
1000
0001
1000
0000
0000
1010
0000
0000
0010
1000
0001
1000
0001
1000
0001
0100
1000
0100
0001
0000
0000
0000
1001
0000
1000
0100
,
0010
0000
0001
0100
0010
0100
0001
0000
1000
0000
1000
0010
0000
0100
0001
0000
,
0100
0000
0010
1000
0001
1000
0100
0010
0001
0000
0001
0010
0000
0100
1000
0000
,
0100
0010
0100
1000
0000
1000
0001
0000
1000
0000
0001
0010
0000
0001
0100
0000
,
0010
0000
1000
0010
0100
0001
1000
0100
0010
0100
1000
0001
0010
0000
0001
1000
,
0010
0000
0100
0001
0100
0001
1000
0100
0010
0001
0100
0010
1000
0010
0100
0000
,
0000
0101
0001
1001
0000
1100
1000
1010
,
0010
0000
1000
0000
0100
0000
0110
0000
0010
0000
0001
0010
0100
1000
0010
0000
,
1000
0000
1001
0000
0001
0000
0101
0000
0100
0010
0100
0010
1000
0000
0010
1000
,
0001
0000
1000
0100
0010
0100
1000
0000
0001
0000
0001
0100
0000
0010
1000
0000
,
0100
0000
0010
0001
1000
0001
0100
0010
1000
0000
1000
0100
0000
0010
0001
0000
,
0100
0010
0100
0001
0000
0001
1000
0000
0001
0000
0001
0000
1000
0000
0010
0000
,
1000
0010
0100
0010
0100
0001
1000
0001
0010
0100
1000
0100
0010
0001
1000
0100
,
0010
0000
0100
1000
0010
1000
0001
0100
0010
0000
1000
0000
0100
0000
0110
0000
,
0010
0001
1000
1010
0000
0110
0100
0101
,
0000
0000
0010
1000
0010
0100
0001
0010
1000
0010
0001
0010
0100
1000
0010
0000
,
0000
1010
1000
1001
0000
0011
0001
0101
,
0000
0100
0010
0100
0001
0010
0100
0001
,
0100
1000
0010
0100
0010
1000
0100
0002
,
0103
2000
3010
0002
1003
0200
0301
0020
,
0000
0000
0130
1000
0100
0010
0001
0100
1000
0100
0001
0100
0010
1000
0100
0010
,
0001
0000
0100
0010
1000
0010
1000
0000
0001
0010
0001
0000
1000
0100
0010
0001
,
1000
0000
0100
0010
0001
1000
0010
0000
1000
0000
0011
0000
0001
0010
0100
1000
,
0010
0000
1000
0010
1000
0010
0100
0001
0100
0010
1000
0000
0100
0010
0001
0010
,
0001
0000
0000
0000
0100
0000
0000
0000
0100
0000
0000
0000
1000
0000
0000
0000
0010
0000
0000
0000
0010
0000
0000
0000
0001
0000
0000
0000
0000
0000
0010
0000
0000
0001
0000
0000
0010
0000
0000
0001
0000
0000
0010
0000
0000
0100
0000
0000
,
1000
0000
0001
0100
0001
0100
0010
0000
1000
0100
0010
0000
0001
1000
0010
0100
,
0001
0000
1000
0100
1000
0100
0010
0000
0001
0100
0010
0000
1000
0010
1000
0001
,
0100
0000
0010
0100
0010
1000
0001
0000
0010
0100
1000
0000
0100
0010
0100
0010
,
0001
1000
0010
0100
1000
0100
0001
0010
0100
0001
0100
1000
0100
0010
0001
1000
,
0001
0000
0000
0000
0000
0000
1010
0000
0000
0101
0000
0000
1100
0000
0000
0011
,
0000
0000
0000
2002
0000
0000
0000
0000
,
0000
0000
0000
0000
0000
0000
0000
3003
;

//---------------dance-single - ----------------
#NOTEDATA:;
#CHARTNAME:;
#STEPSTYPE:dance-single;
#DESCRIPTION:;
#CHARTSTYLE:;
#DIFFICULTY:Hard;
#METER:17;
#RADARVALUES:0.827116,1.104140,0.230670,0.415206,0.838100,753.000000,723.000000,30.000000,54.000000,0.000000,0.000000,0.000000,0.000000,0.000000,0.827116,1.104140,0.230670,0.415206,0.838100,753.000000,723.000000,30.000000,54.000000,0.000000,0.000000,0.000000,0.000000,0.000000;
#CREDIT:Daniel Van Eden;
#NOTES:
// measure 0
0000
0000
0000
0000
,  // measure 1
0000
0000
0000
0000
,  // measure 2
0000
0000
0000
0000
,  // measure 3
0000
0000
0000
0000
,  // measure 4
0000
0000
0000
0000
,  // measure 5
0000
0000
0000
0000
,  // measure 6
0000
0000
0000
0000
,  // measure 7
0000
0000
0000
0000
,  // measure 8
0000
0000
0000
0000
,  // measure 9
2000
3001
0010
0200
0000
1300
0001
0020
,  // measure 10
0000
0000
0130
0000
1000
0000
0002
0000
0000
0000
0103
0000
0000
0000
0010
0100
,  // measure 11
0010
0000
1000
0010
1000
0010
0100
0000
0001
0000
0010
0000
0100
0000
2000
0000
,  // measure 12
0000
3010
0100
0002
0000
1003
0010
0200
,  // measure 13
0000
0000
0310
1000
0010
0000
0100
0001
0100
0000
0001
0000
0010
0000
0200
0000
,  // measure 14
0000
0310
0001
2000
0000
3010
0100
0010
,  // measure 15
1000
0000
0001
0010
0001
0010
0100
0000
1000
0000
0010
0000
0100
0000
0002
0000
,  // measure 16
0000
0013
0100
2000
0000
3001
0100
0010
,  // measure 17
1000
0001
0100
0000
0001
1000
0010
0000
0100
0001
1000
0000
0010
1000
0001
0000
,  // measure 18
0100
0001
0100
0001
1000
0000
0010
0000
1000
0001
1000
0000
0100
1000
0100
1000
,  // measure 19
0001
0000
1000
0100
0010
0001
1000
0000
0010
0000
1000
0000
0001
0000
0200
0000
,  // measure 20
0000
0301
1000
0020
0000
0130
0001
2000
,  // measure 21
0000
0000
3001
0010
0001
0010
0100
1000
0100
0000
0010
0000
0001
0000
0200
0000
,  // measure 22
0000
0301
1000
0020
0000
1030
0200
0000
,  // measure 23
0310
0000
0001
0100
0010
1000
0001
0000
0010
0100
0010
0000
0001
1000
0002
0000
,  // measure 24
0000
1003
0100
0020
0000
0130
1000
0010
,  // measure 25
1010
0000
1000
0001
0000
0010
0011
0000
,  // measure 26
0001
0000
0100
0000
0000
0000
0100
0010
1000
0100
0010
0001
1000
0000
0000
0000
,  // measure 27
0010
0000
1000
0001
1000
0000
0100
0000
0000
0000
0011
0000
0000
0000
0010
0001
,  // measure 28
1000
0000
0001
1000
0001
0000
0101
0000
0000
0000
1100
0000
0000
0000
1000
0100
,  // measure 29
0010
0000
0001
1000
0001
0000
0100
0000
0000
0000
1010
0000
0000
0000
0010
1000
,  // measure 30
0001
0100
0001
0100
0001
1000
0001
1000
0010
1000
0010
1000
0200
0000
0000
0000
,  // measure 31
0310
0000
0001
0100
0001
0000
0010
0000
0000
0000
1100
0000
0000
0000
1000
0100
,  // measure 32
0010
0000
0001
0010
0100
0000
1100
0000
0000
0000
1010
0000
0000
0000
0010
1000
,  // measure 33
0001
1000
0001
0000
0010
0000
0100
0000
1000
0010
1000
0000
0001
0000
0010
0000
,  // measure 34
0001
1000
0001
0000
0100
0001
0100
0000
0010
1000
0010
1000
0001
0100
0001
0100
,  // measure 35
0020
0000
1000
0000
0000
0000
1030
0200
0000
0000
0010
0000
0000
1300
0000
0001
,  // measure 36
0020
0000
0130
0000
0000
1000
0001
0010
0000
0100
1000
0010
0000
0100
0001
1000
,  // measure 37
0000
0000
0001
1000
0001
0000
1000
0000
0010
0000
0100
0000
0001
0000
0010
0000
0000
0000
0100
0000
1000
0000
0100
0000
0000
0000
0010
0000
0001
0000
0001
0000
,  // measure 38
0000
0000
1000
0000
0010
0000
1000
0000
0001
0000
1000
0100
0010
0001
1000
0000
0000
0000
0010
0000
0100
0000
0001
0000
0000
0000
1000
0000
0100
0000
0000
0000
,  // measure 39
0010
0000
0011
0000
0001
1000
0100
0000
,  // measure 40
1000
0000
1010
0000
0010
0100
0001
0100
,  // measure 41
0010
0000
1000
0001
1000
0001
1000
0000
0100
0000
0010
0000
0001
0000
1000
0000
,  // measure 42
0001
0100
1000
0100
0001
1000
0010
0001
,  // measure 43
0010
0000
1000
0001
0100
0000
0001
0000
0010
0000
0001
0000
1000
0000
0000
0000
,  // measure 44
0010
0000
1000
0000
0001
0000
0000
0000
0100
0000
0001
0000
1000
0010
1000
0001
,  // measure 45
0010
0000
0000
1100
0000
1000
0001
0100
,  // measure 46
0010
0000
1000
0010
0000
0000
0010
0000
1000
0000
0001
1000
0000
1000
0001
1000
,  // measure 47
0010
0000
1000
0100
0000
0000
0100
0000
0010
0000
0001
0100
0000
0000
0100
0000
,  // measure 48
0001
0000
1000
0010
0000
0000
0010
0000
1000
0000
0001
0010
0000
0000
0010
0000
,  // measure 49
0001
0000
1000
0100
1000
0000
0100
1000
0100
0000
0010
0100
0010
0000
0100
0010
,  // measure 50
0100
0000
0010
0001
0010
0000
0001
0010
0001
1000
0001
1000
0001
0000
1000
0000
,  // measure 51
0010
0000
0100
0001
0000
0000
0001
0000
0010
0000
0100
1000
0000
0000
1000
0000
,  // measure 52
0001
0000
1000
0010
0000
0000
0010
0000
1000
0000
0001
0010
0000
0000
0010
0000
,  // measure 53
0001
0000
0010
0001
0010
0000
0001
0100
0001
0000
0100
0010
0100
0000
0010
1000
,  // measure 54
0010
0000
1000
0100
1000
0000
0100
0010
0001
0000
0010
0000
0100
0000
1000
0000
,  // measure 55
0002
0000
0000
0000
0000
2003
0000
0000
3002
0000
0000
2003
0000
3200
0000
0320
,  // measure 56
0000
0000
0000
0000
0000
0230
0000
0000
0320
0000
0031
1000
0000
1000
0000
0000
,  // measure 57
1000
0000
0010
0200
0000
0000
0301
0000
1000
0000
0001
0000
0010
0001
1000
0100
,  // measure 58
0010
0000
0000
0011
0000
0000
0001
0000
1000
0000
0000
1010
0000
0000
0010
0000
1000
0001
1000
0001
1000
0001
1000
0001
1000
0000
0000
0000
0110
0000
0000
0000
,  // measure 59
0001
0000
1000
0010
1000
0010
1000
0000
0001
0000
0010
0100
0000
0100
0010
0000
,  // measure 60
0001
0000
1000
0100
0010
0001
1000
0100
0010
0000
0001
1000
0000
1000
0001
0000
,  // measure 61
0100
0000
0010
1000
0000
1000
0010
0000
1000
0000
0100
1000
0000
0100
0010
0000
,  // measure 62
0100
0000
0010
0001
0010
0100
1000
0100
0010
0001
1000
0001
1000
0000
0010
1000
,  // measure 63
0010
0000
0100
0001
0100
0000
0001
1000
0001
0100
0010
1000
0010
0100
0002
0000
,  // measure 64
0000
0013
0000
2100
0000
3010
0100
0102
,  // measure 65
0000
1003
0100
2000
0000
3001
0100
0020
,  // measure 66
0000
0000
1030
0000
0001
0000
0010
0000
0000
0000
0100
0010
0100
0000
1000
0001
,  // measure 67
1000
0000
0001
0010
0001
0010
0001
0000
1000
0000
0010
0100
0000
0100
0010
0000
,  // measure 68
1000
0000
0001
0010
0100
1000
0001
1000
0100
0000
0010
0001
0000
0001
1000
0000
,  // measure 69
0010
0000
0100
0001
0000
0001
0100
0000
0010
0000
0010
0000
1000
0000
0100
0000
,  // measure 70
0010
0000
0001
1000
0001
1000
0100
0000
1000
0001
0010
0000
0100
1000
0100
0010
,  // measure 71
0001
0000
1000
0001
0100
0000
0001
0100
0010
0000
1000
0000
0001
0000
0020
0000
,  // measure 72
0000
0031
1000
0002
0000
1003
0010
2000
,  // measure 73
0000
3002
0023
0230
2300
3020
0230
0302
,  // measure 74
0000
1003
0100
0020
0000
0130
1000
0100
,  // measure 75
0000
0000
0011
0000
0001
1000
0000
1010
,  // measure 76
0000
0010
0100
0010
1000
0001
0000
1100
,  // measure 77
0000
0101
0000
0110
0000
1010
0000
1001
,  // measure 78
0000
0000
0001
0010
0100
1000
0010
1000
0010
0100
0010
0100
0001
0010
0100
1000
,  // measure 79
0001
0000
1000
0100
1000
0100
1000
0000
0000
0000
0101
0000
0000
0000
0001
0100
,  // measure 80
0010
0000
1000
0010
1000
0000
0011
0000
0000
0000
1010
0000
0000
0000
0010
1000
,  // measure 81
0001
0000
0100
0001
0100
0001
0100
0000
0000
0000
1100
0000
0000
0000
1000
0001
,  // measure 82
0010
0000
0000
0000
0001
0000
0000
0000
0100
0000
0000
0000
0010
0000
0000
0000
1000
0000
0000
0000
0100
0000
0000
0000
0000
0000
0000
0000
0000
0000
0011
0000
0000
0000
0000
0000
0000
0000
0000
0000
0000
0000
0001
0000
0000
0010
0000
0000
,  // measure 83
0100
0000
1000
0001
1000
0001
0100
0000
0001
1000
0100
0000
0010
0001
0010
0001
,  // measure 84
1000
0000
0001
1000
0001
1000
0010
0000
1000
0001
0010
0000
0100
1000
0100
1000
,  // measure 85
0001
0000
1000
0010
1000
0010
0100
0000
0001
1000
0100
0000
0010
0000
0001
1000
,  // measure 86
0001
1000
0100
0010
0001
0100
0010
1000
0001
0100
0010
1000
0100
0010
0001
1000
,  // measure 87
0001
0000
0000
0000
0000
0000
2000
0000
0000
3200
0000
0000
0320
0000
0000
0032
,  // measure 88
0000
0000
0003
2002
0000
0000
0000
0000
,  // measure 89
0000
0000
0000
3003
;

//---------------dance-single - ----------------
#NOTEDATA:;
#CHARTNAME:;
#STEPSTYPE:dance-single;
#DESCRIPTION:;
#CHARTSTYLE:;
#DIFFICULTY:Medium;
#METER:13;
#RADARVALUES:0.593151,0.897114,0.199914,0.169158,0.226825,540.000000,514.000000,26.000000,22.000000,0.000000,0.000000,0.000000,0.000000,0.000000,0.593151,0.897114,0.199914,0.169158,0.226825,540.000000,514.000000,26.000000,22.000000,0.000000,0.000000,0.000000,0.000000,0.000000;
#CREDIT:Daniel Van Eden;
#NOTES:
0000
0000
0000
0000
,
0000
0000
0000
0000
,
0000
0000
0000
0000
,
0000
0000
0000
0000
,
0000
0000
0000
0000
,
0000
0000
0000
0000
,
0000
0000
0000
0000
,
0000
0000
0000
0000
,
0000
0000
0000
0000
,
2020
0000
3030
0202
0000
0000
0303
2200
,
0000
0000
3300
0022
0000
0000
0033
0000
,
0001
0000
1100
0000
1000
0010
0100
0001
,
0000
0010
0001
1000
0000
0010
1000
0001
,
0000
0001
0100
0010
1000
0100
0010
0001
,
0000
1000
0010
1000
0000
1000
0001
0000
,
1000
0000
0101
0000
0001
0100
0010
1000
,
0000
0010
1000
0001
0000
0010
0001
0010
,
0100
1000
0100
0010
0001
0100
1000
0100
,
0001
1000
0100
0010
0001
0010
1000
0010
,
0100
0000
0011
0000
0010
0001
1000
0100
,
0000
1000
0001
0100
0000
0010
1000
0002
,
0000
0013
0100
0010
0100
1000
0100
0010
,
0000
0001
1000
0100
0000
0100
0010
0000
,
0001
0000
1010
0000
0010
1000
0001
0100
,
0000
0001
1000
0100
0000
0010
0001
1000
,
1000
0000
0100
0100
0000
0010
0010
0000
,
0001
0001
0000
1000
0001
1000
0001
0000
,
1000
0010
1000
0010
0000
0001
0000
0001
,
0010
0000
1000
0001
0000
0011
0000
0001
,
1000
0100
1000
0100
0000
0001
0000
0100
,
1000
0100
0010
0001
0100
0010
1000
0000
,
0001
0010
0001
0010
0000
1000
0000
1000
,
0010
0000
0001
1000
0000
1010
0000
1000
,
0010
0100
0010
1000
0001
0010
0100
0001
,
0100
1000
0010
0001
0010
0100
0001
1000
,
0200
0000
0000
0000
0000
0000
0000
0320
0000
0000
0030
0000
0000
0002
0000
0000
,
0203
0000
0000
0000
0300
0010
1000
0001
0000
0010
0001
0010
0000
0100
1000
0001
,
0000
1000
0001
0000
0001
0100
0010
1000
0000
0010
1000
0010
0000
0100
0001
0100
,
0000
0010
1000
0100
0010
0001
0100
0010
0000
1000
0010
0100
0000
0100
0010
0000
,
1001
0000
0001
0000
0001
1000
0010
0000
,
1000
0010
1000
0000
0001
0100
0001
0000
,
1000
0100
0010
0100
1000
0100
0010
0001
,
0000
0010
0001
1000
0000
0010
1000
0001
,
0000
0001
0100
0010
1000
0010
1000
0100
,
0000
0100
0010
0001
0000
0010
0001
1000
,
1001
0000
0000
0011
0000
0000
0010
0100
,
0010
0000
0000
0011
0000
0000
0001
0000
1000
0000
0000
1010
0000
0000
0010
0000
,
1000
0001
0100
0001
1000
0001
0010
0001
,
1000
0001
0100
0001
1000
0010
0100
0001
,
0010
0000
0000
0010
0100
0000
0000
0100
0010
0000
0000
0010
0001
0000
0000
0001
,
0100
0000
0000
0100
1000
0000
0000
1000
0100
0000
0000
0100
0001
0000
0010
0000
,
0001
1000
0100
1000
0001
1000
0010
1000
,
0001
1000
0100
1000
0001
0010
0100
1000
,
0010
0000
0000
0010
1000
0000
0000
1000
0001
0000
0000
0001
1000
0000
0000
1000
,
0100
0000
0000
0100
0010
0000
0000
0010
0001
0000
0010
0000
0100
0000
1000
0000
,
0001
0000
0000
0000
0000
1000
0000
0000
0001
0000
0000
0010
0000
0100
0000
1000
,
0000
0000
0000
0000
0000
0001
0000
0000
1000
0000
0001
0010
0000
0010
0000
0000
,
0010
0000
0100
1000
0000
0000
0001
0000
1000
0000
0010
0000
1000
0000
0001
0000
,
0100
0000
0000
0100
0000
0000
0100
0000
0001
0000
0000
0001
0000
0000
0001
0000
2000
0000
0000
0000
0000
0000
0000
0000
3010
0000
0000
0000
1001
0000
0000
0000
,
0001
0000
1000
0000
0010
0000
1000
0000
0001
0000
0000
0010
0000
0000
0100
0000
,
1000
0000
0001
0000
0010
0000
0001
0000
1000
0000
0000
0010
0000
0000
1000
0000
,
0001
0000
0000
0010
0000
0000
0001
0000
1000
0000
0001
0000
1000
0000
0100
0000
,
0010
0001
0010
0000
0100
1000
0001
0000
,
0100
0000
0010
0100
0010
1000
0010
0100
,
0000
0100
0001
1000
0000
1000
0100
0010
,
0000
0011
0100
1010
,
1000
0001
1000
0100
0000
0100
0010
0001
,
1000
0000
0001
0000
0010
0000
0001
0000
1000
0000
0000
0010
0000
0000
0100
0000
,
0001
0000
1000
0000
0010
0000
1000
0000
0001
0000
0000
0100
0000
0000
0001
0000
,
1000
0000
0000
0100
0000
0000
1000
0000
0001
0000
0010
0000
0001
0000
0100
0000
,
0010
0000
0010
1000
0000
1000
0001
1000
,
0100
0010
0001
1000
0010
1000
0010
0100
,
0000
0100
0001
0010
0000
0010
0100
1000
,
0000
0002
2003
3020
0230
0302
2003
3100
,
0000
0100
0010
0001
0000
0001
1000
1001
,
0000
0000
0010
0000
1000
0010
0000
0100
,
0000
0001
0010
1000
0010
0001
0010
1000
,
0001
1000
0100
0001
0100
0010
0001
0100
,
1000
0100
0001
1000
0010
0001
0010
1000
,
0100
0000
0100
0010
0000
0011
0000
0001
,
0100
0000
0100
0010
0000
1010
0000
1000
,
0001
0000
1000
0100
0000
0110
0000
0010
,
0001
0000
0000
0000
0001
0000
1000
0000
0000
0000
1000
0000
0100
0000
0000
0010
0000
0000
0001
0000
0000
1000
0000
0000
,
0010
0000
0010
1000
0000
1100
0000
0100
,
0010
0000
0010
0001
0000
0101
0000
0100
,
0010
0000
0010
0100
0000
1001
0000
1000
,
0001
0100
0010
1000
0001
1000
0100
0010
,
0001
0000
0000
0000
0000
0000
1000
0000
0000
0001
0000
0000
0100
0000
0000
0010
,
0000
0000
0000
2002
0000
0000
0000
0000
,
0000
0000
0000
3003
;

//---------------dance-single - ----------------
#NOTEDATA:;
#CHARTNAME:;
#STEPSTYPE:dance-single;
#DESCRIPTION:;
#CHARTSTYLE:;
#DIFFICULTY:Easy;
#METER:10;
#RADARVALUES:0.362481,0.552070,0.207603,0.092268,0.000000,330.000000,303.000000,27.000000,12.000000,0.000000,0.000000,0.000000,0.000000,0.000000,0.362481,0.552070,0.207603,0.092268,0.000000,330.000000,303.000000,27.000000,12.000000,0.000000,0.000000,0.000000,0.000000,0.000000;
#CREDIT:Daniel Van Eden;
#NOTES:
0000
0000
0000
0000
,
0000
0000
0000
0000
,
0000
0000
0000
0000
,
0000
0000
0000
0000
,
0000
0000
0000
0000
,
0000
0000
0000
0000
,
0000
0000
0000
0000
,
0000
0000
0000
0000
,
0000
0000
0000
0000
,
1000
0000
0000
0010
0000
0000
0000
0100
,
0000
0000
0000
0001
0000
0000
1000
0000
,
0001
0000
0010
0000
0001
0000
0001
1000
,
0000
1000
0010
1000
,
0001
0100
0001
0000
1000
0000
1000
0001
,
0000
0001
0010
0100
,
1000
0000
0100
0000
1000
0000
1000
0010
,
0000
0010
0100
0001
,
1000
0100
0010
0001
,
0100
0010
1000
0000
0010
0100
0001
0000
,
0010
0000
0100
0000
0010
0000
0001
1000
,
0000
1000
0001
0100
,
0010
1000
0100
0010
,
0001
1000
0001
0100
,
0010
0000
0100
0000
0010
0000
1000
0001
,
0000
0000
0001
1000
0000
0000
1000
0000
,
1000
0000
0000
0100
0000
0000
0010
0000
,
0000
0001
0000
0000
1000
0000
1001
0000
,
0001
0000
0000
0100
0000
0101
0000
0000
,
0010
0000
0000
1010
0000
1010
0000
0000
,
1000
0000
0000
0100
0000
1100
0000
0000
,
1000
0100
0010
0001
,
0010
0000
0000
0001
0000
0011
0000
0000
,
1000
0000
0000
1001
0000
1001
0000
0000
,
0001
0100
0001
1000
,
0010
1000
0010
0000
0100
0001
0100
0000
,
0001
1000
0000
1000
0100
0010
0000
0010
,
0100
1000
0000
1000
0010
0100
0000
0100
,
0010
1000
0010
1000
0001
0010
0000
0010
,
0001
0010
0001
0010
0100
1000
0000
1000
,
0001
0001
1000
1000
,
0010
0010
0100
0001
,
1000
1000
0001
0001
,
0010
0010
0100
1000
,
0001
1000
0010
1000
,
0001
0100
0001
0010
,
0110
0000
0000
1001
0000
0000
1000
0000
,
0010
0000
0010
0100
,
0001
0000
0000
0001
0010
0000
0000
0010
,
0100
0000
0000
0100
1000
0000
0000
1000
,
0020
1030
2000
3001
,
0002
1003
2000
3010
,
1000
0000
0000
1000
0100
0000
0000
0100
,
0010
0000
0000
0010
0001
0000
0000
0001
,
0200
0301
0002
1003
,
2000
0000
3001
0000
0010
0100
0010
0000
,
0001
1000
1000
0001
,
0001
0100
0100
0010
,
1000
0010
1000
0010
,
0110
0000
0110
0000
1010
0011
1001
0000
,
1001
0000
0001
0010
,
0100
0000
1000
0100
,
0010
0000
0001
1000
,
0001
0100
0010
0100
,
0001
0000
1000
0000
,
0010
1000
0001
0000
,
1000
0100
0001
0100
,
1000
0010
0100
0001
,
1001
0000
1000
0100
,
0010
0000
0001
0100
,
0010
0000
1000
0001
,
0010
0100
1000
0001
,
1000
0000
0000
0000
0010
0000
0010
0100
,
0000
0000
0100
0001
0000
0000
0001
1000
,
0000
0000
0100
0000
0010
0000
0001
1000
,
0000
0100
0000
0010
0000
0100
0000
2000
,
0000
0000
3001
0000
0010
0000
0000
0100
,
0000
0000
0100
0000
0010
0000
0000
0001
,
0000
1000
0000
0010
0000
0100
0000
0001
,
0000
0001
1000
0000
0010
0000
0100
0000
,
0001
0000
0000
0010
0000
0110
0000
0000
,
1000
0000
0000
0110
0000
0110
0000
0000
,
0001
0000
0000
1000
0000
1001
0000
0000
,
1000
0000
0001
0000
0000
1001
0000
0000
,
1000
0000
0000
0100
0000
0110
0000
0000
,
0001
0000
0000
0110
0000
0110
0000
0000
,
1000
0010
1000
0001
,
0010
0000
0100
0000
1000
0001
1000
0000
,
2002
0000
0000
0000
,
0000
3003
0000
0220
0000
0000
0000
0000
,
0000
0000
0000
0330
;

//---------------dance-single - ----------------
#NOTEDATA:;
#CHARTNAME:;
#STEPSTYPE:dance-single;
#DESCRIPTION:;
#CHARTSTYLE:;
#DIFFICULTY:Beginner;
#METER:6;
#RADARVALUES:0.209800,0.276035,0.030756,0.015378,0.000000,191.000000,187.000000,4.000000,2.000000,0.000000,0.000000,0.000000,0.000000,0.000000,0.209800,0.276035,0.030756,0.015378,0.000000,191.000000,187.000000,4.000000,2.000000,0.000000,0.000000,0.000000,0.000000,0.000000;
#CREDIT:Daniel Van Eden;
#NOTES:
0000
0000
0000
0000
,
0000
0000
0000
0000
,
0000
0000
0000
0000
,
0000
0000
0000
0000
,
0000
0000
0000
0000
,
0000
0000
0000
0000
,
0000
0000
0000
0000
,
0000
0000
0000
0000
,
0000
0000
0000
0000
,
1000
0000
0000
0001
0000
0000
0000
0001
,
0000
0000
0000
1000
0000
0000
0000
0000
,
0010
0000
1000
0000
,
0001
0000
1000
0100
,
1000
0000
0001
0000
,
0010
0000
0001
0100
,
0001
0000
1000
0000
,
0010
0000
1000
0001
,
1000
0000
0100
0000
,
1000
0100
0010
0001
,
1000
0000
0010
0000
,
0100
0000
0001
1000
,
0001
0000
0010
0000
,
0100
0000
1000
0001
,
1000
0000
0100
0000
,
1000
0000
0001
0000
,
0010
0000
0001
0000
,
1000
1000
0001
0001
,
0010
0000
0010
0000
,
0100
0000
0100
0000
,
0010
0000
0010
0000
,
0100
0010
0100
0010
,
0001
0000
0001
0000
,
1000
0000
1000
0000
,
0001
1000
0001
0000
,
1000
0001
0100
0010
,
1000
0000
0001
0000
,
0010
0000
0100
0100
,
1000
0000
0010
0010
,
1000
0000
1000
0001
,
0010
0000
0010
0000
,
0100
0000
1000
0000
,
0010
0000
0010
0000
,
0100
0000
0001
0000
,
1000
0000
0001
0000
,
0010
0000
0100
0000
,
1000
0000
0000
1001
0000
0000
0000
0000
,
0110
0000
1001
0000
,
0010
0000
0001
0000
,
1000
0000
0100
0000
,
1000
0000
0010
0000
,
0100
0000
0001
0000
,
0010
0000
0001
0000
,
1000
0000
0100
0000
,
1000
0000
0010
0000
,
0100
0000
0001
0000
,
1000
0000
0010
0010
,
0010
0000
0100
0100
,
0100
0000
0001
0001
,
0001
0000
1000
1001
,
0001
0000
0010
0000
,
0100
0010
0100
0000
,
1000
0000
0010
0000
,
1000
0000
0001
1000
,
0001
0000
1000
0000
,
0010
0000
0100
0000
,
0001
0000
0010
0000
,
0100
0000
1000
0000
,
0001
0000
1000
0000
,
0010
0000
1000
0010
,
1000
0000
0001
0000
,
1000
0001
1000
0000
,
0100
0000
0010
0000
,
0001
0000
1000
0000
,
0010
0010
0010
0010
,
1000
0000
0001
0000
,
0010
0000
0100
0000
,
0010
0000
0001
0000
,
1000
0000
0010
0000
,
0100
0000
0001
0000
,
1000
0000
0000
0000
0000
0001
0000
0000
,
0001
0000
0000
0000
0000
0010
0000
0000
,
0010
0000
0000
0000
0000
0100
0000
0000
,
0100
0000
1000
0000
,
0010
0000
0000
0000
0000
1000
0000
0000
,
1000
0000
0000
0000
0000
0001
0000
0000
,
0001
0000
1000
0000
,
1000
0100
0010
0001
,
2000
0000
0000
0000
,
0000
0000
0000
3002
0000
0000
0000
0000
,
0000
0000
0000
0003
;
