#TITLE:Bedside;
#SUBTITLE:;
#ARTIST:Maxo & Ehiorobo;
#TITLETRANSLIT:;
#SUBTITLETRANSLIT:;
#ARTISTTRANSLIT:;
#GENRE:;
#CREDIT:;
#BANNER:Bedside.png;
#BACKGROUND:Bedside-bg.png;
#LYRICSPATH:;
#CDTITLE:;
#MUSIC:Bedside.ogg;
#OFFSET:-0.085379;
#SAMPLESTART:0.843998;
#SAMPLELENGTH:14.769230;
#SELECTABLE:YES;
#BPMS:0.000000=130.000000
;
#STOPS:100.000000=0.462000,
205.000000=0.462000,
245.500000=0.923000,
275.500000=0.692000
;
#BGCHANGES:;
#KEYSOUNDS:;
#ATTACKS:;

//---------------dance-single - ----------------
#NOTES:
     dance-single:
     :
     Hard:
     14:
     0.653418,0.666132,0.503420,0.222943,0.773109,636.000000,566.000000,70.000000,31.000000,0.000000,0.000000,0.653418,0.666132,0.503420,0.222943,0.773109,636.000000,566.000000,70.000000,31.000000,0.000000,0.000000:
0000
0000
0000
0000
,
0101
0000
1001
0000
0110
0100
0001
0010
,
0000
0000
0010
0001
0000
0100
0000
0000
0010
0000
0000
1000
0000
0000
0100
0000
,
0010
0100
0010
0100
1001
0000
0001
0000
,
0000
0000
0100
0010
0000
1000
0000
0000
0010
0000
0000
0100
0000
0000
0001
0000
,
0000
1100
0000
1010
0000
0110
0100
0101
,
0000
0001
0001
0001
,
1000
0100
0010
0001
0010
0100
0010
0001
0100
0010
0000
0000
,
0010
0000
1000
0000
0001
0000
0100
0000
0010
0000
1000
0000
0100
0000
0010
0000
0100
0000
1001
0000
0000
0000
0001
1000
,
0000
0000
0000
0000
0100
1000
0001
0000
0101
0000
0010
0000
1010
0000
2000
0000
,
0000
0000
3010
0100
0010
1000
0001
1000
0001
0000
0100
0010
1000
0100
0010
0001
,
0100
0000
0010
0000
0101
0000
0100
0010
1000
0000
0100
0000
1000
0000
0100
0010
,
0001
0000
1000
0001
0000
0010
0000
0000
1100
0000
0000
0000
0001
0000
1000
0000
,
0010
0110
0100
0101
0001
0011
0110
1100
,
0100
0000
0000
0000
0100
0000
0000
0010
0100
0000
1000
0000
0001
0000
0010
0000
,
0100
1000
0001
1000
0010
0100
0010
1000
0100
0110
0000
0000
,
0010
0000
0001
0000
1000
0000
0100
0000
0100
0000
0100
0000
0110
0000
0000
2200
0000
0000
0000
0000
0000
3300
0000
0000
,
0001
0010
0001
0010
0100
0000
1000
0001
1000
0001
0100
0001
,
0100
0010
0100
0010
1000
0000
0100
1000
0100
1000
0010
0100
,
0001
1000
0001
1000
0010
0000
0202
0303
0000
0220
0330
0000
,
0010
1000
0100
1000
0010
0100
0202
0303
0000
2002
3003
0000
,
0010
1000
0010
1000
0100
0000
0010
0100
0010
0100
1000
0100
,
0010
0001
0000
0001
0100
0010
1000
0000
1000
0001
0100
0010
,
1000
0001
0010
0100
1000
0100
2200
3300
0000
0022
0033
0000
,
1000
0100
0010
0001
0010
0100
2200
3300
0000
2020
3030
0000
,
0110
0000
0000
2001
0000
0000
3000
0100
0010
0002
0000
0100
,
0000
1000
0003
0100
,
0010
1000
0100
0001
,
0100
0000
0000
0000
1000
0000
0000
0000
0010
0000
0000
0000
0100
0001
0010
0100
,
1000
0000
0000
0010
0000
0000
0100
0000
0000
0001
0000
0000
0020
0000
0000
0000
0000
0000
0000
0000
0000
0000
0000
0000
0030
0000
0000
0000
0001
0000
0000
0000
0100
0000
0000
0000
0020
0000
0000
0000
0000
0000
0000
0000
0000
0000
0000
0000
,
1000
0000
0000
0000
0000
0000
0000
0000
0000
0000
0000
0000
0001
0000
0000
0000
0000
0000
0000
0000
0000
0000
0000
0000
1030
0000
0000
0100
0000
0000
1000
0000
0000
0010
0000
0000
0200
0000
0000
0000
0000
0000
0000
0000
0010
0000
0000
0000
,
0000
0020
0000
0300
0000
0100
0000
0200
0000
0030
0000
0001
,
0000
0000
0000
0000
0301
0000
0000
0000
0000
0000
0000
0000
0101
0000
0000
0000
0000
0000
1000
0000
0000
0000
0000
0000
0010
0000
0000
0000
0000
0000
0100
0000
0000
0001
0000
0000
0010
0000
0000
0000
0000
0000
0000
0000
0000
0000
0000
0000
,
0001
0000
0000
0002
0000
0000
0003
0010
0100
2000
0000
0010
,
0000
0000
0000
0001
0000
0000
3010
0000
0000
0010
0000
0010
,
1000
0100
0000
0001
0000
0100
1000
0010
0000
0100
0000
0001
,
0010
1000
0000
1010
0000
0010
0001
0100
0010
1000
0000
0000
,
0001
0000
0000
0201
0000
0000
0300
0001
0100
0020
0000
0000
,
1000
0000
0000
0000
0130
0000
0001
0010
0100
0000
1000
0100
0010
0001
0000
0000
,
0001
0000
0000
0000
0000
0000
0100
0000
0000
0010
0000
0000
0100
0000
0000
0000
0000
0000
0010
0000
0000
1000
0000
0000
0010
0000
0000
0000
0000
0000
1000
0000
0000
0100
0000
0000
1000
0000
0000
0000
0010
0000
0000
0000
1000
0000
0000
0000
,
0001
0000
0100
0000
0010
0000
1000
0000
0100
0000
0010
0000
1001
0000
0000
0000
0000
0000
1100
0000
0000
0100
0000
0000
,
1100
0000
1000
0001
0100
0000
0010
0100
0000
0001
1000
0000
0010
0000
1000
0010
,
1000
0010
0000
0100
0010
0000
0010
0100
0000
0000
0101
0000
1000
0000
0001
0100
,
0010
0000
1000
0100
1000
0000
0100
0010
0000
0001
0100
0000
0010
0000
0100
0000
,
0001
0000
0100
0010
1000
0000
0001
1000
0000
0010
0100
0000
0010
0000
0000
1000
,
0000
0000
0001
0000
0110
0000
0000
0000
0100
0001
0100
0001
0010
0001
0010
0100
,
0010
0100
1000
0100
1000
0000
0010
0000
0010
0100
0010
0000
0001
0000
0010
0000
,
1000
0000
1000
0100
0001
0000
0100
0000
1000
0000
0001
0000
0010
0001
0010
0000
,
0100
1000
0100
1000
0001
0000
0011
0000
0101
0000
1100
0000
1010
0000
0000
0000
,
0101
0000
0000
0000
0001
0000
0010
0100
0000
1000
0000
0000
0100
0000
1000
0000
,
0010
1000
0010
0000
1000
0000
0001
0010
0000
0100
0010
0000
0001
0000
0100
0000
,
0010
0100
0010
0000
0000
0000
0110
0000
0010
0000
1010
0000
1000
0000
1001
0000
,
0001
0000
0100
0001
0000
0001
0010
0000
0110
0000
0000
0100
1000
0000
0001
0000
,
1000
0000
0010
0000
0100
0000
0001
0000
0010
0001
0000
0001
1000
0000
1000
0010
,
0000
0000
0110
0000
0010
0100
0000
0100
0001
0000
0001
0010
0000
0010
0100
0000
,
0010
0100
0000
0100
1000
0000
0010
1000
0000
0001
0100
0000
0000
0000
0000
0000
,
1000
0100
0001
0010
1001
0000
0110
0000
,
0000
0000
0010
0000
0100
0000
0001
0000
0000
1000
0000
0000
1100
0000
0000
0000
,
0110
0000
0000
0010
0001
0000
0000
0100
0010
0000
0000
0000
1100
0000
0000
0100
,
1000
0000
0001
0000
0101
0000
0000
0000
0100
0000
0010
1000
0000
0001
0000
0000
,
0010
0000
0100
1000
0010
0100
0001
0010
0000
0000
1100
0000
0000
0000
1010
0000
,
0000
0101
0000
0110
0010
0100
0001
1000
,
0001
0100
1000
0100
0001
0010
0100
0010
0001
1000
0000
0000
,
0100
0000
1000
0000
0100
0000
0001
0000
0100
0000
1000
0000
0010
0000
0000
0100
0000
0000
0101
0000
0000
0000
0001
0100
,
0000
0000
0000
0000
0100
0010
1000
0000
0000
0000
1000
0000
0011
0000
0000
0000
,
0000
0000
0010
0100
0010
0001
1000
0010
0100
0000
0001
0100
0001
0100
0010
1000
,
0001
0010
0011
0100
0010
0100
2000
0000
,
3000
0000
0001
0100
0000
0010
0000
0000
1100
0000
0000
0000
0000
0000
1001
0000
,
0000
0110
0000
1010
0000
1001
0001
0101
,
0000
0000
0000
0000
0000
0000
0100
0000
0000
0010
0000
0000
1000
0000
0000
0000
0000
0000
0100
0000
0000
0000
0000
0000
0010
0000
0000
0000
0000
0000
0001
0000
0000
0000
0100
0000
0000
0000
0010
0000
0000
0000
1000
0000
0000
0000
0001
0000
,
0000
0010
0000
0100
0000
1000
0000
0010
0000
0100
0000
0000
0000
0000
0000
0100
0000
0001
0000
1000
0000
0010
0000
0010
,
0000
0010
0000
1010
0000
0000
0110
0000
0000
0000
0000
0000
0000
0000
0000
0000
0000
0000
0000
0000
0000
0000
0000
0000
;

//---------------dance-single - ----------------
#NOTES:
     dance-single:
     :
     Beginner:
     5:
     0.229107,0.256654,0.151026,0.000000,0.000000,223.000000,202.000000,21.000000,0.000000,0.000000,0.000000,0.229107,0.256654,0.151026,0.000000,0.000000,223.000000,202.000000,21.000000,0.000000,0.000000,0.000000:
// measure 0
0000
0000
0000
0000
,  // measure 1
1001
0000
1001
0000
0000
1000
0000
1000
,  // measure 2
0000
0000
0010
0000
,  // measure 3
0100
0100
0000
0010
,  // measure 4
0010
0010
1000
0000
,  // measure 5
0000
0001
0000
1000
0000
0001
0000
1000
,  // measure 6
0000
0000
1001
0000
,  // measure 7
0010
0010
0001
0001
,  // measure 8
0100
0100
0010
1000
,  // measure 9
0000
0000
0001
0000
0000
1000
0000
0010
,  // measure 10
0000
0100
0110
0000
,  // measure 11
1000
1000
1001
0000
,  // measure 12
0001
0000
1001
0000
,  // measure 13
0000
0010
0000
0010
0000
0100
0000
0100
,  // measure 14
0000
0000
0110
1000
,  // measure 15
0010
0100
0010
1000
,  // measure 16
0001
0010
0100
1000
,  // measure 17
0000
0001
0000
1000
,  // measure 18
0000
0010
0000
0100
,  // measure 19
0000
0010
1000
0001
,  // measure 20
1000
0000
0100
0010
,  // measure 21
0001
0000
1000
0000
,  // measure 22
0001
0000
0100
0000
,  // measure 23
0010
0000
1000
0100
,  // measure 24
0010
0000
0001
0010
,  // measure 25
1001
1000
0000
0010
,  // measure 26
0000
0000
0000
0100
,  // measure 27
0000
0010
0000
1000
,  // measure 28
0001
0010
0100
0000
,  // measure 29
0000
1001
0000
1000
,  // measure 30
0000
0010
0000
0000
,  // measure 31
0000
0010
0000
0100
,  // measure 32
0000
0010
1000
0100
,  // measure 33
0000
1001
0000
0010
,  // measure 34
0000
0001
0000
0100
,  // measure 35
0001
0010
0001
0100
,  // measure 36
0010
1000
0000
0010
,  // measure 37
0000
0110
0000
0010
,  // measure 38
0000
1000
0000
0001
,  // measure 39
0000
1000
0100
0010
,  // measure 40
0001
1000
0100
0010
,  // measure 41
0010
1001
0000
0100
,  // measure 42
0100
0110
0000
0010
,  // measure 43
0000
1001
0000
0001
,  // measure 44
0001
1000
1000
1001
,  // measure 45
0000
0010
0000
1000
,  // measure 46
0100
1000
0000
0010
,  // measure 47
0100
0010
0000
1000
,  // measure 48
0001
0010
0100
1001
,  // measure 49
1001
0000
0000
1000
,  // measure 50
1000
0010
0000
0100
,  // measure 51
0010
0000
0010
1000
,  // measure 52
0001
0100
0010
0010
,  // measure 53
1000
0000
0001
0100
,  // measure 54
0010
0000
0010
1000
,  // measure 55
0001
0100
0010
0001
,  // measure 56
1000
0000
1001
1001
,  // measure 57
0000
0000
0000
1000
0000
0000
0001
0000
,  // measure 58
1000
0010
0100
0100
,  // measure 59
0000
0010
1000
0001
,  // measure 60
0000
0000
0001
0000
0000
1000
0000
0010
,  // measure 61
0000
0100
0000
0010
0000
0000
0000
0000
,  // measure 62
0010
1000
0100
0010
,  // measure 63
0001
0010
1001
0100
,  // measure 64
0000
0000
0010
0000
0000
0001
0000
1000
,  // measure 65
0000
0010
0100
0100
,  // measure 66
0010
0010
1000
0000
,  // measure 67
0001
0000
1001
0000
,  // measure 68
1000
0000
0000
0000
0010
0000
0000
0100
,  // measure 69
0000
0010
0000
1000
0000
0001
0000
0001
,  // measure 70
0000
1000
0000
1000
0000
0010
0000
0100
,  // measure 71
0000
0010
0000
0100
0000
0000
0000
0000
;

//---------------dance-single - ----------------
#NOTES:
     dance-single:
     :
     Easy:
     8:
     0.322600,0.384307,0.129451,0.151026,0.043150,314.000000,296.000000,18.000000,21.000000,0.000000,0.000000,0.322600,0.384307,0.129451,0.151026,0.043150,314.000000,296.000000,18.000000,21.000000,0.000000,0.000000:
0000
0000
0000
0000
,
1100
0000
0101
0000
0000
0001
1000
0001
,
0000
0010
1000
0100
,
0010
0000
0010
0001
0000
0001
1000
0000
,
0020
0030
1000
0001
,
0001
0010
0000
0010
0000
0001
0010
0001
,
0000
0000
0100
0010
,
1000
0001
0010
0100
,
0010
0001
0100
0010
,
0000
0000
0010
1000
0000
1000
0010
2000
,
0000
0001
3001
0000
,
0011
1100
1000
0010
,
2000
3000
0001
0100
,
0010
0100
0000
0100
0000
0010
0100
0010
,
0000
0000
1000
0100
,
0020
0032
2003
3010
,
0200
0302
0023
0030
,
0001
0100
0010
0100
,
0001
0100
1000
0100
,
0001
0010
0101
0110
,
0010
1000
1100
0110
,
0001
0100
0001
1000
,
0100
0010
0001
0100
,
0010
0100
0001
0010
,
0010
0100
1000
0010
,
1002
1000
0023
0000
,
0100
0030
1000
0010
,
0100
0001
0010
0100
,
1000
0000
0010
0000
1000
0000
0010
0001
,
0010
0001
0020
0000
0030
0000
0200
0000
,
0000
1000
0300
0020
,
0000
0032
0000
2003
,
0000
3100
1000
0010
,
1000
1001
0000
0100
,
0000
0011
0000
0001
,
1000
0100
0010
0001
,
0100
1000
0010
1000
,
1000
0101
0000
0001
,
0010
0100
0000
0010
,
1000
0001
0010
0100
,
1000
0010
1000
0001
,
0100
0010
0100
0000
0010
0000
1000
0000
,
0001
1000
0001
0000
0100
0000
0010
0000
,
1000
0100
1000
0000
0010
0000
0100
0010
,
0100
0001
0010
0001
,
0100
0000
1010
0000
1000
0000
1000
0001
,
1000
0000
0001
0000
0010
0000
0001
0100
,
0001
0000
0010
0000
0010
0000
0100
1000
,
0100
0000
0010
0001
0100
0010
1000
0000
,
0101
0000
1001
0000
0010
0000
1000
0010
,
1000
0010
1000
0000
0100
0000
0010
0001
,
0010
0001
0000
0000
0001
0100
0001
0100
,
0001
1000
1010
0010
,
0100
0000
0010
0000
1000
0001
1000
0000
,
0100
0010
0001
1000
,
0010
1000
0001
0100
,
0010
1000
0100
0010
0001
0000
0101
0000
,
0000
0000
0000
0020
0000
0000
1030
0000
,
1010
0000
0100
0000
0001
1000
0000
1000
,
0000
0010
1000
0000
0200
0000
0310
0000
,
0001
0000
1000
0000
0010
1000
0000
0001
,
0000
0010
0001
0010
0000
0000
0000
0000
,
0001
0000
1000
0000
0001
0000
0100
0000
0010
0000
0100
0000
,
0001
0000
0010
0000
0100
0000
1000
0000
0000
0010
0000
0000
,
0010
0000
0100
0010
0000
0010
1000
0002
,
0000
0100
0103
0000
0010
0000
1000
0000
,
0100
0010
0100
0000
0010
0000
0002
0000
,
2003
3100
0010
0100
,
1000
0010
0000
0010
0000
0100
0001
0100
,
0000
0000
0000
0010
0000
0000
0000
0000
0000
1000
0000
0000
0001
0000
0000
1000
0000
0000
0000
0100
0000
0000
0000
0010
,
0000
0000
0000
0001
0000
0000
0000
0010
0000
0000
0000
0100
0000
0000
0000
1000
0000
0000
0000
0001
0000
0000
0000
0100
,
0000
0010
0010
0000
0000
0000
0000
0000
;

//---------------dance-single - ----------------
#NOTES:
     dance-single:
     :
     Medium:
     11:
     0.478762,0.563650,0.373969,0.230135,0.291264,466.000000,414.000000,52.000000,32.000000,0.000000,0.000000,0.478762,0.563650,0.373969,0.230135,0.291264,466.000000,414.000000,52.000000,32.000000,0.000000,0.000000:
0000
0000
0000
0000
,
1001
0000
0101
0000
0000
0001
0010
0100
,
0000
0000
0100
1000
0000
1000
0000
0000
0010
0000
0000
0100
0000
0000
0010
0000
,
0010
1000
0001
0100
0000
0100
0010
0000
,
0010
0000
1000
0100
0000
0100
0000
0000
0010
0000
0000
0001
0000
0000
1000
0000
,
1000
0010
0000
0110
0000
0100
0001
0010
,
0000
0000
0000
0000
0100
0010
0001
1000
,
0010
1000
0010
1000
0010
1000
0010
1000
0010
1000
0000
0000
,
0100
0010
0100
0010
0100
0010
0100
0010
0100
1000
0000
0000
,
0001
0000
1000
0101
0000
0001
0010
0200
,
0000
0010
0310
0001
0010
0100
1000
0010
,
1000
0001
1000
0001
0000
0001
0100
0000
,
1000
0000
0100
0010
0000
0010
0000
0000
0101
0000
0000
0000
0000
0000
0011
0000
,
0000
0101
0000
1010
0000
0100
0001
1000
,
0000
0000
0000
0000
1000
0100
0010
0001
,
0100
0001
0100
0001
0100
0001
0100
0001
0100
0010
0000
0000
,
1000
0000
0010
0000
1000
0000
0010
0000
1000
0000
0010
0000
1000
0000
0000
1100
0000
0000
0000
0000
0000
0000
0000
0000
,
0010
0000
0001
0100
0001
0000
1000
0000
0010
1000
0100
0000
,
0010
0000
0001
0100
0001
0000
1000
0000
0100
0010
0001
0000
,
0100
0000
0010
0100
0001
0000
2020
3030
0000
0202
0303
0000
,
0001
0000
1000
0001
1000
0000
2020
3030
0000
0220
0330
0000
,
1000
0000
0100
1000
0010
0000
1000
0000
0010
0100
0001
0000
,
0001
0000
0000
0010
0000
0010
0100
0000
0100
1000
0000
0000
,
0010
0000
0100
0001
0100
0000
0220
0330
0000
2020
3030
0000
,
1000
0000
0001
1000
0001
0000
0220
0330
0000
0022
0033
0000
,
1001
0002
0000
0103
,
0010
1010
0010
1000
,
0100
0011
0001
1000
,
0010
0000
0101
0000
1000
0000
0010
1000
,
0100
0010
0002
0000
0000
0000
0013
0000
,
1000
0000
1010
0000
0100
0010
1000
0000
,
0010
0101
0001
0010
,
0001
0000
0100
0001
1000
0010
1010
0000
,
0100
0110
1000
0001
,
0010
0101
0010
1000
,
0100
1001
0010
0001
,
0100
1010
1000
0101
,
0010
1001
1000
0011
,
0010
0000
0001
0100
0001
0010
0100
0000
,
1000
0000
0010
1000
0010
0000
2000
0000
,
3200
0000
0320
0000
0032
0000
1003
0100
,
1000
0001
1000
0100
0010
0000
0001
0010
,
0001
0100
0001
1000
0010
0000
0010
0100
,
0010
1000
0001
0100
0010
0100
0001
0010
,
0100
1000
0001
1000
0010
0100
0200
0000
,
0300
0000
1001
0000
0001
1000
0001
0001
,
0100
0010
1000
0001
2000
3000
0100
1000
,
0100
0000
0011
0000
1000
0001
0100
0010
,
1000
0100
0010
0002
2003
3020
0130
0000
,
0110
0000
0101
0000
0001
1000
0000
1000
,
0100
0010
0100
0010
0001
0101
0000
0001
,
0100
0000
0000
1010
0000
1001
0000
0110
,
0000
0001
0010
0001
1001
0000
0100
0010
,
0100
0001
0100
0020
0000
1030
2000
0000
,
3010
0100
0001
0010
0100
1000
0001
1000
,
0000
0010
0000
0000
0100
0000
0000
0001
0000
0000
1000
0000
0000
0000
0000
0000
,
0000
0000
1100
0011
,
0000
0000
0000
2010
0000
0100
0100
0000
,
3010
0000
0000
0010
0000
0000
0100
0000
0001
0000
1000
0000
0001
0000
1000
0000
,
0010
0000
1000
0000
1100
0000
0000
0000
0000
0000
0100
0001
0000
0001
0000
0000
,
0001
0100
0010
0000
0000
1010
0000
1001
,
0000
0011
0000
1100
0000
0000
0000
0000
,
1000
0100
1000
0100
1000
0100
1000
0100
1000
0100
0000
0000
,
0010
0001
0010
0001
0010
0001
0010
0100
0010
0100
0000
0000
,
0000
0000
0001
0100
0000
0100
0010
2000
,
0000
0001
0001
0000
0010
0000
3001
0000
,
0001
0100
0001
0010
0100
0010
0001
0000
,
0000
0000
0010
0100
0000
0100
0000
0000
1000
0000
0000
0000
0000
0000
1100
0000
,
0000
1010
0000
0110
0000
1000
0010
0001
,
0000
0000
0000
0000
0000
0000
0000
0000
0000
0000
0000
0000
0000
0000
0000
0001
0000
1000
0000
0001
0000
1000
0000
0001
,
0000
1000
0000
0001
0000
1000
0000
0001
0000
1000
0000
0000
0000
0000
0000
0010
0000
1000
0000
0010
0000
1000
0000
0010
,
0000
1000
0000
0010
0000
0000
0110
0000
0000
0000
0000
0000
0000
0000
0000
0000
0000
0000
0000
0000
0000
0000
0000
0000
;
