#VERSION:0.83;
#TITLE:Be There;
#SUBTITLE:;
#ARTIST:PSYQUI;
#TITLETRANSLIT:;
#SUBTITLETRANSLIT:;
#ARTISTTRANSLIT:;
#GENRE:;
#ORIGIN:;
#CREDIT:;
#BANNER:banner.png;
#BACKGROUND:background.png;
#PREVIEWVID:;
#JACKET:jacket.png;
#CDIMAGE:;
#DISCIMAGE:;
#LYRICSPATH:;
#CDTITLE:;
#MUSIC:Be There.ogg;
#OFFSET:1.235885;
#SAMPLESTART:17.817608;
#SAMPLELENGTH:11.707317;
#SELECTABLE:YES;
#DISPLAYBPM:164.000000:328.000000;
#BPMS:0.000=164.000,
83.500=656.000,
85.500=328.000,
86.000=164.000,
151.500=328.000,
279.500=164.000,
326.375=328.000,
327.500=164.000,
344.500=328.000,
346.500=164.000,
349.000=328.000,
409.000=656.000,
411.000=328.000,
411.500=164.000,
424.500=656.000,
428.500=328.000,
459.000=164.000,
469.250=328.000,
470.750=164.000,
473.750=328.000,
476.750=164.000;
#STOPS:34.875=0.183,
83.500=0.091,
84.000=0.023,
84.250=0.023,
84.500=0.023,
84.750=0.023,
85.000=0.046,
85.500=0.046,
110.750=0.366,
326.375=0.046,
326.625=0.046,
326.875=0.091,
327.000=0.023,
343.125=0.030,
343.208=0.030,
343.292=0.030,
343.375=0.091,
343.625=0.030,
343.708=0.030,
343.792=0.030,
343.875=0.091,
346.250=0.183,
409.000=0.091,
409.500=0.023,
409.750=0.023,
410.000=0.023,
410.250=0.023,
410.500=0.046,
411.000=0.046,
450.000=0.457;
#DELAYS:;
#WARPS:;
#TIMESIGNATURES:0.000=4=4;
#TICKCOUNTS:0.000=4;
#COMBOS:0.000=1;
#SPEEDS:0.000=1.000=0.000=0;
#SCROLLS:0.000=1.000;
#FAKES:;
#LABELS:0.000=Song Start;
#BGCHANGES:;
#KEYSOUNDS:;
#ATTACKS:
;

//---------------dance-single - ----------------
#NOTEDATA:;
#CHARTNAME:;
#STEPSTYPE:dance-single;
#DESCRIPTION:;
#CHARTSTYLE:;
#DIFFICULTY:Challenge;
#METER:17;
#RADARVALUES:0.895066,1.307741,0.658328,0.401050,0.506988,828.000000,741.000000,87.000000,53.000000,0.000000,0.000000,0.000000,0.000000,0.000000,0.895066,1.307741,0.658328,0.401050,0.506988,828.000000,741.000000,87.000000,53.000000,0.000000,0.000000,0.000000,0.000000,0.000000;
#CREDIT:Daniel Van Eden;
#DISPLAYBPM:164.000000:328.000000;
#NOTES:
0000
0000
0000
0000
,
0000
0000
0000
0000
,
0000
0000
0000
0000
,
0000
0000
0000
0000
,
0000
0000
0000
0000
,
0010
0000
1000
0000
0001
0000
1000
0010
1000
0000
0100
0000
0010
0001
0000
0001
,
0010
0000
0001
0000
1000
0000
0001
0010
0001
0000
0100
0000
0010
1000
0000
1000
,
0100
0000
0010
0001
1000
0000
0100
1000
0001
0000
0100
0000
0010
1000
0000
1000
,
0001
0000
0010
0100
1000
0000
0010
0100
0001
0000
1000
0000
0000
0000
1001
0000
,
1000
0100
0001
0100
1000
0001
0010
0010
,
1000
0000
0010
0000
0001
0000
0100
0000
0010
0000
1000
0000
0001
0000
0100
0001
,
0100
0010
1000
0100
1000
0001
0010
0100
0010
0001
1000
0010
0100
0001
1000
0001
,
0010
0100
1000
0001
0010
0100
1000
0000
1000
0000
0001
0000
0000
0000
2020
0000
,
0000
0000
3030
0000
0000
0000
0001
0100
0010
0100
0001
0100
0010
0000
1000
0001
,
1000
0000
0100
0010
0100
0000
0010
0001
0100
0010
0100
0001
0010
0000
1100
0000
,
0000
0000
1001
0000
0001
0000
0100
0001
1000
0100
1000
0001
0010
0001
1000
0000
,
0100
1001
0010
0101
1000
0110
0001
2200
,
3300
0000
0220
0000
0330
0000
1000
0010
0100
0010
1000
0010
0100
0000
0001
0010
,
0100
0000
1000
0001
1000
0000
0010
1000
0001
1000
0100
0010
0001
0000
0101
0000
,
1100
0000
0010
1000
0100
0011
0000
0000
1100
0000
1000
0100
0001
0000
0100
1000
,
0001
0000
0100
0010
0100
0000
0001
1000
0010
0000
1000
0001
1000
0000
0001
0000
,
0000
0000
0000
0000
0000
0000
0000
0000
0110
0000
1001
0001
1000
0010
1000
0100
,
0010
0000
0010
0100
0010
0000
0001
1000
0100
0000
0010
0001
0100
0001
1000
0100
,
1000
0000
2020
0000
3030
0000
0202
0000
0303
0000
0010
1000
0001
0100
0010
1000
,
0100
0010
0001
0000
0001
1000
0000
1000
0100
0000
0011
0000
0001
1000
0100
0000
,
1100
0000
0220
0000
0330
0000
2002
0000
3003
0000
0100
0010
0100
0001
1000
0010
,
0100
0000
0001
0100
0010
0000
1000
0000
0100
0000
0010
0100
1000
0100
0010
0001
,
0010
0000
1100
0000
1000
0001
1000
0001
0101
0000
0000
1001
0000
0000
1010
0000
,
0100
1001
0010
0101
0010
1100
0001
2000
,
0000
0000
3002
0000
0000
0000
1003
0100
1000
0100
1000
0000
0010
0000
0100
0001
,
0100
0000
0010
0000
1000
0000
0001
1000
0000
1000
0001
0000
0010
0000
0200
0000
,
0000
0000
0320
0000
0000
0000
0031
0100
0001
0100
0001
0000
1000
0000
0010
1000
,
0010
0000
1000
0000
0100
0000
0010
0001
0000
0001
1000
0000
0100
0000
0010
0000
,
0100
0010
0001
0100
1000
0100
0001
1000
,
0010
0000
1000
0000
0001
0000
0010
0000
1000
0000
0010
0000
0001
0000
1000
0100
,
0010
0100
1000
0001
0100
0001
1000
0010
0100
0010
1000
0001
0010
0100
2000
0000
,
0000
0000
3020
0000
0000
0200
0000
0000
,
0000
0000
0330
0000
0000
0000
0001
0010
0001
0010
0100
1000
0100
1000
0002
0000
,
0000
0000
0003
1100
0000
0000
0100
0010
,
0001
1000
0001
0100
0000
0000
0110
0000
,
0000
1010
0000
1100
0000
0000
0011
0000
,
0000
0101
0000
1010
0000
0000
1000
0001
,
0000
0000
0000
1100
0000
0000
0010
0000
,
0000
0100
0000
0101
0000
0000
0001
0000
,
0000
1000
0000
1010
0000
0010
1000
0100
,
0010
0001
0010
0100
1000
0010
0202
0000
,
0000
0303
0000
0200
0000
0300
0010
1000
,
0001
1000
0100
0010
0000
0000
0101
0000
,
0000
0110
0000
1010
0000
0000
1001
0000
,
0000
1100
0000
0011
0000
0000
0010
0100
,
0000
0000
0000
1001
0000
0000
1010
0000
,
0000
0011
0000
1100
0000
0000
1000
0002
,
0000
0000
0000
0023
0000
0000
0000
2030
,
0000
0000
0000
3200
0000
0000
0000
0310
,
0000
0000
0000
0101
0000
0000
0100
0010
,
1000
0001
1000
0100
0010
0001
1000
0000
,
1000
0001
0100
0010
1000
0001
0100
0000
,
0100
0001
0010
0100
1000
0100
0010
0001
,
0000
0000
0000
1001
0000
0000
0110
0000
,
0000
1010
0000
1000
0010
0100
0001
0000
,
0000
0001
1000
0100
0100
0010
0010
0001
,
0001
0100
0100
0010
0010
1000
2002
0000
,
0000
3003
0000
0110
0000
0000
0010
1000
,
0001
1000
0100
0010
0100
1000
0001
0000
,
0001
0100
0010
1000
0001
0100
0010
0000
,
0010
1000
0001
1000
0100
0010
0001
1000
,
0000
0000
0000
1100
0000
0000
0011
0000
,
0000
1000
0000
0010
1000
0010
0100
0002
,
0000
0000
0000
0023
0000
0000
0000
2030
,
0000
0000
0000
3200
0000
0000
0000
0301
,
0000
1000
0000
0010
0000
1000
0000
0001
,
0000
1000
0000
0001
0000
0010
0000
0001
,
0000
1000
0000
0001
0000
1000
0000
0100
,
0000
0010
0000
0001
0000
0100
0000
0001
,
0000
1000
0000
0010
0000
1000
0000
0001
,
0000
1000
0000
0100
0000
0010
0000
0001
,
0000
1000
0000
0001
0000
0100
0000
0010
,
0000
0100
0000
0001
0000
1000
0000
0001
,
1000
0000
0001
0000
1000
0001
1000
0000
0010
0000
1000
0010
0000
0010
1000
0000
,
0001
0000
1000
0000
0001
1000
0001
0000
0100
0000
0001
0100
0000
0100
0001
0000
,
0010
0000
0001
0000
0010
0001
0010
0000
0100
0000
1000
0100
0000
0100
1000
0000
,
0010
0000
1000
0000
0010
1000
0010
0000
0200
0000
0000
0000
0000
0000
0310
0000
,
0000
0000
1001
0000
0000
0000
1001
0000
0000
0010
0001
0000
0100
0000
0010
0000
,
1000
0000
1100
0000
0000
0000
1010
0000
0000
0010
1000
0000
0001
0000
0011
0000
,
0000
0000
1100
0000
0000
0000
1100
0000
0000
0100
0010
0000
0001
0000
2000
0000
,
0000
0000
3002
0000
0000
0203
0000
0000
,
0300
0000
0020
0000
0000
0000
0000
0000
0000
0030
0000
0000
2002
0000
0000
0000
,
3003
0000
1000
0010
1000
0001
0100
0010
,
0100
0000
0010
1000
0100
1000
0001
0010
,
0100
0000
0010
0001
1000
0100
1000
0010
,
0100
0000
0001
0000
0000
0001
0100
0000
,
0001
0010
0100
0010
0001
1000
0100
0010
,
0100
1000
0010
0000
1000
0000
0101
0000
,
0010
1100
0001
1010
,
0100
0000
1001
0000
0000
0001
1000
0000
,
0100
1000
0010
1000
0001
0100
0001
0010
,
0001
0000
1000
0010
1000
0001
0010
0100
,
0010
0000
0001
0010
0001
1000
0010
0100
,
0010
0000
1100
0000
0101
0000
0010
0001
,
0010
1100
0000
0000
1010
0000
0001
1000
,
0100
0000
0010
0001
1000
0010
1000
0001
,
0100
0010
1000
0100
0010
0001
0100
0010
,
0100
0001
1000
0000
0000
0000
0000
0110
,
1001
1000
0010
0100
0010
1000
0001
0000
0100
0010
0100
0000
0001
0010
0100
0000
,
1000
0001
0100
0010
0100
0010
1000
0000
0202
0000
0303
0000
2020
0000
3030
0000
,
0100
0001
1000
0010
0100
0001
0010
0100
1000
0000
1000
0010
0000
0010
0100
0000
,
0101
2000
0000
0000
0000
0000
0000
0000
,
0000
3000
0000
0010
0000
1000
0001
1000
,
0000
0001
1000
0010
0100
0010
1000
0001
,
0100
0010
0000
1000
0010
0100
0010
1000
,
0000
0010
1000
0100
0010
0001
0010
0100
,
1000
0100
0000
0011
0000
0001
1000
0001
,
1000
1010
0000
0000
1001
0000
0101
0000
,
0010
1001
0100
1010
,
0100
0011
1000
2002
,
0000
0000
0000
0000
,
0000
0000
0000
0000
,
0000
0000
0000
3003
0000
0001
0000
1000
0000
0002
0000
2000
0000
0000
0000
0000
,
0000
0000
0000
0000
0000
0000
3003
0000
0000
0001
0000
1000
0000
0002
0000
2000
,
0000
3003
0000
0110
0000
0000
0000
0000
0000
0000
0000
0000
0000
0000
0000
0000
;

//---------------dance-single - ----------------
#NOTEDATA:;
#CHARTNAME:;
#STEPSTYPE:dance-single;
#DESCRIPTION:;
#CHARTSTYLE:;
#DIFFICULTY:Hard;
#METER:15;
#RADARVALUES:0.675624,1.307741,0.310246,0.348081,0.325380,625.000000,584.000000,41.000000,46.000000,0.000000,0.000000,0.000000,0.000000,0.000000,0.675624,1.307741,0.310246,0.348081,0.325380,625.000000,584.000000,41.000000,46.000000,0.000000,0.000000,0.000000,0.000000,0.000000;
#CREDIT:Daniel Van Eden;
#DISPLAYBPM:164.000000:328.000000;
#NOTES:
0000
0000
0000
0000
,
0000
0000
0000
0000
,
0000
0000
0000
0000
,
0000
0000
0000
0000
,
0000
0000
0000
0000
,
0010
0000
1000
0000
0001
0000
1000
0000
0010
0000
0100
0001
0100
0000
0010
0000
,
0100
0000
0001
0000
0001
0000
0010
0000
0001
0000
1000
0100
1000
0000
0010
0000
,
1000
0000
0001
0000
0100
0000
0001
0000
1000
0000
0010
1000
0010
0000
1000
0000
,
0100
0010
0010
0001
0100
0010
0000
1000
,
0001
0000
0010
0000
0100
0000
0010
0000
0000
0010
0001
0000
0100
0000
0000
0100
,
0010
0000
1000
0000
0000
0000
0001
0000
0000
0001
0100
0000
0010
0000
1000
0100
,
1000
0100
0010
0001
0010
0001
0100
0001
0100
0010
0100
0010
1000
0010
1000
0100
,
0010
0001
1000
0100
0010
0001
1000
0000
1000
0000
0002
0000
0003
0000
0220
0000
,
0000
0000
0330
0000
0000
0000
1000
0010
1000
0000
0001
0000
0100
0000
0010
0100
,
0010
0000
1000
0000
0100
0000
0010
0001
0000
0001
0010
0000
0001
0000
1000
0000
,
0000
0000
0101
0000
0000
0000
0010
0000
0000
1001
0000
0000
1100
0000
0010
0000
,
0001
0100
1000
0100
0001
0010
0100
2000
,
0000
0000
3020
0000
0000
0000
1030
0100
1000
0000
0001
0000
0010
0000
0001
0100
,
0001
0000
0010
0000
0100
0000
1000
0001
0000
0001
0100
0000
0010
0000
1000
0000
,
1000
0000
0100
0010
0100
0001
0000
0000
0001
0000
0100
1000
0010
0000
1000
0000
,
0001
0010
1000
0010
0001
0100
0010
1000
,
0000
0000
0000
0000
0000
0000
0000
0000
1000
0000
0010
1000
0010
1000
0000
1000
,
0100
0000
0010
0001
0010
0000
0001
0000
0100
0000
0010
1000
0000
1000
0001
0000
,
0100
0000
0002
0000
0000
0000
0023
0000
0000
0000
0031
0100
0001
0100
0000
0100
,
0010
0000
1000
0000
0001
0100
0000
0100
0001
0000
0101
0000
0000
0010
1000
0000
,
0010
0000
1100
0000
0000
0000
1010
0000
0000
0000
1000
0100
1000
0100
0000
0100
,
0010
0000
0001
1000
0001
0000
0100
0000
0010
0000
1000
0001
0000
0001
1000
0000
,
0100
0000
0011
0000
0000
0000
0000
0000
0101
0000
0000
1100
0000
0000
0010
0000
,
1000
0001
1000
0100
0010
0001
0010
0200
,
0000
0000
0320
0000
0000
0000
0031
1000
0001
1000
0001
0000
0100
0000
0010
0000
,
1000
0000
0010
0000
0000
0000
1000
0001
0000
0001
0100
0000
0001
0000
2000
0000
,
0000
0000
3002
0000
0000
0000
1003
0010
1000
0010
1000
0000
0100
0000
0010
0000
,
0001
0000
1000
0000
0000
0000
0001
1000
0000
1000
0010
0000
1000
0000
0200
0000
,
0000
2300
0000
3200
0000
2300
0000
3002
,
0000
0000
0023
0000
0000
0000
0032
0000
0000
0000
0203
0000
0000
0000
0310
1000
,
0010
1000
0001
0100
0001
0100
0010
1000
0001
0100
0001
1000
0010
1000
0200
0000
,
0000
0000
0320
0000
0000
0032
0000
0000
,
0000
0000
0000
0000
0000
0003
0000
2000
,
0000
3000
0000
0101
0000
0000
0010
0100
,
0010
0100
0010
0100
0000
0000
0100
0010
,
0000
1000
0000
0001
0000
0000
0001
1000
,
0000
0100
0000
0010
0000
0000
0010
0100
,
0000
0000
0000
1001
0000
0000
2100
0000
,
0000
0100
0000
3010
0000
0000
0012
0000
,
0000
0100
0000
1003
0000
0100
1000
0001
,
1000
0001
1000
0100
0000
0000
0000
0010
,
0000
0000
0000
1001
0000
0000
1000
0100
,
1000
0100
1000
0100
0000
0000
0110
0000
,
0000
0010
0000
0001
0000
0000
0101
0000
,
0000
0100
0000
0010
0000
0000
0010
1000
,
0000
0000
0000
0011
0000
0000
0100
0000
,
0000
1000
0000
1010
0000
0000
0010
2000
,
0000
0000
0000
3200
0000
0000
0000
0320
,
0000
0000
0000
0032
0000
0000
0000
1003
,
0000
0000
0000
1001
0000
0000
0000
0010
,
1000
0010
1000
0010
0000
0010
1000
0000
,
0000
1000
0000
0001
0000
1000
0001
0000
,
0000
0001
0000
0100
0000
0001
0000
1000
,
0000
0000
0000
0110
0000
0000
0001
0000
,
0000
1000
0000
0001
0000
0000
0100
0000
,
0000
0001
0100
0010
1000
0001
0100
0010
,
1000
0010
0100
0001
1000
0100
0020
0000
,
0000
0000
0030
0001
0000
0000
0000
1000
,
0010
1000
0010
1000
0000
1000
0001
0000
,
0000
0001
0000
0100
0000
0010
0100
0000
,
0000
0100
0000
0001
0000
1000
0001
1000
,
0000
0000
0000
0120
0000
0000
0031
0000
,
0000
1000
0000
0010
0100
0010
0100
0020
,
0000
0000
0000
0000
,
0000
0000
0000
0000
0030
0000
0000
0110
,
0000
0000
0000
0010
0000
1000
0000
1100
,
0000
0100
0000
0010
0000
0001
0000
0200
,
0000
0010
0000
0000
0000
0310
0000
1001
,
0000
0001
0100
0001
0000
1000
0000
1010
,
0000
0000
0000
1000
0000
0100
0000
0011
,
0000
1000
0000
0010
0000
0100
0000
0002
,
0000
1000
0000
0000
0000
1003
0000
1010
,
0000
1000
0001
1000
0000
0100
0000
0010
,
0000
0000
0010
0000
0000
0000
0010
0000
0000
0001
0000
0000
0010
0000
0000
0010
,
0001
0000
0100
0000
0001
0000
1000
0000
0000
0001
0000
0000
0000
0000
1000
0000
,
0000
0000
1000
0000
0000
0000
1000
0000
0000
0100
0000
0000
1000
0000
0000
1000
,
0100
0010
0100
0020
0000
0000
0030
1000
,
0000
0000
0001
0000
0000
0000
1000
0000
0010
1000
0000
0000
1000
0000
0000
0100
,
0010
0000
0001
0000
1000
0000
0001
0000
0000
0100
0000
0000
0010
0000
1000
0000
,
0100
1000
0010
0100
0001
1000
0001
0020
,
0000
0000
0230
0000
0000
2300
0000
0000
,
3000
0002
0000
0000
0003
0000
2002
0000
,
3003
0000
0001
0100
0001
0100
0001
0000
,
1000
0000
0010
1000
0010
0000
1000
0000
,
0001
0000
1000
0001
0000
0001
1000
0000
,
0100
0010
0000
1001
,
0000
0000
0001
1000
0001
1000
0000
1000
,
0001
0100
0010
1000
,
0001
0010
1000
0010
,
0001
1000
0000
0101
,
0000
0000
1000
0010
1000
0010
1000
0000
,
0001
0000
0010
0100
0010
0000
0001
0000
,
0100
0000
0010
0100
0000
0100
0010
0000
,
1000
1001
0101
0000
,
0000
0011
0000
0000
1100
0000
0000
0000
,
0000
1000
0100
0001
,
0100
1000
0010
0001
,
0010
0000
1000
0000
0000
0000
0000
0010
,
0100
0001
0100
0001
0000
0001
0010
0000
0100
0010
0100
0000
1000
0000
0100
0000
,
1000
0010
0000
0010
1000
0000
0001
0000
0010
0000
0000
0000
1001
0000
0000
0000
,
0100
0010
0100
0010
0000
0010
1000
0000
0001
0000
0001
1000
0000
1000
0001
0000
,
0100
2002
0000
0000
0000
0000
0000
0000
,
3003
0000
0000
0100
0000
0000
0000
0110
,
0000
0000
0000
0010
1000
0010
1000
0010
,
0000
1000
0000
0001
1000
0001
0000
0010
,
0000
0100
0000
1000
0100
0000
0100
0010
,
0000
0001
0000
0011
0000
0000
0000
0000
,
0000
0110
0000
0000
1001
0000
0010
0000
,
1000
0001
0100
1000
,
0100
0001
0010
0200
,
0000
0000
0000
0000
,
0000
0000
0000
0000
,
0000
0000
0000
0000
0000
0300
0000
0000
0000
0000
0000
0200
0000
0000
0000
0000
,
0000
0000
0000
0000
0000
0000
0000
0300
0000
0000
0000
0000
0000
0000
0000
0200
,
0000
0000
0000
0300
0000
0000
0000
0000
0000
0000
0000
0000
0000
0000
0000
0000
;

//---------------dance-single - ----------------
#NOTEDATA:;
#CHARTNAME:;
#STEPSTYPE:dance-single;
#DESCRIPTION:;
#CHARTSTYLE:;
#DIFFICULTY:Medium;
#METER:12;
#RADARVALUES:0.468072,0.721512,0.211876,0.287546,0.037835,433.000000,405.000000,28.000000,38.000000,0.000000,0.000000,0.000000,0.000000,0.000000,0.468072,0.721512,0.211876,0.287546,0.037835,433.000000,405.000000,28.000000,38.000000,0.000000,0.000000,0.000000,0.000000,0.000000;
#CREDIT:Daniel Van Eden;
#DISPLAYBPM:164.000000:328.000000;
#NOTES:
0000
0000
0000
0000
,
0000
0000
0000
0000
,
0000
0000
0000
0000
,
0000
0000
0000
0000
,
0000
0000
0000
0000
,
1000
0000
0001
0000
1000
0100
1000
0010
,
0000
0010
1000
0000
0010
0100
0001
0000
,
1000
0000
0001
0000
0010
0001
0100
0010
,
0000
0010
1000
0000
0001
1000
0000
0010
,
0000
0100
0000
1000
0000
0010
0000
1000
,
0000
0001
0000
0100
0000
0010
0000
0100
,
0001
0100
0001
1000
0010
1000
0010
2000
,
0000
0000
0000
0100
0100
3001
0000
0202
,
0000
0303
0000
1000
0001
0100
0010
1000
,
0100
0000
0010
0000
0001
0000
1000
0000
0000
0001
0000
0000
1000
0000
0100
0000
,
0000
0010
0000
0100
1000
0010
0000
1000
,
0010
1000
0010
0100
0001
0100
0001
0020
,
0000
0230
0000
1300
0100
1000
0000
0010
,
1000
0001
0100
0010
0100
0001
0010
0100
,
0100
0000
0000
0000
0000
0010
0000
0000
0010
0000
0000
0000
0000
0000
0011
0000
,
0000
1001
0000
0110
0000
1010
0000
1001
,
0000
0000
0000
0000
0000
1000
0100
1000
,
0000
0000
0001
0000
0010
0000
0001
0000
0000
0000
0100
0000
0000
0010
0000
0000
,
1000
0001
0100
0001
0000
1000
0010
0100
,
0010
1000
0100
0010
0001
1000
0001
1000
,
0100
0010
0000
0110
0000
0100
1000
0001
,
0000
0100
0001
1000
0010
1000
0001
0100
,
0010
0000
0100
0000
0000
0000
0000
0000
1001
0000
0000
1001
0000
0000
0010
0000
,
0000
1000
0000
0100
0000
1000
0000
0020
,
0000
1030
0000
1000
0100
1000
0000
0001
,
0000
0010
0000
0001
0100
0001
1000
0020
,
0000
0130
0000
0100
0001
0100
0000
0010
,
0100
0001
0010
0100
1000
0001
0000
0020
,
0000
0031
0000
0002
0000
0013
0000
0020
,
0000
0130
0000
0200
0000
1300
0000
1000
,
0001
1000
0001
0100
0010
0100
0010
2000
,
0000
0000
3002
0000
0000
2000
0000
0000
,
0000
0000
0000
0000
3003
0000
0000
0010
,
0000
0000
0000
1001
0000
0000
0000
0001
,
0000
1000
0000
0010
0000
0000
0000
0010
,
0000
1000
0000
0001
0000
0000
0000
0010
,
0000
0100
0000
1000
0000
0100
0000
0010
,
0000
0000
0000
0101
0000
0000
0000
1000
,
0000
0001
0000
0100
0000
0000
0000
0010
,
0000
1000
0000
0001
0000
1000
0000
0100
,
0000
1000
0000
0010
0000
1000
0000
0001
,
0000
0000
0000
1010
0000
0000
0000
0010
,
0000
0100
0000
0001
0000
0000
0000
1000
,
0000
0100
0000
1000
0000
0000
0000
0001
,
0000
0010
0000
0100
0000
0010
0000
0001
,
0000
0000
0000
0110
0000
0000
0000
0010
,
0000
0100
0000
0001
0000
0000
0000
2000
,
0000
0000
0000
3002
0000
0000
0000
0203
,
0000
0000
0000
0320
0000
0000
0000
1030
,
0000
0000
0000
1001
0000
0000
0000
0010
,
0000
1000
0000
0010
0000
1000
0000
0100
,
0000
0000
0000
0010
0000
0000
0000
0001
,
0000
0010
0000
0001
0000
0000
0000
0100
,
0000
0000
0000
0010
0000
0000
0000
0010
,
0000
1000
0000
0001
0000
0000
0000
1000
,
0000
0010
0000
0100
0000
0100
0000
0010
,
0000
0010
0000
1000
0000
0001
0000
0010
,
0000
0000
0000
1100
0000
0000
0000
0010
,
0000
0001
0000
0100
0000
0000
0000
0010
,
0000
0000
0000
0100
0000
0000
0000
0001
,
0000
1000
0000
0100
0000
0000
0000
0010
,
0000
0000
0000
0100
0000
0000
0000
0100
,
0000
1000
0000
0001
0000
1000
0000
0020
,
0000
0000
0000
0032
0000
0000
0000
2003
,
0000
0000
0000
3200
0000
0000
0000
0320
,
0000
0000
0000
0031
0000
1000
0000
0100
,
0000
1000
0000
0010
0000
2000
0000
0000
,
0000
3001
0000
0000
0000
0000
0000
0002
,
0000
0000
0203
0000
0000
0310
0000
0000
,
0000
0000
0000
1000
0000
0001
0000
0100
,
0000
0010
0000
0100
0000
0002
0000
0000
,
0000
1003
0000
0000
0000
0000
0000
2000
,
0000
0000
3200
0000
0000
0310
0000
0001
,
0000
0000
1000
0000
0000
0000
0001
0000
0000
1000
0000
0000
0001
0000
0000
0000
,
1000
0000
0001
0000
0000
0000
1000
0000
0000
0001
0000
0000
0000
0000
0100
0000
,
0000
0000
0010
0000
0000
0000
0100
0000
0000
0010
0000
0000
0100
0000
0000
0000
,
0010
0100
0000
0020
0000
0000
0030
1000
,
0000
0000
0100
0000
0000
0000
1000
0000
0000
0100
0000
0000
1000
0000
0000
0000
,
0001
0000
0010
0000
0000
0000
0001
0000
0000
0010
0000
0000
0000
0000
0001
0000
,
0000
1000
0000
0010
0000
1000
0000
0200
,
0000
0000
0320
0000
0000
0032
0000
0000
,
0003
2000
0000
0000
3000
0000
0020
0000
,
0000
0030
1000
0000
0100
0000
1000
0000
,
0000
0001
0010
0001
,
0000
0100
0010
0100
,
0000
0001
0000
1000
,
0000
0010
1000
0001
,
0000
0100
0001
0100
,
0001
1000
0010
1000
,
0010
1000
0000
0100
,
0000
0010
0001
1000
,
0000
0100
1000
0100
,
0000
0010
0000
0001
,
0000
1000
1000
0000
,
0000
0001
0000
0000
0001
0000
0000
0000
,
0000
0110
0000
1100
,
0000
0011
0000
0101
,
0000
1001
0000
0000
,
1000
0010
0100
0000
0001
0010
0100
0000
,
1000
0100
1000
0010
0100
0000
0001
0000
,
1000
0100
1000
0000
0010
1000
0001
0100
,
0001
0000
0000
0000
,
0000
0000
0000
0010
0000
0000
0000
0100
,
0000
0000
0000
1000
0000
0100
0000
0010
,
0000
0000
0000
0001
0000
1000
0000
0001
,
0000
0000
0000
0100
0000
0010
0000
0100
,
0000
0000
0000
1010
0000
0000
0000
0000
,
0000
0101
0000
0000
0101
0000
0110
0000
,
0000
1100
0000
0011
,
0000
0101
0000
2001
,
0000
0010
0000
3002
,
0000
0010
0000
2003
,
0000
0000
0000
0000
,
0000
0000
0000
0000
,
0000
0000
3000
0001
0000
0000
0000
0000
0000
0000
0000
0000
0000
0000
0000
0000
;

//---------------dance-single - ----------------
#NOTEDATA:;
#CHARTNAME:;
#STEPSTYPE:dance-single;
#DESCRIPTION:;
#CHARTSTYLE:;
#DIFFICULTY:Easy;
#METER:9;
#RADARVALUES:0.372944,0.586536,0.166474,0.279979,0.011350,345.000000,323.000000,22.000000,37.000000,0.000000,0.000000,0.000000,0.000000,0.000000,0.372944,0.586536,0.166474,0.279979,0.011350,345.000000,323.000000,22.000000,37.000000,0.000000,0.000000,0.000000,0.000000,0.000000;
#CREDIT:Daniel Van Eden;
#DISPLAYBPM:164.000000:328.000000;
#NOTES:
0000
0000
0000
0000
,
0000
0000
0000
0000
,
0000
0000
0000
0000
,
0000
0000
0000
0000
,
0000
0000
0000
0000
,
0010
0000
0010
0000
0010
0000
0000
1000
,
0000
1000
0001
0000
0010
0000
0000
0000
,
0100
0000
0100
0000
0100
0000
0000
1000
,
0000
1000
0010
0000
1000
0000
0000
0001
,
0000
0100
0000
0010
0000
0100
0000
0001
,
0000
1000
0000
0100
0000
0010
0000
0001
,
0100
0010
1000
0001
0100
0010
1000
0002
,
0000
0000
0000
0000
0000
0003
0000
2000
,
0000
3000
0000
0010
0100
0010
0000
1000
,
0000
0001
0000
1000
0000
0100
0000
0010
,
0000
0001
0000
1000
0100
1000
0000
0002
,
0000
0023
0000
0230
0000
2300
0000
3020
,
0000
0030
0000
1000
0010
1000
0000
0001
,
0000
1000
0000
0100
0000
0010
0000
0001
,
0001
0000
0000
0000
0000
1000
0000
0000
1000
0000
0000
0000
0000
0000
0200
0000
,
0000
2300
0000
3002
0000
0023
0000
0130
,
0000
0000
0000
0000
0000
1000
0000
0001
,
0000
0100
0000
0010
0000
1000
0100
0010
,
0000
0001
0000
1000
0000
0001
0000
0100
,
0000
0010
0000
0010
0000
1001
0000
1100
,
0000
0101
0000
1000
0000
0010
1000
0010
,
0000
1000
0000
0100
0000
0010
0000
0001
,
0000
0000
0010
0000
0000
0000
0000
0000
0100
0000
0000
0100
0000
0000
2000
0000
,
0000
3002
0000
0203
0000
0320
0000
1030
,
0000
0001
0000
0100
0000
0100
0000
0010
,
0000
1000
0000
0100
0000
0100
0000
0010
,
0000
0001
0000
1000
0000
1000
0000
0010
,
0000
1000
0000
0001
0000
0001
0000
2000
,
0000
3001
0000
0002
0000
0103
0000
0200
,
0000
0310
0000
0020
0000
0130
0000
0100
,
0010
0100
0010
1000
0001
1000
0001
2000
,
0000
0000
0000
0000
,
0000
3000
0000
0000
0000
0000
0000
1000
,
0000
0000
0000
0101
0000
0000
0000
0010
,
0000
0000
0000
0001
0000
0000
0000
1000
,
0000
0000
0000
0001
0000
0000
0000
0100
,
0000
0001
0000
1000
0000
0000
0000
0010
,
0000
0000
0000
1000
0000
0000
0000
0100
,
0000
0000
0000
0010
0000
0000
0000
0001
,
0000
0000
0000
0100
0000
0000
0000
0010
,
0000
1000
0000
0010
0000
1000
0000
0010
,
0000
0000
0000
1001
0000
0000
0000
1000
,
0000
0000
0000
0100
0000
0000
0000
0010
,
0000
0000
0000
0001
0000
0000
0000
1000
,
0000
0010
0000
0100
0000
0000
0000
0010
,
0000
0000
0000
1000
0000
0000
0000
0001
,
0000
0000
0000
0100
0000
0000
0000
0020
,
0000
0030
0000
0020
0000
0030
0000
0200
,
0000
0300
0000
0200
0000
0300
0000
0110
,
0000
0000
0000
0010
0000
0000
0000
1000
,
0000
0000
0000
0001
0000
0000
0000
0100
,
0000
0000
0000
0001
0000
0000
0000
0010
,
0000
0100
0000
0010
0000
0000
0000
0100
,
0000
0000
0000
1000
0000
0000
0000
0001
,
0000
0000
0000
1000
0000
0000
0000
0010
,
0000
1000
0000
0010
0000
0000
0000
0100
,
0000
0001
0000
0100
0000
0000
0000
1001
,
0000
0000
0000
0001
0000
0000
0000
1000
,
0000
0000
0000
0100
0000
0000
0000
0010
,
0000
0000
0000
0001
0000
0000
0000
1000
,
0000
0001
0000
1000
0000
0000
0000
0100
,
0000
0000
0000
0010
0000
0000
0000
0100
,
0000
0000
0000
1000
0000
0001
0000
0020
,
0000
0030
0000
0002
0000
0003
0000
0020
,
0000
0030
0000
0002
0000
0003
0000
1000
,
0000
0000
0000
0001
0000
1000
0000
0010
,
0000
1000
0000
0100
0000
0020
0000
0000
,
0000
0031
0000
0000
0000
0000
0000
0002
,
0000
0000
0203
0000
0000
0310
0000
0000
,
0000
0000
0000
1000
0000
0100
0000
1000
,
0000
0010
0000
0100
0000
0001
0000
0000
,
0000
0000
0000
0000
0000
0000
0000
0020
,
0000
0000
0230
0000
0000
1300
0000
0000
,
0000
0000
0000
0010
0000
1000
0000
0001
,
0000
1000
0000
0100
0000
0010
0000
0001
,
0000
0100
0000
0010
0000
1000
0000
0001
,
0000
1000
0000
0100
0000
0000
0000
0010
,
0000
0001
0000
1000
0000
0100
0000
1000
,
0000
0010
0000
1000
0000
0001
0000
1000
,
0000
0100
0000
1000
0100
0010
0001
1000
,
0000
0000
0001
0000
0000
1001
0000
0000
,
0000
0000
0000
0220
,
0330
0010
1000
0001
,
0000
0100
0000
0010
,
0000
1000
0000
0100
,
0000
0010
0000
0001
,
0000
1000
0100
1000
,
0000
0001
0000
0011
,
0000
0010
0000
0110
,
0000
1000
0000
1001
,
0000
0100
0001
0100
,
0000
0010
0000
1000
,
0000
0001
0010
0001
,
0000
0100
0100
0000
,
0000
0010
0000
0000
0010
0000
0000
0000
,
0000
1001
0000
1010
,
0000
0101
0000
0011
,
0000
0110
0000
0000
,
1000
0001
1000
0000
0010
1000
0010
0000
,
1000
0001
0100
0010
,
0100
0000
0000
0000
0001
0000
0000
0000
1000
0000
0000
0001
0000
0000
1000
0000
,
0001
0000
0000
0000
,
0000
0000
0000
0010
0000
0000
0000
1000
,
0000
0000
0000
0001
0000
0100
0000
0001
,
0000
0000
0000
1000
0000
0000
0000
0100
,
0000
0000
0000
0010
0000
0001
0000
0010
,
0000
0001
0000
0010
0000
0000
0000
0000
,
0000
0100
0000
0000
0100
0000
1100
0000
,
0000
1010
0000
0101
,
0000
0110
0000
2002
,
0000
0000
0000
0000
,
0000
0000
0000
0000
,
0000
0000
0000
0000
,
0000
0000
0000
0000
,
0000
3003
0000
0000
;

//---------------dance-single - ----------------
#NOTEDATA:;
#CHARTNAME:;
#STEPSTYPE:dance-single;
#DESCRIPTION:;
#CHARTSTYLE:;
#DIFFICULTY:Beginner;
#METER:5;
#RADARVALUES:0.229172,0.360756,0.068103,0.000000,0.003783,212.000000,203.000000,9.000000,0.000000,0.000000,0.000000,0.000000,0.000000,0.000000,0.229172,0.360756,0.068103,0.000000,0.003783,212.000000,203.000000,9.000000,0.000000,0.000000,0.000000,0.000000,0.000000,0.000000;
#CREDIT:Daniel Van Eden;
#DISPLAYBPM:164.000000:328.000000;
#NOTES:
// measure 0
0000
0000
0000
0000
,  // measure 1
0000
0000
0000
0000
,  // measure 2
0000
0000
0000
0000
,  // measure 3
0000
0000
0000
0000
,  // measure 4
0000
0000
0000
0000
,  // measure 5
0010
0010
0010
0000
,  // measure 6
1000
1000
1000
0000
,  // measure 7
0001
0001
0001
0000
,  // measure 8
0100
0000
0100
0000
0100
0000
0000
0010
,  // measure 9
0000
0000
0000
1000
0000
0000
0000
0100
,  // measure 10
0000
0000
0000
0010
0000
0000
0000
0001
,  // measure 11
0000
0000
0000
1000
0000
0000
0000
0001
,  // measure 12
0000
1000
0000
0001
0000
1000
0000
0001
,  // measure 13
0000
0000
0000
1001
0000
0000
0000
1000
,  // measure 14
0000
0100
0000
1000
0000
0000
0000
0010
,  // measure 15
0000
0000
0000
1000
0000
0000
0000
0001
,  // measure 16
0000
0100
0000
0001
0000
0100
0000
0001
,  // measure 17
0000
0000
0000
1000
0000
0000
0000
0010
,  // measure 18
0000
1000
0000
0010
0000
0000
0000
0100
,  // measure 19
0000
0000
0000
0000
0000
0000
0000
0010
,  // measure 20
0000
0010
0000
1000
0000
1000
0000
0001
,  // measure 21
0000
0000
0000
0000
0000
1000
0000
0000
,  // measure 22
0000
0100
0000
0000
0000
0010
0000
0001
,  // measure 23
0000
0010
0000
0000
0000
0001
0000
0000
,  // measure 24
0000
1000
0000
0001
0000
1000
0000
0001
,  // measure 25
0000
1000
0000
0000
0000
0010
0000
0000
,  // measure 26
0000
1000
0000
0000
0000
0100
0000
0010
,  // measure 27
0000
0100
0000
0000
0000
0000
0000
0100
,  // measure 28
0000
0010
0000
0100
0000
0010
0000
0100
,  // measure 29
0000
0100
0000
0000
0000
1000
0000
0000
,  // measure 30
0000
0010
0000
0010
0000
0010
0000
0000
,  // measure 31
0000
1000
0000
0000
0000
0001
0000
0000
,  // measure 32
0000
0100
0000
0100
0000
0100
0000
0010
,  // measure 33
0000
0000
0000
1000
0000
0000
0000
0001
,  // measure 34
0000
0000
0000
0100
0000
0000
0000
1000
,  // measure 35
0000
0100
0000
1000
0000
0100
0000
0010
,  // measure 36
0000
0000
0000
0000
,  // measure 37
0000
0000
0000
0000
0000
0000
0000
0001
,  // measure 38
0000
0000
0000
0000
0000
0000
0000
1000
,  // measure 39
0000
0000
0000
0000
0000
0000
0000
0010
,  // measure 40
0000
0000
0000
1000
0000
0000
0000
0010
,  // measure 41
0000
0000
0000
1000
0000
0000
0000
0001
,  // measure 42
0000
0000
0000
0000
0000
0000
0000
0010
,  // measure 43
0000
0000
0000
0000
0000
0000
0000
1000
,  // measure 44
0000
0000
0000
0001
0000
0000
0000
1000
,  // measure 45
0000
0000
0000
0100
0000
0000
0000
1000
,  // measure 46
0000
0000
0000
0000
0000
0000
0000
0010
,  // measure 47
0000
0000
0000
0000
0000
0000
0000
0100
,  // measure 48
0000
0000
0000
0010
0000
0000
0000
0100
,  // measure 49
0000
0000
0000
0001
0000
0000
0000
0100
,  // measure 50
0000
0000
0000
0000
0000
0000
0000
0010
,  // measure 51
0000
0000
0000
0000
0000
0000
0000
1000
,  // measure 52
0000
0000
0000
1000
0000
0000
0000
1000
,  // measure 53
0000
0000
0000
0001
0000
0000
0000
1001
,  // measure 54
0000
0000
0000
0000
0000
0000
0000
0010
,  // measure 55
0000
0000
0000
0000
0000
0000
0000
0110
,  // measure 56
0000
0000
0000
0000
0000
0000
0000
0100
,  // measure 57
0000
0000
0000
0000
0000
0000
0000
1001
,  // measure 58
0000
0000
0000
0000
0000
0000
0000
1000
,  // measure 59
0000
0000
0000
0000
0000
0000
0000
0010
,  // measure 60
0000
0000
0000
1000
0000
0000
0000
0010
,  // measure 61
0000
0000
0000
1000
0000
0000
0000
0100
,  // measure 62
0000
0000
0000
0000
0000
0000
0000
0110
,  // measure 63
0000
0000
0000
0000
0000
0000
0000
0010
,  // measure 64
0000
0000
0000
0010
0000
0000
0000
0001
,  // measure 65
0000
0000
0000
0000
0000
0000
0000
0001
,  // measure 66
0000
0000
0000
1000
0000
0000
0000
0001
,  // measure 67
0000
0000
0000
0000
0000
0000
0000
1000
,  // measure 68
0000
0000
0000
0010
0000
0000
0000
1000
,  // measure 69
0000
0000
0000
0010
0000
0000
0000
1000
,  // measure 70
0000
0000
0000
0000
0000
0000
0000
0001
,  // measure 71
0000
0000
0000
0000
0000
0000
0000
0010
,  // measure 72
0000
0000
0000
0000
0000
0000
0000
0100
,  // measure 73
0000
0000
0000
0100
0000
0000
0000
1001
,  // measure 74
0000
0000
0000
0000
0000
0000
0000
1000
,  // measure 75
0000
0000
0000
0000
0000
0000
0000
0010
,  // measure 76
0000
0000
0000
0000
0000
0000
0000
1000
,  // measure 77
0000
0000
0000
1000
0000
0000
0000
0110
,  // measure 78
0000
0000
0000
0010
0000
0000
0000
0100
,  // measure 79
0000
0100
0000
0100
0000
0000
0000
0010
,  // measure 80
0000
0000
0000
1000
0000
0000
0000
0001
,  // measure 81
0000
0001
0000
0001
0000
0000
0000
0010
,  // measure 82
0000
0000
0000
0100
0000
0000
0000
1000
,  // measure 83
0000
1000
0000
1000
0000
0000
0000
0010
,  // measure 84
0000
0000
0000
1000
0000
0000
0000
0001
,  // measure 85
0000
0001
0000
0001
0000
0000
0000
0000
,  // measure 86
0000
0000
0000
1001
,  // measure 87
0000
0010
0000
0000
,  // measure 88
0000
1000
0000
0001
,  // measure 89
0000
1000
0000
0001
,  // measure 90
0000
1000
0000
0000
,  // measure 91
0000
0010
0000
0000
,  // measure 92
0000
1000
0000
0000
,  // measure 93
0000
0100
0000
0010
,  // measure 94
0000
0100
0000
0000
,  // measure 95
0000
0001
0000
0000
,  // measure 96
0000
1000
0000
0010
,  // measure 97
0000
1000
0000
0010
,  // measure 98
0000
1000
0000
0000
,  // measure 99
0000
0000
0000
0000
,  // measure 100
0000
0001
0000
0010
,  // measure 101
0000
0001
0000
0010
,  // measure 102
0000
0001
0000
0000
,  // measure 103
0000
0100
0000
1000
,  // measure 104
1000
1000
0000
0010
,  // measure 105
0000
1000
0000
0001
,  // measure 106
0001
0000
0000
0000
,  // measure 107
0000
0000
0000
1000
0000
0000
0000
0000
,  // measure 108
0000
0000
0000
0001
0000
0000
0000
0000
,  // measure 109
0000
0000
0000
0100
0000
0000
0000
0010
,  // measure 110
0000
0000
0000
0100
0000
0000
0000
0000
,  // measure 111
0000
0000
0000
0010
0000
0000
0000
0000
,  // measure 112
0000
0000
0000
1000
,  // measure 113
0000
0001
0000
1000
,  // measure 114
0000
0001
0000
1000
,  // measure 115
0000
0000
0000
0000
,  // measure 116
0000
0000
0000
0000
,  // measure 117
0000
0000
0000
0000
,  // measure 118
0000
0000
0000
0000
,  // measure 119
0000
0000
0000
1001
0000
0000
0000
0000
0000
0000
0000
0000
0000
0000
0000
0000
;
