#TITLE:BRAIN-AIN POWER-ER;
#SUBTITLE:;
#ARTIST:NOMA-A;
#TITLETRANSLIT:;
#SUBTITLETRANSLIT:;
#ARTISTTRANSLIT:;
#GENRE:;
#CREDIT:;
#BANNER:banner.png;
#BACKGROUND:background.png;
#LYRICSPATH:;
#CDTITLE:;
#MUSIC:brain-ain power-er.ogg;
#OFFSET:-0.118958;
#SAMPLESTART:92.542412;
#SAMPLELENGTH:16.962173;
#SELECTABLE:YES;
#BPMS:0.000000=169.550003
,153.000000=84.775002
,177.000000=169.699997
,201.000000=169.800003
,234.833328=339.600006
,235.166672=169.800003
,236.250000=339.600006
,236.750000=169.800003
,237.750000=169.449997
,249.500000=169.550003
,261.500000=170.000000
,273.500000=173.000000
,275.500000=170.000000
,276.500000=169.550003
;
#STOPS:
;
#BGCHANGES:;
#KEYSOUNDS:;
#ATTACKS:;

//---------------dance-single - ----------------
#NOTES:
     dance-single:
     :
     Challenge:
     1:
     0.870720,1.256015,0.507316,0.318884,0.786340,841.000000,771.000000,70.000000,44.000000,0.000000,0.000000,0.870720,1.256015,0.507316,0.318884,0.786340,841.000000,771.000000,70.000000,44.000000,0.000000,0.000000:
// measure 0
0000
0000
0000
0000
,  // measure 1
0000
0000
0000
0000
,  // measure 2
0000
0000
0010
1000
0001
1000
0001
1000
,  // measure 3
0100
0010
0001
0010
0001
0010
0100
0010
,  // measure 4
0001
0100
0001
0100
0010
1000
0100
0010
,  // measure 5
0100
0010
0001
0100
0010
1000
0010
1000
,  // measure 6
0001
1000
0100
0010
0100
0010
0001
0100
,  // measure 7
0001
0000
0000
2000
0000
0000
3001
0000
0000
2000
0000
0000
3001
0000
0100
0000
0001
0000
1000
0000
0000
0020
0000
0000
,  // measure 8
1030
0000
0020
0000
1030
0100
0010
0001
1000
0010
1000
0001
1000
0010
1000
0001
,  // measure 9
0010
0100
1000
0100
0010
0001
1000
0001
0010
0001
1000
0001
0010
0100
1000
0001
,  // measure 10
0100
0001
1000
0010
0100
0001
1000
0010
1000
0100
1000
0100
0010
0001
1000
0100
,  // measure 11
0010
0001
1000
0100
0010
0001
0100
0001
1000
0010
1000
0010
1000
0010
1000
0010
,  // measure 12
0100
0000
0100
0000
0001
1000
0010
0100
0001
1000
0010
0100
0001
0000
0000
0010
,  // measure 13
0000
0000
0100
0010
0000
0000
0100
0000
0000
1000
0000
0000
0001
0000
0100
0000
,  // measure 14
0001
0100
0001
0001
0100
0010
0100
0010
,  // measure 15
1000
0000
1001
0000
1001
0000
1000
0001
,  // measure 16
0100
0010
0100
0010
1000
0000
0011
0000
,  // measure 17
0011
0000
0010
0001
0010
1000
0010
1000
,  // measure 18
0010
0000
0101
0000
0101
0000
0001
1000
,  // measure 19
0100
1000
0100
1000
0010
0000
1001
0001
,  // measure 20
1001
0001
1100
0000
0110
0000
0110
0000
,  // measure 21
0010
0001
0100
0010
0100
0010
1000
0001
,  // measure 22
1000
0100
1000
0100
0010
0001
0100
0010
,  // measure 23
0100
0010
1000
0000
0101
0000
0101
0000
,  // measure 24
0010
1100
1100
2000
,  // measure 25
3001
0000
0010
0000
0001
0000
0001
0000
0010
0000
0001
0000
0202
0000
0000
0303
0000
0000
2020
0000
0000
3030
0000
0000
,  // measure 26
2020
3030
1000
0001
0100
0001
0100
0001
,  // measure 27
0010
0000
0110
0010
0110
0010
0002
0000
,  // measure 28
1003
0010
1000
0010
1000
0000
0101
0000
,  // measure 29
0101
0000
2000
0000
3001
0010
0001
0010
,  // measure 30
0100
1001
1001
0001
,  // measure 31
1010
0000
1010
0000
0010
0000
0011
0001
,  // measure 32
0011
0001
1000
0100
0010
0001
0010
0001
,  // measure 33
1000
0010
0100
0001
0100
0001
0010
0001
,  // measure 34
1000
0100
1000
0100
1000
0000
1001
0000
,  // measure 35
1001
0000
0010
0001
1000
0010
1000
0010
,  // measure 36
0100
0000
0101
0000
0101
0000
1000
0001
,  // measure 37
0010
0000
0000
0001
0000
0000
0010
0000
0000
0001
0000
0000
1000
0000
0000
0000
0100
0000
0010
0000
0100
0000
1000
0000
,  // measure 38
0010
0000
0000
0000
0100
0000
0000
0000
1000
0000
0000
0000
0200
0000
0000
0000
0000
0000
0000
0000
0000
0300
0000
0000
0001
0000
0100
0000
0001
0000
0100
0000
0000
0100
0000
0000
0001
0000
0100
0000
0001
0000
0100
0000
0000
0100
0000
0000
,  // measure 39
0010
0000
0000
0000
0000
0000
0000
0000
0000
0000
0000
0000
0000
0000
0000
0000
0010
0000
0000
0000
0000
0000
0000
0000
0000
0000
0000
0000
0000
0000
0000
0000
0010
0000
0000
0000
0000
0000
0000
0000
0000
0000
0000
0000
0000
0000
0000
0000
1000
0000
0000
0000
0000
0000
0100
0000
0000
0000
0000
0000
0010
0000
0000
0000
0000
0000
0001
0000
0000
0000
0000
0000
2000
0000
0000
0000
0000
0000
0000
0000
0000
0000
0000
0000
3000
0000
0000
0000
0000
0000
0000
0000
0000
0000
0000
0000
1000
0000
0000
0000
0000
0000
0100
0000
0000
0000
0000
0000
0010
0000
0000
0000
0000
0000
0001
0000
0000
0000
0000
0000
2000
0000
0000
0000
0000
0000
0000
0000
0000
0000
0000
0000
3000
0000
0000
0000
0000
0000
0000
0000
0000
0000
0000
0000
0202
0000
0000
0000
0000
0000
0000
0000
0000
0000
0000
0000
0000
0000
0000
0000
0000
0000
0000
0000
0000
0000
0000
0000
0000
0000
0000
0000
0000
0000
0000
0000
0000
0000
0000
0000
0300
0000
0000
0000
0000
0000
0000
0000
0000
0000
0000
0000
,  // measure 40
1000
0000
1000
0000
2000
0000
3000
0000
1000
0000
1000
0000
2000
0000
3003
0000
0110
0000
0000
0000
1000
0000
1000
0000
0001
0100
0001
0100
0010
1000
0100
0010
,  // measure 41
0001
0100
0001
0100
0010
1000
0100
0010
0001
0000
0000
0000
1000
0000
0000
0000
2010
0000
0000
0010
0000
0000
3001
0000
2010
0000
0000
0010
0000
0000
3001
0000
,  // measure 42
0202
0000
0000
0000
0000
0000
0303
0000
0000
0000
0000
0000
0010
0000
0001
0000
0010
0000
0200
0000
0000
0300
0000
0000
0010
0000
0001
0000
0010
0000
0200
0000
0000
0300
0000
0000
1000
0000
0000
0010
0000
0000
1000
0000
0000
1000
0000
0000
,  // measure 43
0002
0000
0000
0000
0000
0000
0000
0000
0000
0000
0000
0000
0000
0000
0000
0000
0000
0000
0000
0000
0000
0000
0000
0000
1003
0000
0000
0000
0000
0000
0000
0000
0000
0000
0000
0000
0010
0000
0000
0000
0000
0000
1000
0000
0000
0000
0000
0000
0002
0000
0000
0000
0000
0000
0000
0000
0000
0000
0000
0000
0000
0000
0000
0000
0000
0000
0000
0000
0000
0000
0000
0000
1003
0000
0000
0000
0000
0000
0000
0000
0000
0000
0000
0000
0010
0000
0000
0000
0000
0000
1000
0000
0000
0000
0000
0000
0200
0000
0000
0000
0000
0000
0000
0000
0000
0000
0000
0000
0000
0000
0000
0000
0000
0000
0000
0000
0000
0000
0000
0000
1300
0000
0000
0000
0000
0000
0000
0000
0001
0000
0000
0000
0000
0000
0000
0000
1000
0000
0000
0000
0000
0000
0000
0000
0010
0000
0000
0000
0000
0000
1000
0000
0000
0000
0000
0000
0100
0000
0000
0000
0000
0000
0010
0000
0000
0000
0000
0000
0002
0000
0000
0000
0000
0000
0000
0000
0000
0000
0000
0000
1003
0000
0000
0000
0000
0000
0000
0000
0000
0000
0000
0000
,  // measure 44
0010
1000
0100
0010
0002
0000
1003
0000
0010
0000
0000
0000
0000
0000
0000
0000
1010
0000
0000
0000
0000
0000
0000
0000
1010
0000
0000
0000
0000
0000
0000
0000
,  // measure 45
1000
0100
0010
0100
0010
0100
1000
0000
,  // measure 46
0011
0000
0011
0000
0100
0010
1000
0001
,  // measure 47
1000
0001
0100
0000
1001
0000
1001
0000
,  // measure 48
0001
0000
1100
0000
1100
0000
0010
0001
,  // measure 49
1000
0010
1000
0010
0100
0001
1001
1000
,  // measure 50
1001
1000
0001
0100
0110
0000
0110
0000
,  // measure 51
1000
0010
0100
0001
0100
0001
1000
0100
,  // measure 52
0011
0011
0010
0110
,  // measure 53
0110
2000
0001
3001
,  // measure 54
0010
0001
1000
0100
1000
0100
1000
0000
,  // measure 55
1001
0000
1001
0000
0020
0000
1000
1000
,  // measure 56
1000
1030
1000
0100
0010
0001
0010
0001
,  // measure 57
0100
0000
0001
0000
1000
0000
0010
0000
0000
1000
0000
0000
0100
0000
0000
0010
0000
0000
0001
0000
0000
0010
0000
0000
0100
0000
0000
0010
0000
0000
0001
0000
0000
0010
0000
0000
0100
0000
0000
0000
0000
0000
0000
0000
0000
1100
0000
0000
,  // measure 58
0000
0000
0000
0000
0000
0000
1001
0000
0000
0000
0000
0000
0000
0000
0000
0000
0000
0000
1100
0000
0000
0000
0000
0000
0000
0000
0000
1001
0000
0000
0000
0000
0000
0000
0000
0000
0000
0000
0101
0000
0000
0000
0000
0000
1010
0000
0000
0000
,  // measure 59
0000
0000
0000
0000
0000
0000
0000
0000
0101
0000
0000
0000
0000
0000
1010
0000
0000
0000
2000
0000
0000
0000
0000
0000
0000
0000
0000
0000
0000
0000
3000
0000
0000
0000
0000
0000
0010
0000
0000
0100
0000
0000
0000
0000
0000
0000
0000
0000
,  // measure 60
0010
0100
0001
0010
0001
1000
0100
1000
0001
0010
0100
1000
0001
0010
0001
1000
,  // measure 61
0001
1000
0100
0000
0010
0000
0100
0000
0010
0000
0001
0000
1000
0000
2000
0000
,  // measure 62
3010
0000
2000
0000
3010
0000
0200
0000
0000
0000
0301
1000
0100
1000
0001
1000
,  // measure 63
0100
1000
0010
1000
0001
0100
0010
0100
0010
1000
0010
0100
0010
1000
0001
0100
,  // measure 64
0001
1000
0010
1000
0010
0100
0100
0001
,  // measure 65
1000
0000
0001
0000
1000
0000
0201
0000
0000
0000
1300
0000
0100
0001
1000
0000
,  // measure 66
0100
0001
0100
0000
1000
0010
0000
1000
0010
1000
0000
1000
0010
1000
0100
0010
,  // measure 67
0001
1000
0100
0000
0010
0000
0100
0000
0010
0000
0001
0000
1000
0000
1000
0000
,  // measure 68
0100
0000
1000
0000
0100
0000
0020
0000
0000
0000
0031
0100
0001
0000
0001
0100
,  // measure 69
0001
0000
1000
0001
0000
1000
0010
0000
0100
0001
0010
0000
0100
0001
0100
1000
,  // measure 70
0010
1000
0001
0000
0100
0000
0001
0000
0100
0000
0010
1000
0010
0000
0100
0001
,  // measure 71
0100
0010
0100
0001
0100
0010
2000
0000
0000
0000
3000
0000
0010
0100
0000
0000
,  // measure 72
0010
0100
0001
0010
0001
1000
0100
1000
0001
0010
0100
1000
0001
0010
0001
1000
,  // measure 73
0001
1000
0100
0000
0010
0000
0100
0000
0010
0000
0001
0000
1000
0000
2000
0000
,  // measure 74
3010
0000
2000
0000
3010
0000
0200
0000
0000
0000
0301
1000
0100
1000
0001
1000
,  // measure 75
0100
1000
0010
1000
0001
0100
0010
0100
0010
1000
0010
0100
0010
1000
0001
0100
,  // measure 76
0001
1000
0010
1000
0010
0100
0100
0001
,  // measure 77
1000
0000
0001
0000
1000
0000
0001
0100
0001
0100
0010
1000
0100
1000
0010
1000
,  // measure 78
0100
1000
0100
0010
0001
0010
0100
1000
0001
1000
0100
1000
0001
1000
0001
0010
,  // measure 79
0001
0010
0100
0000
0010
0000
0100
0000
0010
0000
1000
0000
0010
0000
0010
0000
,  // measure 80
0001
0010
0001
0101
0100
0110
0010
0110
,  // measure 81
0010
0000
1010
0000
1000
0000
0101
0000
0001
0000
0101
0000
0001
0000
1000
0010
,  // measure 82
1000
0001
0100
0010
0100
0001
0100
0010
0100
0001
0010
0100
1000
0001
0010
0001
,  // measure 83
1000
0100
0010
0001
1000
0100
0010
0001
0100
0010
1000
0001
1000
0100
1000
0001
,  // measure 84
1000
0000
0000
0100
0000
0000
0010
0000
0001
0000
0010
0000
0001
0000
0000
0100
0000
0000
0010
0000
0000
1000
0000
0000
0010
0000
0000
1000
0000
0000
0010
0000
0000
1000
0000
0000
0010
0000
0000
1000
0000
0000
0002
0000
0000
0000
0000
0000
,  // measure 85
0000
0000
0000
0000
,  // measure 86
0000
0000
0000
0000
,  // measure 87
0000
0000
0000
0000
,  // measure 88
0000
0000
0000
0000
0000
0000
0000
0003
;
