#TITLE:Arty Boy;
#SUBTITLE:(Tennyson Remix);
#ARTIST:Flight Facilities with Emma Louise;
#TITLETRANSLIT:;
#SUBTITLETRANSLIT:;
#ARTISTTRANSLIT:;
#GENRE:;
#CREDIT:;
#BANNER:Arty Boy (Tennyson Remix).png;
#BACKGROUND:Arty Boy (Tennyson Remix)-bg.png;
#LYRICSPATH:;
#CDTITLE:;
#MUSIC:Arty Boy (Tennyson Remix).ogg;
#OFFSET:3.323060;
#SAMPLESTART:29.195086;
#SAMPLELENGTH:14.545450;
#LASTBEATHINT:2.520939;
#SELECTABLE:YES;
#BPMS:0.000000=66.000000
;
#STOPS:
;
#BGCHANGES:;
#KEYSOUNDS:;
#ATTACKS:;

//---------------dance-single - ----------------
#NOTES:
     dance-single:
     :
     Hard:
     12:
     0.528432,0.495050,0.314068,0.118648,0.872411,530.000000,485.000000,45.000000,17.000000,0.000000,0.000000,0.528432,0.495050,0.314068,0.118648,0.872411,530.000000,485.000000,45.000000,17.000000,0.000000,0.000000:
0000
0000
0000
0000
0000
0000
0000
0000
0000
0000
0000
0000
0000
0000
0000
1000
,
0100
0010
0001
0100
0001
0001
1000
1000
0010
1000
0100
1000
1000
0110
0000
0100
,
0001
1000
0010
0100
0001
0001
1000
1100
0010
0001
0100
0010
2000
0000
3010
0100
,
0001
1000
0010
0100
0100
0010
0010
1000
0010
0100
0001
0010
0100
1000
1000
0100
,
0010
0001
0100
1000
0000
0001
0010
1000
0000
0100
0010
0001
1000
0000
0000
0000
,
0010
0000
0000
1000
0000
0000
0100
0000
0000
0100
0000
0000
0010
0000
0000
0100
0000
0000
1000
0000
0000
1001
0000
0000
0000
0000
0000
0100
0000
0000
0100
0000
0000
0001
0000
0000
0100
0000
0000
0010
0000
0000
1000
0000
0000
0100
1000
0100
,
0010
0001
0100
0010
0010
1000
0010
1010
1000
0100
0010
0001
1001
0000
0001
0010
,
0001
0100
0100
0010
0100
0001
1000
0010
0100
0010
0010
1000
1000
0001
0001
0100
,
0010
1000
0001
0001
0010
0100
0100
0010
0001
0010
0100
0100
0000
0000
0000
0010
,
0100
0010
0100
0010
0001
0100
0010
0000
1000
0010
1000
0001
0101
0000
0011
0000
,
0110
0000
0000
0000
0100
0000
1000
0000
0001
0000
1000
0000
0001
0000
1000
0000
0000
0000
0010
1000
0010
0000
0100
0000
0001
0000
0000
0000
0011
0000
0000
0000
,
0100
0010
0001
0010
0100
1000
0010
0000
0000
0010
1000
0010
1010
0000
1100
0000
,
0101
0000
0000
0000
0000
0000
0010
0000
0000
0100
0000
0000
1010
0000
0000
1000
0000
0000
0001
0000
0000
0010
0000
0000
0000
0000
0000
0001
0000
0000
0100
0000
0000
0001
0000
0000
1000
0000
0000
0010
0100
0010
0100
0000
0000
0000
0000
0000
,
0010
1000
0001
0100
0001
0010
0100
0000
0100
1000
0001
0010
0011
0000
0110
0000
,
1100
0000
0000
0000
0010
0000
0100
0000
0002
0000
0000
0013
0100
0000
2200
0000
0000
0000
0000
0000
3300
0000
0010
0001
1000
0000
0100
1000
0010
0000
0100
0000
,
0001
1000
0010
0100
0100
0001
0010
0000
1000
0010
0001
0100
0110
0000
1010
0000
,
1001
0000
0010
0000
0000
0000
0010
0000
0011
0000
0000
0001
0100
0000
2010
0000
0000
0000
0100
0000
3000
0000
0100
0000
0010
0000
0001
0000
0000
0000
0000
0000
,
1000
0001
0001
0001
0001
0001
0000
1000
1000
0100
1000
1000
0010
0100
0001
1000
,
0100
0000
0000
0010
0000
0000
0100
0000
0000
1000
0000
0000
0010
0000
0000
0100
0000
0000
0100
0000
0000
0010
1000
0001
0100
0000
0000
0010
0000
0000
0010
0000
0000
1000
0000
0000
0000
0000
0000
0001
0000
0000
0000
0000
0000
0000
0000
0000
,
1001
0001
0100
0001
0010
1000
0010
0001
1000
0100
0010
0100
1000
0001
0100
0010
,
0010
1000
0100
0010
0100
1100
0000
0000
1000
0100
0010
0011
0000
0000
0101
0000
,
0001
0010
0001
0100
0010
0100
0001
0011
0010
0100
1000
0010
0001
0010
1000
0001
,
1000
0010
1000
0001
0001
1000
1000
0010
0100
0010
1000
0100
0100
0010
0001
1000
,
0100
0010
0100
1000
0001
1000
0100
0010
0001
0100
0010
0100
0010
1000
0001
0000
,
0201
0000
0010
0310
0000
0000
0000
0010
0010
1000
0100
0001
0000
0000
0000
0001
,
0010
0100
0010
0100
1000
0010
0100
0000
0001
0100
0001
1000
1010
0000
1100
0000
,
0110
0000
0000
0000
0010
0000
0001
0000
1000
0000
0001
0000
1000
0000
0001
0000
0000
0000
0100
0001
0100
0000
0010
0000
1000
0000
0000
0000
1100
0000
0000
0000
,
0010
0100
1000
0100
0010
0001
0100
0000
0000
0100
0001
0100
0101
0000
0011
0000
,
1010
0000
0000
0000
0000
0000
0100
0000
0000
0010
0000
0000
0101
0000
0000
0001
0000
0000
1000
0000
0000
0100
0000
0000
0000
0000
0000
1000
0000
0000
0010
0000
0000
1000
0000
0000
0001
0000
0000
0100
0010
0100
0010
0000
0000
0000
0000
0000
,
0100
0001
1000
0010
1000
0100
0010
0000
0010
0001
1000
0100
1100
0000
0110
0000
,
0011
0000
0000
0000
0100
0000
0010
0000
2000
0000
0000
3100
0010
0000
0022
0000
0000
0000
0000
0000
0033
0000
0100
1000
0001
0000
0010
0001
0100
0010
1000
0010
,
1000
0001
0100
0010
0010
1000
0100
0000
0001
0100
1000
0010
0110
0000
0101
0000
,
1001
0000
0000
0000
0000
0000
0000
0000
0000
0000
0000
0000
0100
0000
0000
0000
0000
0000
0000
0000
0000
0000
0000
0000
0000
0000
0000
0000
0000
0000
0000
0000
0000
0000
0000
0000
0100
0000
0000
0000
0000
0000
0000
0000
0000
0000
0000
0000
1100
0000
0000
0000
0000
0000
0000
0000
0000
0000
0000
0000
1000
0000
0000
0000
0100
0000
0000
0000
0010
0000
0000
0000
0001
0000
0000
0000
0000
0000
0000
0000
0000
0000
0000
0000
0102
0000
0000
0000
0000
0000
0000
0000
0000
0000
0000
0000
0000
0000
0000
0000
0000
0000
0000
0000
0000
0000
0000
0000
0010
0000
0000
0000
0000
0000
0000
0000
0000
0000
0000
0000
1003
0000
0000
0000
0000
0000
0000
0000
0000
0000
0000
0000
0100
0000
0000
0000
0000
0000
1000
0000
0000
0000
0000
0000
0001
0000
0000
0000
0000
0000
0000
0000
0000
0000
0000
0000
0100
0000
0000
0000
0000
0000
0000
0000
0000
0000
0000
0000
0020
0000
0000
0000
0000
0000
0000
0000
0000
0000
0000
0000
0000
0000
0000
0000
0000
0000
0000
0000
0000
0000
0000
0000
,
1030
0000
0010
0100
0000
0010
1000
0000
0000
0000
0000
0000
0000
0000
0000
0000
0001
0000
0010
0100
0000
0010
0001
0000
0000
0000
0000
0000
2000
0000
0000
0000
,
3010
0000
1000
0001
0000
1000
0001
0000
0000
0000
0000
0000
0100
0000
0001
0000
0100
0000
0010
1000
0000
0001
1000
0000
0000
0000
0000
0000
0200
0000
0000
0000
,
0310
0000
0001
0010
0000
0100
0010
0000
0000
0000
0000
0000
0000
0000
0000
0000
0001
0000
1000
0010
0000
0100
0010
0000
0000
0000
0000
0000
2000
0000
3002
0000
,
0023
0000
0000
0200
0000
0000
0330
0000
0000
0000
0000
0000
0000
0000
0000
0000
;

//---------------dance-single - ----------------
#NOTES:
     dance-single:
     :
     Challenge:
     11:
     0.478580,0.426086,0.230317,0.195420,0.690950,480.000000,447.000000,33.000000,28.000000,0.000000,0.000000,0.478580,0.426086,0.230317,0.195420,0.690950,480.000000,447.000000,33.000000,28.000000,0.000000,0.000000:
0000
0000
0000
0000
0000
0000
0000
0000
0000
0000
0000
0000
0000
0000
0000
0010
,
1000
0010
1000
0001
0100
0001
0010
0100
1000
0010
1000
0100
0010
0100
0010
0001
,
1000
0100
1000
0010
0100
0001
0100
0010
0100
0001
1000
0010
0010
1000
0100
0010
,
0001
1000
0100
1000
1000
0010
0010
1000
0001
0100
0010
0100
0001
0010
0010
0001
,
0010
0100
1000
0010
0100
0010
0100
0001
1000
0010
0100
0001
1000
0100
0010
0001
,
0010
0100
1000
0010
1000
0010
0100
0001
1000
0100
0010
0001
1000
0010
1000
0001
,
0100
0010
0100
0001
0010
0100
1000
0010
0100
0010
1000
0001
0010
0100
0010
0001
,
1000
0100
1000
0010
0100
0001
0100
0010
1000
0001
0001
1000
1000
0010
1000
0100
,
0010
0100
0010
0001
0010
0010
0100
0100
0010
0100
1000
1000
0000
0000
0000
1000
,
1000
0100
0010
0100
0020
0000
0031
0000
0010
0001
0100
0001
2000
0000
3010
0000
,
0110
0000
0010
0100
0010
0000
0010
1000
0000
1000
0001
0100
0010
0000
1001
0000
,
0001
0100
0010
0100
0020
0000
1030
0000
1000
0001
0010
0100
2000
0000
3010
0000
,
0101
0000
0001
0100
0020
0000
1030
0001
1000
0100
0010
0100
0010
0000
0011
0000
,
1000
0100
1000
0001
0100
0000
0010
0000
0100
0001
0010
0100
1100
0000
1010
0000
,
0110
0000
0100
0001
0020
0000
0100
0200
0000
0000
0330
0000
1100
0000
0101
0000
,
1000
0010
0100
0010
1000
0001
0100
0000
0001
0010
0100
1000
1100
0000
0110
0000
,
0011
0000
0010
0001
0200
0000
0010
0020
0000
0000
0330
0000
1010
0000
0000
0000
,
0010
0100
0010
1000
1000
1000
0000
0001
0001
0100
0010
1000
0010
1000
0001
0100
,
0001
0010
0100
1000
0010
1000
0001
0100
0001
0010
0100
1000
0010
0100
0001
0100
,
0010
1000
0001
0010
0100
0010
0001
1000
0100
1000
0010
0100
0001
0100
0010
1000
,
0001
0100
0010
0100
0000
0000
0001
0010
0010
0100
1000
1100
0000
0000
0100
1000
,
0010
0100
0010
1000
0001
0100
0010
0100
0001
0010
0100
0010
0001
1000
0010
1000
,
0001
0100
0010
0100
0001
1000
0010
1000
0100
1000
0001
0010
0100
0010
0001
1000
,
0010
0100
0001
0010
0100
1000
0010
1000
0001
0100
0010
0100
0001
1000
0010
0000
,
1000
0100
0010
0020
0000
0000
0030
0010
0010
0001
1000
0100
0000
0000
0000
0100
,
0100
0010
0001
1000
0010
0100
0010
0000
0100
0001
0010
0001
1100
0000
0101
0000
,
1010
0000
0010
1000
0002
0000
0100
0200
0000
0000
0303
0010
1000
0000
1001
0000
,
0010
1000
0001
1000
0200
0000
0310
0000
0010
0001
0100
0010
0101
0000
0011
0000
,
0110
0000
1000
0100
2000
0000
0010
0020
0000
0000
3030
0000
0110
0000
0101
0000
,
0010
0100
0001
0100
0002
0000
0013
0000
0100
0010
0001
0010
0110
0000
1100
0000
,
1001
0000
0100
0001
0020
0000
0100
0200
0330
0100
1000
0001
1001
0000
0101
0000
,
1000
0100
0010
0100
0010
0001
0100
0000
0001
0010
0100
1000
1010
0000
0101
0000
,
1001
0000
0010
0001
0011
0000
0100
2002
0000
0000
0000
0000
0000
0000
3003
0000
,
1000
0100
0010
0002
0003
0000
0001
0100
0010
2000
0000
0000
3000
0000
0000
0000
,
0010
0100
0001
2000
3000
0000
0100
0010
0001
2000
0000
0000
3000
0000
0000
0000
,
0010
1000
0001
0200
0300
0000
0001
0010
0100
2000
0000
0000
3000
0000
0100
1000
,
0001
0100
0010
2000
3000
0000
0010
0100
0001
0020
0000
0000
0000
0000
0000
0000
,
0030
0000
0000
0000
;

//---------------dance-single - ----------------
#NOTES:
     dance-single:
     :
     Beginner:
     1:
     0.131610,0.129117,0.041876,0.000000,0.000000,132.000000,126.000000,6.000000,0.000000,0.000000,0.000000,0.131610,0.129117,0.041876,0.000000,0.000000,132.000000,126.000000,6.000000,0.000000,0.000000,0.000000:
// measure 0
0000
0000
0000
0000
,  // measure 1
0010
1000
0100
0010
,  // measure 2
0100
0010
0001
1000
,  // measure 3
0010
1000
0010
0100
,  // measure 4
0001
0001
1000
1000
,  // measure 5
1001
0001
0010
0100
,  // measure 6
0100
1000
0010
1000
,  // measure 7
0001
0100
0010
0100
,  // measure 8
0001
0000
0000
0000
,  // measure 9
1001
1000
0010
0010
,  // measure 10
0100
0001
0010
0100
,  // measure 11
0100
1000
0010
1000
,  // measure 12
0001
0100
0010
0100
,  // measure 13
0110
0010
1000
0100
,  // measure 14
1000
0001
0010
0001
,  // measure 15
0100
0001
0010
0100
,  // measure 16
1000
0010
1000
0001
,  // measure 17
1000
0000
0000
0000
,  // measure 18
0001
0010
0100
0000
,  // measure 19
0100
1000
0010
0100
,  // measure 20
0010
0000
1000
0000
,  // measure 21
1001
0001
0100
0010
,  // measure 22
1000
0001
0010
0100
,  // measure 23
0100
0010
0001
1000
,  // measure 24
0010
0000
1000
0000
,  // measure 25
1001
1000
0100
0010
,  // measure 26
0001
1000
0010
1000
,  // measure 27
0001
0100
0010
0100
,  // measure 28
0001
1000
0001
0010
,  // measure 29
0110
0100
0100
0010
,  // measure 30
0010
0001
0001
1000
,  // measure 31
0010
1000
0100
0010
,  // measure 32
0010
0001
1000
0010
,  // measure 33
1000
0000
0001
0000
,  // measure 34
0010
0000
0100
0000
,  // measure 35
0010
0000
0001
0000
,  // measure 36
1000
0000
0010
0000
,  // measure 37
1000
0000
0000
0000
;

//---------------dance-single - ----------------
#NOTES:
     dance-single:
     :
     Easy:
     5:
     0.218352,0.219499,0.027917,0.048855,0.094220,219.000000,215.000000,4.000000,7.000000,0.000000,0.000000,0.218352,0.219499,0.027917,0.048855,0.094220,219.000000,215.000000,4.000000,7.000000,0.000000,0.000000:
0000
0000
0000
0000
,
0010
1000
0001
1000
0100
0010
0010
0000
,
0010
0001
0100
0010
1000
0001
1000
0001
,
0001
0100
0010
0000
1000
0100
0010
0000
,
0010
0000
0000
0001
0000
0000
0000
0001
0000
0000
0000
0000
0100
0000
0000
0000
,
0010
1000
0010
0100
0001
1000
0100
0000
,
0010
0001
0001
0100
0010
1000
1000
0000
,
0001
1000
0010
0000
0100
0100
0100
0000
,
0010
0000
0000
1000
0000
0000
0000
0000
1000
0000
0000
0001
0000
0000
0000
0000
,
1001
0000
1000
0100
0010
0001
1000
1000
,
1000
0000
0100
0000
0010
0000
0001
1000
,
0001
0100
0010
0000
1000
0010
0100
0100
,
0100
0000
0001
0000
0010
0000
0100
1001
,
0001
0000
1000
0010
1000
0100
0010
0010
,
0010
0000
0000
0000
0001
0000
0000
2000
0000
0000
0000
0000
3010
0000
0000
0000
,
0010
0000
1000
0100
0010
0100
1000
1000
,
1000
0000
0000
0000
0001
0000
0000
0002
0000
0000
0000
0000
0013
0000
0000
0000
,
0010
0000
0000
0010
0000
0000
0000
0100
0000
0000
0000
0100
0000
0010
0000
0000
,
0001
0000
0100
0000
0010
0000
0000
0000
1000
0000
0000
0001
0000
1000
0000
0000
,
1000
0010
0100
0000
0010
0100
0001
0000
,
0010
0000
0001
0000
0001
0000
0000
0000
0010
0000
0000
0200
0000
0000
0310
0000
,
0010
0001
1000
0100
1000
0010
0100
0001
,
1000
0001
1000
0010
0100
0010
0010
1000
,
0001
1000
0100
0010
0001
0010
0100
1000
,
0010
0000
0000
1000
0000
0000
0000
0000
1000
0000
0000
0001
0000
0000
0000
0000
,
1001
0001
0010
0100
0010
0100
1000
1000
,
1000
0000
0000
0000
0010
0000
0000
0020
0000
0000
0000
0000
0130
0000
0000
0000
,
0001
0100
0001
0100
0010
1000
0100
0100
,
0100
0000
0000
0000
0010
0000
0000
0020
0000
0000
0000
0000
0031
0000
1001
0000
,
1000
0001
0100
0010
0010
0100
0001
1000
,
0001
0000
0000
0000
1000
0000
0000
0002
0000
0000
0000
0000
1003
0000
1000
0000
,
0010
0100
0010
1000
0100
0010
0001
0010
,
0100
0000
0000
0000
0200
0000
0000
1300
0000
0000
0010
0000
1000
0000
0010
0000
,
0100
0000
0000
0010
0000
0000
0010
0000
0000
0100
0000
0000
0000
0000
0000
0000
,
0100
0000
0000
0001
0000
0000
0001
0000
0000
1000
0000
0000
0000
0000
0000
0000
,
1000
0000
0000
0010
0000
0000
0010
0000
0000
1000
0000
0000
0000
0000
0000
0000
,
1000
0000
0000
0100
0000
0000
0100
0000
0000
0010
0000
0000
0000
0000
0000
0000
,
0010
0000
0000
0000
;

//---------------dance-single - ----------------
#NOTES:
     dance-single:
     :
     Medium:
     9:
     0.370900,0.344493,0.174482,0.132607,0.450164,372.000000,347.000000,25.000000,19.000000,0.000000,0.000000,0.370900,0.344493,0.174482,0.132607,0.450164,372.000000,347.000000,25.000000,19.000000,0.000000,0.000000:
0000
0000
0000
0000
,
0010
1000
0010
0000
1000
0000
0100
0010
0100
0000
0010
0100
0010
0000
0002
0003
,
0100
0000
0001
1000
0001
0000
1000
0010
1000
0000
0010
0010
0000
0010
0100
0010
,
1000
0000
0100
0000
0010
0000
0001
0010
0001
0000
0100
0001
0100
0000
0010
0000
,
1000
0000
1000
0002
0003
0010
0100
2000
0000
3010
0100
0001
1000
0000
0000
0000
,
0001
0000
0010
0100
0000
0100
1000
0010
0000
1000
0001
0000
1001
0000
0001
0100
,
0010
0000
1000
0000
0100
1000
0000
1010
0000
1000
0010
0100
0001
0000
0010
0100
,
0010
0000
0001
0000
0010
0000
0100
1000
0010
0000
1000
0001
1000
0000
0001
0000
,
0100
0000
0010
1000
0000
0000
0000
1000
0100
0000
0100
0010
0000
0000
0000
0000
,
0100
0010
0001
0010
0100
0000
0010
0000
0100
0010
0001
0010
0100
0000
1100
0000
,
1010
0000
1000
0000
0002
0000
0100
0203
0000
0000
0000
0310
0100
0000
1001
0000
,
0001
0000
1000
0010
1000
0000
0100
0000
0010
1000
0001
0100
0010
0000
0100
0000
,
0101
0000
0010
0000
0200
0000
0010
0320
0000
0000
0000
0031
0010
0000
1001
0000
,
0001
0100
0010
1000
0200
0000
1300
0000
1000
0010
0100
0010
0200
0000
0301
0000
,
0010
0000
0000
0000
0011
0000
0001
2002
0000
0000
3003
0001
1000
0000
0010
0000
,
1000
0010
0100
0010
1000
0000
0100
0000
0010
0100
1000
0001
0010
0000
0110
0000
,
1100
0000
0001
0000
1001
0000
1000
1020
0000
0000
0000
0130
0001
0000
0000
0000
,
1000
0001
1000
0001
1000
0001
0000
0001
0010
0001
0010
0001
0010
0100
0010
0100
,
1000
0000
0010
0000
1000
0000
0001
0100
0010
0100
0001
1000
0000
1001
0000
0000
,
0001
0000
0010
0100
0000
1000
0000
0100
1000
0000
0010
0100
0000
0010
1000
0000
,
0001
0100
0010
0100
0000
0000
0000
0000
0001
0010
0100
1000
0000
0000
1100
0000
,
1000
0000
0010
0100
0000
0001
0100
0010
0000
1000
0001
0000
1000
0000
0100
0010
,
0100
0000
0010
0000
0010
0001
0100
0010
0000
1000
0010
0100
0001
0000
1000
0001
,
1000
0000
0100
0000
0010
0100
0000
0010
0000
0010
0001
0100
0001
1000
0010
0000
,
1000
0010
0100
0100
0000
0000
0000
0001
0001
0010
0100
1000
0000
0000
0000
0000
,
1000
0100
1000
0010
0100
0000
0010
0000
1000
0100
1000
0010
0100
0000
0110
0000
,
0101
0000
0001
0000
0020
0000
0130
0200
0000
0000
0000
0310
0100
0000
1100
0000
,
1000
0000
0010
1000
0001
0000
0100
0000
0001
0010
0100
0010
0100
0000
1000
0000
,
1000
0000
0010
0000
1000
0000
0010
0200
0000
0000
0000
0310
0100
0000
1001
0000
,
0001
1000
0001
1000
0010
0000
1000
0000
0010
0100
0001
0010
0100
0000
1100
0000
,
1010
0000
1000
0000
0002
0000
1003
2000
0000
0000
0000
3010
1000
0000
0101
0000
,
0001
0100
0010
0100
0001
0010
0100
0000
0010
0100
1000
0001
0010
0000
0110
0000
,
1100
0000
1000
0000
0010
0000
1000
2002
0000
0000
0000
3000
0003
0000
0000
0000
,
0010
0000
0000
1000
0000
0000
1000
0100
0010
0001
0000
0000
0000
0000
0000
0000
,
0010
0000
0000
0001
0000
0000
0001
0010
0100
1000
0000
0000
0000
0000
0000
0000
,
0100
0000
0000
1000
0000
0000
1000
0010
0100
0001
0000
0000
0000
0000
0000
0000
,
0001
0000
0000
0010
0000
0000
0010
0100
0010
0001
0000
0000
0000
0000
0000
0000
;
