#VERSION:0.83;
#TITLE:All My Love;
#SUBTITLE:;
#ARTIST:Cash Cash feat. Conor Maynard;
#TITLETRANSLIT:;
#SUBTITLETRANSLIT:;
#ARTISTTRANSLIT:;
#GENRE:;
#ORIGIN:;
#CREDIT:;
#BANNER:All My Love.png;
#BACKGROUND:All My Love-bg.png;
#PREVIEWVID:;
#JACKET:All My Love-jacket.png;
#CDIMAGE:;
#DISCIMAGE:;
#LYRICSPATH:;
#CDTITLE:;
#MUSIC:All My Love.ogg;
#OFFSET:-0.086419;
#SAMPLESTART:72.928719;
#SAMPLELENGTH:14.222221;
#SELECTABLE:YES;
#BPMS:0.000=135.000,
100.000=67.500,
116.000=135.000;
#STOPS:;
#DELAYS:;
#WARPS:;
#TIMESIGNATURES:0.000=4=4;
#TICKCOUNTS:0.000=4;
#COMBOS:0.000=1;
#SPEEDS:0.000=1.000=0.000=0;
#SCROLLS:0.000=1.000;
#FAKES:;
#LABELS:0.000=Song Start;
#BGCHANGES:;
#KEYSOUNDS:;
#ATTACKS:
;

//---------------dance-single - ----------------
#NOTEDATA:;
#CHARTNAME:;
#STEPSTYPE:dance-single;
#DESCRIPTION:;
#CHARTSTYLE:;
#DIFFICULTY:Hard;
#METER:12;
#RADARVALUES:0.494306,0.567769,0.267635,0.315427,0.329765,362.000000,334.000000,28.000000,33.000000,0.000000,0.000000,0.000000,0.000000,0.000000,0.494306,0.567769,0.267635,0.315427,0.329765,362.000000,334.000000,28.000000,33.000000,0.000000,0.000000,0.000000,0.000000,0.000000;
#CREDIT:Daniel Van Eden;
#NOTES:
0000
0000
0000
0000
,
1002
0000
0010
0000
0100
0000
0103
2000
,
0010
0000
0100
0000
0001
0000
3000
0020
,
0000
0000
0000
0000
,
0030
0000
0000
0100
0001
0010
0100
1000
,
0020
0000
0000
0000
0000
1030
0100
0012
,
0000
0000
0000
2003
0000
0000
0000
3020
,
0000
0100
0000
0000
0000
0000
0000
1030
,
0000
0001
0000
0000
0000
0000
0000
0000
,
1001
0000
0010
0000
0101
0000
0100
0010
,
0100
0000
0010
0000
1100
0000
0100
0010
,
0001
0010
0100
0000
1001
0000
0001
0100
,
0010
1000
0010
0100
0001
0010
0100
1000
,
0001
0000
1000
0000
1010
0100
0010
2000
,
0001
3000
1000
0200
0010
0300
0010
0001
,
0010
0100
0010
0000
1100
0000
0001
0100
,
0001
1000
0001
0000
0001
1000
0100
0010
,
0100
0010
0100
0000
0100
1000
0100
0010
,
0100
0010
0100
0001
0100
1000
0010
0100
,
0001
0100
0001
0000
0001
1000
0001
1000
,
0001
0010
0001
0100
0010
1000
0100
1000
,
0100
0010
0100
1000
0001
0000
0001
1000
,
0001
0100
0010
0100
0001
1000
0010
0010
,
1000
0000
1100
0000
0110
0000
0011
0001
,
2000
0000
3002
0000
1003
0101
1100
1000
,
0020
0000
0000
0000
0000
0000
0030
2000
3000
1000
1000
0200
0300
0100
0010
0002
,
0000
0003
1000
0000
0000
0000
0000
1000
0001
0000
0001
0000
0001
0000
0010
0100
,
2000
0000
0000
0000
0000
0000
3000
0020
0030
0100
0001
0020
0030
0100
1000
0002
,
0000
0003
0100
0000
0000
0000
0000
0100
0010
0000
0010
0000
0010
0000
1000
0100
,
0010
0000
0001
0000
1000
0001
0000
0000
0100
0000
0000
0010
0000
0000
0100
0000
,
0001
0000
0000
0001
0000
0000
0001
0000
1000
0000
0100
0000
1000
0000
0001
0000
,
0010
0100
1000
0000
0001
0000
0100
0000
,
0220
0330
0202
0303
2002
3003
0010
0100
,
0010
0000
1000
0000
0000
0100
0000
0000
0010
0000
0000
0001
0000
0000
1000
0000
,
0010
0000
0000
0010
0000
0000
0010
0000
0000
0000
0100
0000
0000
0000
0010
0000
,
0100
0000
0001
0000
0100
0000
0010
0000
1000
0000
0100
0000
0010
0001
0010
0001
,
0100
0000
0000
1001
,
0101
0000
0000
0001
0100
0000
0010
0000
1000
0010
0000
0010
1000
0000
0100
0000
,
0110
0000
0000
0010
0100
0000
1000
0000
0001
0100
0000
0100
0010
0000
1000
0000
,
1010
0000
0000
0010
0100
0000
0001
0000
1000
0100
0000
0100
0010
0000
0001
0000
,
0101
0000
0001
0100
0000
0010
0000
1000
0000
0100
0000
0010
0000
0001
0000
0000
,
1010
0000
0000
0010
1000
0000
0001
0000
0100
0001
0000
0001
0100
0000
0010
0000
,
0110
0000
0000
0010
0100
0000
0001
0000
0010
0001
0000
0001
1000
0000
0001
0000
,
0101
0000
0000
0001
0100
0000
0010
0000
1000
0010
0000
0100
0001
0000
1000
0000
,
0002
0000
0003
0000
0002
0000
0003
0000
0002
0000
0003
0000
1100
0000
1000
0100
,
0010
0000
0000
0010
0000
0000
0100
0000
2200
0000
0000
0000
3300
0000
1000
0000
,
0001
0000
0000
0100
0000
0000
0010
0000
1010
0000
0000
0010
1000
0000
0100
0000
,
0100
0000
0000
0010
0000
0000
0001
0000
2002
0000
0000
0000
3003
0000
1000
0000
,
1000
0000
0000
0100
0000
0000
0001
0000
0001
0100
0000
0100
1000
0000
0010
0000
,
0100
0000
0000
0010
0100
0000
0001
0000
0100
0010
0000
0010
1000
0000
0100
0000
,
1000
0000
0000
0001
1000
0000
0010
0000
0100
0001
0000
0001
0100
0000
0010
0000
,
1000
0000
0000
0100
0010
0000
0100
0000
1000
0010
0000
0010
1000
0000
0001
0000
,
0100
0000
0010
0100
0000
0001
0000
0010
0000
0100
0000
1000
0000
0100
0000
0000
,
0020
0000
0000
0000
,
0030
0000
0000
0000
;

//---------------dance-single - ----------------
#NOTEDATA:;
#CHARTNAME:;
#STEPSTYPE:dance-single;
#DESCRIPTION:;
#CHARTSTYLE:;
#DIFFICULTY:Medium;
#METER:9;
#RADARVALUES:0.324986,0.354617,0.086026,0.229402,0.162493,238.000000,229.000000,9.000000,24.000000,0.000000,0.000000,0.000000,0.000000,0.000000,0.324986,0.354617,0.086026,0.229402,0.162493,238.000000,229.000000,9.000000,24.000000,0.000000,0.000000,0.000000,0.000000,0.000000;
#CREDIT:Daniel Van Eden;
#NOTES:
0000
0000
0000
0000
,
0001
0010
0001
0100
,
0100
0000
0010
0000
2000
0000
0000
0002
,
0000
0000
0000
0000
0000
0000
0000
3003
,
0000
0000
0000
0000
0010
0100
0010
2000
,
0000
0000
0000
0000
0000
0000
0000
3002
,
0000
0000
0000
0010
0000
0000
0000
0023
,
0000
0000
0000
0000
0000
0000
0000
0030
,
0000
0000
0000
0000
,
0001
0000
0100
0000
0010
0000
1000
0100
,
1000
0000
0010
0000
1000
0000
0100
0010
,
0001
0000
1000
0000
0010
0000
1000
0001
,
0000
0002
0000
0003
0010
0100
1000
0100
,
0010
0000
0001
0000
1000
0000
1000
0020
,
0000
0000
0000
0230
0000
0000
0000
0301
,
0000
0100
0001
0000
0001
0000
0000
0010
,
0000
0010
0100
0000
1001
0000
0001
1000
,
0000
1000
0010
0000
0100
0000
0010
0100
,
0000
0100
0000
0001
0000
0010
0001
0010
,
0000
0010
0100
0000
0100
0000
0100
1000
,
0000
1000
0010
0000
0100
0000
0010
2000
,
0000
0000
0000
3001
0000
0000
0000
0002
,
0000
0010
0000
0013
0000
0100
0001
0000
,
1000
0010
1000
0100
,
0011
0000
0001
0000
0010
0100
0100
0100
,
2000
0000
0000
0000
0000
0000
0000
3020
0000
0000
0000
0230
0000
0000
0000
0320
,
0000
1030
0000
0000
0001
0001
0002
0013
,
0220
0000
0000
0000
0000
0000
0030
2300
0000
0000
0000
3002
0000
0000
0000
0203
,
0000
0310
0000
0000
0010
0010
0010
0000
,
1000
0000
0001
0000
1000
0000
0100
0010
,
0001
0000
1000
0000
0010
0000
1000
0001
,
1000
0000
0001
0000
0100
0000
0010
1000
,
0100
0000
0100
0000
0100
0000
0100
0010
,
0001
1000
0001
0100
,
0010
1000
0010
1000
,
1000
0001
1000
0001
1000
0001
1000
0001
,
0000
0000
0000
1001
,
0100
0000
0000
0010
0000
0000
1000
0000
0000
0010
0000
0000
0100
0000
0010
0000
,
0100
0000
0000
0001
0000
0000
0010
0000
0000
0001
0000
0000
0100
0000
0010
0000
,
1000
0000
0000
0100
0000
0000
0010
0000
0000
0100
0000
0000
0010
0000
0001
0000
,
1000
0000
0000
0010
0000
0000
0100
0000
0000
0001
0000
0000
0010
0000
0100
0000
,
1000
0000
0000
0001
0000
0000
0010
0000
0000
0001
0000
0000
1000
0000
0010
0000
,
1000
0000
0000
0001
0000
0000
0100
0000
0000
0001
0000
0000
1000
0000
0100
0000
,
0100
0000
0000
0010
0000
0000
0001
0000
0000
0100
0000
0000
0010
0000
1000
0000
,
0000
0000
0000
0000
0000
0000
0000
0000
0000
0000
0000
0010
1000
0000
0000
0000
,
1000
0000
0000
0001
0000
0000
1000
0000
2002
0000
0000
0000
0000
0000
3003
0000
,
0010
0000
0000
0001
0000
0000
0010
0000
0012
0000
0000
0000
0100
0000
0003
0000
,
0100
0000
0000
0010
0000
0000
1000
0000
2100
0000
0000
0000
0000
0000
3100
0000
,
1000
0000
0000
0010
0000
0000
1000
0000
0000
0001
0000
0000
0100
0000
0001
0000
,
0010
0000
0000
0001
0000
0000
0010
0000
0000
0100
0000
0000
0010
0000
0100
0000
,
1000
0000
0000
0100
0000
0000
1000
0000
0000
0010
0000
0000
1000
0000
0001
0000
,
0100
0000
0000
0001
0000
0000
0010
0000
0000
0100
0000
0000
0010
0000
0001
0000
,
1000
0000
0000
0010
0000
0000
1000
0000
0000
0001
0000
0000
1001
0000
0000
0000
,
1010
0000
0000
0000
;

//---------------dance-single - ----------------
#NOTEDATA:;
#CHARTNAME:;
#STEPSTYPE:dance-single;
#DESCRIPTION:;
#CHARTSTYLE:;
#DIFFICULTY:Easy;
#METER:4;
#RADARVALUES:0.196630,0.227968,0.076467,0.000000,0.028675,144.000000,136.000000,8.000000,0.000000,0.000000,0.000000,0.000000,0.000000,0.000000,0.196630,0.227968,0.076467,0.000000,0.028675,144.000000,136.000000,8.000000,0.000000,0.000000,0.000000,0.000000,0.000000,0.000000;
#CREDIT:Daniel Van Eden;
#NOTES:
0000
0000
0000
0000
,
0010
0000
1000
0000
,
0001
0000
1000
0000
0001
0000
0000
0001
,
0000
0000
0000
0000
,
0000
0000
0010
0100
,
0010
0000
0000
0000
0000
0000
0000
0001
,
0000
0000
0000
1000
0000
0000
0000
0010
,
0000
0000
0000
0000
,
0000
0000
0000
0000
,
1000
0010
1000
0001
,
1000
0001
0001
0000
,
0001
0000
1000
0000
,
0010
0000
0010
0100
,
0010
0000
0010
0000
,
1000
0000
0001
0000
,
0010
0000
0100
0000
,
0010
0000
1001
0000
,
0001
0001
0000
1000
,
0000
1000
0000
0010
,
0010
0010
0000
0100
,
0000
0100
0000
0010
,
0010
0001
0000
0001
,
0000
1000
0000
0010
,
1000
0001
1000
0000
,
0001
0001
0001
0000
,
0010
0000
0000
0000
0000
0000
0000
0001
0000
0000
0000
1000
0000
0000
0000
0001
,
0000
1000
0000
0000
0010
0010
0010
0000
,
0100
0000
0000
0000
0000
0000
0000
0001
0000
0000
0000
0100
0000
0000
0000
0001
,
0000
0100
0000
0000
0010
0010
0010
0000
,
1000
0100
1000
0000
,
0001
0010
0001
0000
,
0100
0010
1000
0000
,
0001
0001
0001
0000
,
1000
0001
1000
0000
,
0100
0010
0100
0000
,
0010
0010
0100
0100
,
0000
0000
0000
1001
,
0001
0000
0000
0001
0000
0000
0001
0000
,
1000
0000
0000
1000
0000
0000
1000
0000
,
0010
0000
0000
0010
0000
0000
0010
0000
,
0100
0010
1000
0001
,
0100
0000
0000
0100
0000
0000
0100
0000
,
0010
0000
0000
0010
0000
0000
0010
0000
,
1000
0000
0000
1000
0000
0000
1000
0000
,
0000
0000
0000
1001
,
0000
0000
0101
0000
,
0010
0000
1010
0000
,
1000
0000
1100
0000
,
0001
0000
0011
0000
,
0010
0000
0010
0001
,
0010
0000
0100
1000
,
0100
0000
0010
0001
,
1000
0001
1000
0010
,
0110
0000
0000
0000
;

//---------------dance-single - ----------------
#NOTEDATA:;
#CHARTNAME:;
#STEPSTYPE:dance-single;
#DESCRIPTION:;
#CHARTSTYLE:;
#DIFFICULTY:Beginner;
#METER:1;
#RADARVALUES:0.131087,0.202638,0.057350,0.000000,0.000000,96.000000,90.000000,6.000000,0.000000,0.000000,0.000000,0.000000,0.000000,0.000000,0.131087,0.202638,0.057350,0.000000,0.000000,96.000000,90.000000,6.000000,0.000000,0.000000,0.000000,0.000000,0.000000,0.000000;
#CREDIT:Daniel Van Eden;
#NOTES:
// measure 0
0000
0000
0000
0000
,  // measure 1
0000
0000
0000
0000
,  // measure 2
0000
0000
0000
0000
,  // measure 3
0000
0000
0000
0000
,  // measure 4
0000
0000
0000
0000
,  // measure 5
0000
0000
0000
0000
,  // measure 6
0000
0000
0000
0000
,  // measure 7
0000
0000
0000
0000
,  // measure 8
0000
0000
0000
0000
,  // measure 9
0010
0000
1000
0000
,  // measure 10
0001
0000
0010
0000
,  // measure 11
0100
0000
0000
0000
,  // measure 12
0010
0000
0000
0000
,  // measure 13
1000
0000
0001
0000
,  // measure 14
0010
0000
0001
0000
,  // measure 15
0100
0000
0000
0000
,  // measure 16
0010
0000
0000
0000
,  // measure 17
1000
0000
1000
0000
,  // measure 18
0001
0000
0010
0000
,  // measure 19
0001
0000
0100
0000
,  // measure 20
0010
0000
0010
0000
,  // measure 21
1000
0000
0001
0000
,  // measure 22
1000
0000
0100
0000
,  // measure 23
0010
0000
0001
0000
,  // measure 24
1000
1000
1000
0000
,  // measure 25
0001
0000
0000
0000
,  // measure 26
0000
0000
0000
0000
0100
0100
0100
0000
,  // measure 27
0010
0000
0000
0000
,  // measure 28
0000
0000
0000
0000
0001
0001
0001
0000
,  // measure 29
1000
0000
0010
0000
,  // measure 30
0100
0000
0001
0000
,  // measure 31
1000
0000
0001
0000
,  // measure 32
0100
0100
0100
0000
,  // measure 33
0010
0000
1000
0000
,  // measure 34
0100
0000
0010
0000
,  // measure 35
0010
0000
0001
0000
,  // measure 36
1000
1000
1000
0000
,  // measure 37
0010
0000
1001
0000
,  // measure 38
1000
0000
1001
0000
,  // measure 39
0001
0000
1001
0000
,  // measure 40
0100
0000
0010
0000
,  // measure 41
0100
0000
0110
0000
,  // measure 42
0010
0000
0110
0000
,  // measure 43
0001
0000
0110
0000
,  // measure 44
0100
0100
0100
0000
,  // measure 45
0001
0000
0001
0000
,  // measure 46
1000
0000
1000
0000
,  // measure 47
0010
0000
0010
0000
,  // measure 48
0100
0000
0100
0000
,  // measure 49
0010
0000
1000
0000
,  // measure 50
0001
0000
0100
0000
,  // measure 51
0010
0000
1000
0000
,  // measure 52
0001
0001
0001
0000
,  // measure 53
1000
0000
0000
0000
;

//---------------dance-single - ----------------
#NOTEDATA:;
#CHARTNAME:;
#STEPSTYPE:dance-single;
#DESCRIPTION:;
#CHARTSTYLE:;
#DIFFICULTY:Challenge;
#METER:14;
#RADARVALUES:0.595352,0.748423,0.516154,0.391894,0.458803,436.000000,382.000000,54.000000,41.000000,0.000000,0.000000,0.000000,0.000000,0.000000,0.595352,0.748423,0.516154,0.391894,0.458803,436.000000,382.000000,54.000000,41.000000,0.000000,0.000000,0.000000,0.000000,0.000000;
#CREDIT:Daniel Van Eden;
#NOTES:
0000
0000
0000
0000
,
2001
0000
0100
0000
0010
0000
3010
0002
,
0100
0000
0010
0000
1000
0000
0003
0220
,
0000
0000
0000
0000
0000
0000
0000
0330
,
0000
0000
0000
0010
1000
0100
0010
0001
,
0200
0000
0000
0000
0000
0301
0010
2100
,
0000
0000
0000
3002
0000
0000
0000
0203
,
0000
0010
0000
0000
0000
0000
0000
0301
,
0000
1000
0000
0000
0000
0000
0000
0000
,
1001
0000
0100
0000
1010
0000
0110
0100
,
0101
0000
1000
0000
0011
0000
0110
0001
,
1000
0001
1000
0000
0011
0000
1100
0010
,
0100
0010
0001
0100
1000
0100
0010
1000
,
0001
0000
0001
0000
0101
0010
0100
0002
,
1000
0003
1000
0020
0100
0030
0100
1000
,
0100
1001
0100
0000
0011
0000
1000
1010
,
0001
0000
0000
0011
0000
0000
1000
0000
0000
0000
0100
0010
0001
0000
0000
0001
0000
0000
0010
0000
0000
0100
0000
0000
,
0010
0000
0100
0000
0010
0001
0010
0000
0001
0000
1000
0000
0010
0000
0100
0000
,
0010
0000
1000
0010
1000
0000
0010
0000
1000
0000
0001
0100
0001
0000
1000
0000
,
0010
0000
1000
0000
0001
0100
0001
0000
1000
0000
0010
0000
1000
0000
1100
0000
,
0100
0000
0110
0000
0001
0000
0010
0000
0100
0000
1000
0010
1000
0000
0001
0000
,
0100
0001
0010
0001
1000
0010
0100
0001
,
1000
0000
0010
0000
0100
0000
0010
0000
0100
0000
0001
1000
0001
0000
1000
0000
,
0100
0000
0011
0000
0110
0000
1100
1000
,
0002
0000
2003
0000
3001
1010
0011
0101
,
2002
0000
0000
0000
3003
0000
0000
0202
0303
0001
0100
2020
3030
0100
0010
2002
,
0000
3003
0100
0000
0000
0000
0000
0001
1000
0000
1000
0000
2000
0000
3100
0010
,
0022
0000
0000
0000
0000
0000
0033
2200
3300
0010
1000
0202
0303
0010
0001
2200
,
0000
3300
0010
0000
0000
0000
0000
0010
0100
0000
0100
0000
0100
0000
0001
0010
,
0100
0000
1000
0000
0001
1000
0000
0000
0010
0000
0000
0010
0100
0000
0001
0000
,
1100
0000
0000
1000
0001
0000
1000
0000
0010
0000
1000
0000
0001
0000
0001
0000
,
0001
1000
0010
0000
1000
0000
0001
0000
,
0220
0330
2020
3030
2002
3003
0100
0010
,
0100
0000
0001
0000
0001
0100
0000
0000
1100
0000
0000
1000
0010
0000
1000
0000
,
0101
0000
0000
0001
0010
0000
0100
0000
1000
0000
0001
0000
1000
0000
0100
0000
,
0010
0000
0001
0000
0010
0000
0100
0000
1000
0000
0010
0000
0100
0001
0100
0001
,
0010
0000
0000
0000
0000
0000
0000
0000
0000
0000
0000
0000
0000
0000
0000
0000
0000
0000
0000
0000
0000
0000
0010
1000
0001
0000
0000
0000
0000
0000
0000
0000
,
1010
0000
1000
0010
0000
0010
0100
0000
0100
0001
0000
0001
0010
0000
0001
0000
,
0011
0000
0010
0100
0000
0100
1000
0000
1000
0010
0000
0010
0100
0000
0001
0000
,
0101
0000
0100
0010
0000
0010
1000
0000
1000
0001
0000
0001
0100
0000
0001
0000
,
0010
0000
0000
0100
0000
0000
1000
0000
0000
0001
0000
0000
1000
0000
0000
0100
0000
0000
1000
0000
0000
0001
0000
0000
0100
0000
0000
0010
0000
0000
1000
0000
0100
0000
0010
0000
0001
0000
0000
0000
0000
0000
0101
0000
0000
0000
0000
0000
,
1001
0000
1000
0001
0000
0001
0100
0000
0100
0010
0000
0010
1000
0000
0100
0000
,
0110
0000
0010
0001
0000
0001
1000
0000
1000
0100
0000
0100
0010
0000
0100
0000
,
1100
0000
1000
0010
0000
0010
0100
0000
0100
0001
0000
0001
1000
0000
0010
0000
,
1000
0000
0000
0000
0000
0000
0000
0000
1000
0000
0000
0000
0000
0000
0000
0000
1000
0000
0000
0000
0000
0000
0001
1000
0010
0000
0000
0000
0010
0000
1000
0000
,
0100
0000
0000
0100
0000
0000
0010
0000
0022
0000
0000
0000
0033
0000
0001
1000
,
0001
0000
0000
0010
0000
0000
0100
0000
0101
0000
0000
0100
0001
0010
0001
0010
,
0001
0000
0000
0100
0000
0000
1000
0000
2002
0000
0000
0000
3003
0000
1000
0010
,
1000
0000
0000
0110
0000
0000
1001
0000
0000
1010
0000
0000
0101
0000
0100
0000
,
0010
0000
1000
0010
0000
0010
0100
0000
0001
0100
0000
0100
0010
0000
1000
0000
,
1001
0000
0001
1000
0000
1000
0010
0000
0010
0100
0000
0100
0010
0000
1000
0000
,
1001
0000
0001
0010
0000
0010
0001
0000
1000
0001
0000
0001
0100
0000
0010
0000
,
1000
0000
0010
0000
0100
0000
0001
0000
1000
0000
0010
0000
1000
0000
0100
0000
0010
0000
0001
0000
0010
0000
0100
1000
0001
0000
0000
0000
0100
0000
0002
0000
,
2000
0000
0000
0000
,
3003
0000
0000
0000
;
