#TITLE:All Aboard;
#SUBTITLE:;
#ARTIST:The Brig;
#TITLETRANSLIT:;
#SUBTITLETRANSLIT:;
#ARTISTTRANSLIT:;
#GENRE:;
#CREDIT:;
#BANNER:All Aboard.png;
#BACKGROUND:All Aboard-bg.png;
#LYRICSPATH:;
#CDTITLE:;
#MUSIC:All Aboard.ogg;
#OFFSET:-0.446783;
#SAMPLESTART:19.362566;
#SAMPLELENGTH:15.118113;
#SELECTABLE:YES;
#BPMS:0.000000=126.999992
;
#STOPS:
;
#BGCHANGES:;
#KEYSOUNDS:;
#ATTACKS:;

//---------------dance-single - ----------------
#NOTES:
     dance-single:
     :
     Beginner:
     5:
     0.183797,0.249697,0.059250,0.000000,0.000000,152.000000,145.000000,7.000000,0.000000,0.000000,0.000000,0.183797,0.249697,0.059250,0.000000,0.000000,152.000000,145.000000,7.000000,0.000000,0.000000,0.000000:
// measure 0
0000
0000
0000
0000
,  // measure 1
0000
0000
0000
0000
,  // measure 2
0000
0000
0000
0000
,  // measure 3
0000
0000
0000
0000
,  // measure 4
0000
0000
0000
0000
,  // measure 5
0000
0000
0000
0000
,  // measure 6
0000
0000
0000
0000
,  // measure 7
0000
0000
0000
0000
,  // measure 8
0000
0000
0000
0000
,  // measure 9
0000
0000
0000
0000
,  // measure 10
0010
0000
1000
0000
,  // measure 11
0001
0001
1000
1000
,  // measure 12
1001
0000
0110
0000
,  // measure 13
1001
0000
0000
0000
,  // measure 14
0010
0010
1000
1000
,  // measure 15
0001
0001
0100
0100
,  // measure 16
0001
0000
0010
0000
,  // measure 17
0100
0100
0100
0000
,  // measure 18
1000
0000
0010
0000
,  // measure 19
1000
0000
0001
0000
,  // measure 20
0100
0000
0001
0000
,  // measure 21
0010
0000
0100
0000
,  // measure 22
1001
1001
1000
0000
,  // measure 23
0001
0000
0100
0000
,  // measure 24
0010
0000
1000
0000
,  // measure 25
0001
0001
1000
1000
,  // measure 26
0001
0000
0000
0000
,  // measure 27
1000
0000
0100
0000
,  // measure 28
0010
0000
0001
0000
,  // measure 29
1000
0000
0100
0000
,  // measure 30
0010
0000
0001
0000
,  // measure 31
1000
0000
0100
0100
,  // measure 32
0010
0000
0001
0001
,  // measure 33
1000
0000
0100
0100
,  // measure 34
0010
0000
0001
0000
,  // measure 35
0100
0001
0100
0001
,  // measure 36
1000
0001
1000
0000
,  // measure 37
0001
0010
0001
0100
,  // measure 38
0001
0100
0001
0000
,  // measure 39
1000
0010
1000
0010
,  // measure 40
1000
0001
1000
0000
,  // measure 41
0001
0100
0001
0100
,  // measure 42
0001
1000
0001
0000
,  // measure 43
1000
1000
1000
1000
,  // measure 44
0001
0001
0001
0001
,  // measure 45
1000
1000
1000
1000
,  // measure 46
0010
0010
0010
0010
,  // measure 47
0100
0100
0001
0001
,  // measure 48
1000
1000
0001
0001
,  // measure 49
0010
0010
0010
0010
,  // measure 50
0100
0000
1001
0000
,  // measure 51
1000
0001
1000
0000
,  // measure 52
0001
0100
0001
0000
,  // measure 53
0010
0010
0010
0000
,  // measure 54
0100
0010
0100
0000
,  // measure 55
1000
0010
1000
0000
,  // measure 56
0001
1000
0001
0000
,  // measure 57
1000
0100
0010
0001
,  // measure 58
1000
0001
1000
0000
,  // measure 59
1001
0000
0000
0000
;

//---------------dance-single - ----------------
#NOTES:
     dance-single:
     :
     Hard:
     15:
     0.783554,0.837968,0.397823,0.076179,0.892986,648.000000,601.000000,47.000000,9.000000,0.000000,0.000000,0.783554,0.837968,0.397823,0.076179,0.892986,648.000000,601.000000,47.000000,9.000000,0.000000,0.000000:
0000
0000
0000
0000
,
0000
0000
0000
0000
,
1010
0000
0000
0000
0110
0000
0000
0000
0100
0000
0001
0000
0010
0001
0000
0001
,
1000
0000
0000
0000
1100
0000
0000
0000
0101
0000
0000
0011
0000
0000
1100
0000
,
1001
0000
0000
0000
0110
0000
0000
0000
0010
0000
0000
1000
0010
0100
0000
0100
,
0001
0000
0010
0000
0001
0000
1000
0000
0100
0000
1000
0010
0000
0000
0100
0000
,
0101
0000
0000
0000
0011
0000
0000
0000
0010
0000
0100
0000
1000
0010
0000
0010
,
1000
0000
0001
0000
0010
0000
0001
0000
0101
0000
0110
0000
1010
0000
0000
1000
,
0100
0000
0010
0000
0100
0000
1000
0000
0100
0000
0010
0000
0001
1000
0000
1000
,
0010
0000
0100
0001
0000
0001
1000
0000
0100
0000
0010
0100
1000
0000
0010
0000
,
0110
0000
0000
0000
0101
0000
0000
0000
0001
0000
0100
0000
0010
0100
0000
0100
,
0001
0000
0010
0000
0100
0000
0010
0000
0100
0000
1000
0010
1000
0000
0001
0000
,
1001
0000
0000
0011
0000
0101
0000
0000
1001
0000
0000
1010
0000
1100
0000
0000
,
1001
0000
1010
0000
0011
0010
0100
1000
,
0100
1000
0100
0010
0001
0100
0010
1000
0100
1000
0100
0010
0001
0100
0010
1000
,
0001
0100
0010
0100
0010
1000
0001
0010
0001
0100
0010
0100
0010
1000
0100
0010
,
0000
0010
0001
0010
0100
0000
0100
1000
0000
1000
0010
1000
0001
0000
0100
0010
,
0100
0000
0010
0000
1010
0000
1000
0000
1001
0000
0001
0100
0000
0000
0010
0000
,
1010
0000
1000
0010
0100
0010
1000
0010
,
0100
0010
1000
0010
0100
0010
1000
0100
,
0010
0000
0001
0010
0100
0010
0001
0010
,
0100
0010
0001
0010
0100
1000
0010
0100
,
2002
0000
3003
0000
2002
0000
3003
0000
0001
0100
0010
1000
0010
1000
0100
0010
,
0001
0010
0001
0000
1000
0100
1000
0000
0010
1000
0010
0000
0100
0010
0100
0000
,
0001
0100
0001
0000
1000
0001
1000
0000
0001
0010
0001
0010
0100
1000
0100
1000
,
0010
1000
0010
1000
0001
0100
0001
0100
0010
1000
0100
1000
0010
0100
0001
0010
,
0100
0000
0000
0000
,
1001
0000
0000
0001
1000
0000
0001
0000
1000
0010
0000
0010
1000
0100
0010
0000
,
0001
0000
0000
1000
0001
0000
1000
0000
0001
0010
0000
0010
0100
1000
0010
0000
,
0110
0000
0000
0001
0100
0000
0010
0000
0100
0001
0000
0001
0100
0010
1000
0000
,
0100
0000
0000
1000
0100
0000
0010
0000
0100
1000
0000
1000
0100
0010
0001
0000
,
1001
0000
0001
1000
0010
0000
1000
0000
0001
1000
0000
1000
0010
1000
0001
0000
,
1000
0000
1000
0001
0010
0000
0001
0000
0100
0001
0000
0001
0010
0100
1000
0000
,
1100
0000
1000
0010
1000
0000
0001
0000
0100
0010
0000
0010
0100
0001
1000
0000
,
0010
0000
0000
0000
0100
0000
0001
0000
0100
0000
0000
0000
0010
0000
0000
0000
1000
0000
0001
0010
0100
0000
1000
0000
0010
0000
0000
0000
1000
0000
0000
0000
,
1010
0000
0001
0100
0010
0100
0001
0010
0100
1000
0010
1000
0001
0000
1000
0100
,
0010
0100
1000
0010
0100
0001
1000
0010
0000
0010
1000
0100
0010
0001
0010
0100
,
1000
0000
0010
0000
0110
0000
0100
0000
0001
0100
0010
0000
0100
0001
1000
0001
,
0010
0100
1000
0000
0100
1000
0010
0100
0010
0100
0001
0000
1001
0000
1000
0000
,
1010
0000
0010
0100
0001
0100
0010
1000
0100
0010
0001
0000
0010
0100
0010
0001
,
1000
0100
0010
0001
0100
0000
0010
0000
1000
0010
0100
0010
1000
0001
0100
0010
,
1000
0100
0010
0000
1100
0000
0010
0000
0001
0010
0001
0100
0001
1000
0100
1000
,
0010
0100
0010
0000
1000
0010
0100
0001
0000
1000
0001
0000
0020
0000
0000
0000
,
0031
0000
0100
0001
1000
0000
0010
0000
0100
0010
0000
0010
1000
0000
0001
0000
,
1000
0000
0001
1000
0010
0000
0100
0000
0001
0100
0000
0100
0010
0000
1000
0000
,
0100
0000
1000
0010
0100
0000
0001
0000
0010
0100
0000
0100
0010
0000
0001
0000
,
0010
0000
0001
0100
0010
0000
1000
0000
0010
0100
0000
0100
0001
0000
1000
0000
,
0010
0010
1000
0001
0010
0010
0001
1000
0100
0100
1000
0001
0100
0100
0001
0010
,
0100
0100
1000
0010
0100
0100
0001
1000
0010
0010
0100
0001
0010
0010
0100
1000
,
0100
0010
0001
1000
0100
0010
0001
0100
0010
1000
0001
0100
0010
1000
0100
0010
,
0001
0000
0000
0000
0100
0000
0010
0000
0100
0000
0000
0000
0010
0000
0000
0000
1000
0000
0010
0100
0001
0000
0010
0000
0100
0000
0000
0000
1000
0000
0000
0000
,
1100
0000
1000
0100
1000
0010
0100
0001
0000
0100
0010
0100
0001
1000
0010
0100
,
0001
1000
0010
1000
0001
0100
0010
0100
0001
0010
0100
0000
1100
0000
1000
0000
,
1010
0000
0010
0000
0110
0000
0100
0000
0001
1000
0100
0000
0010
0100
0010
0001
,
1000
0001
0010
0000
0100
1000
0010
1000
0010
0100
0001
0000
0100
0000
0010
0000
,
1010
0000
1000
0001
1000
0000
0001
0100
0001
0100
0010
0000
1000
0000
0010
0100
,
0001
1000
0100
0010
0001
0000
1000
0000
0010
1000
0001
0010
0100
0000
1000
0000
,
1100
0000
0000
0000
1010
0000
0000
0000
0110
0000
0000
0000
0010
0100
0001
0100
,
0020
0000
0000
0000
1030
0000
0100
0000
0010
0000
0001
0020
0000
0000
0130
0000
,
2200
0000
0000
0000
,
3300
0000
0000
0000
;

//---------------dance-single - ----------------
#NOTES:
     dance-single:
     :
     Medium:
     12:
     0.529625,0.584038,0.160822,0.126965,0.321644,438.000000,419.000000,19.000000,15.000000,0.000000,0.000000,0.529625,0.584038,0.160822,0.126965,0.321644,438.000000,419.000000,19.000000,15.000000,0.000000,0.000000:
0000
0000
0000
0000
,
0000
0000
0000
0000
,
1001
0000
0000
0000
1001
0000
0000
0000
0001
0000
0100
0000
0010
0000
0000
1010
,
0000
0000
0000
0000
1000
0000
0000
0000
0100
0000
0000
0010
0000
0000
0100
0000
,
2000
0000
0000
0000
3010
0000
0000
0000
0100
0000
0000
0001
0000
0010
0000
0000
,
0100
0000
0000
0000
0010
0000
0001
0000
0010
0000
0000
0100
0000
0000
0100
0000
,
1100
0000
0000
0000
1010
0000
0000
0000
0010
0000
0100
0000
0010
0000
0000
2000
,
0000
0000
0000
0000
3100
0000
0000
0000
0010
0000
0010
0000
0010
0000
0000
0002
,
0000
0000
0000
0000
0103
0000
0000
0000
0010
0000
0000
0000
1000
0100
0000
0100
,
0010
0000
0000
0000
0001
0000
0100
0000
0001
0000
0000
1000
0000
0000
0001
0000
,
1001
0000
1000
0000
0010
0000
0100
0010
,
1000
0100
1000
0010
0100
0001
0010
0100
,
2000
0000
0000
0001
0000
3001
0000
0000
0002
0000
0000
0100
0000
0103
0000
0000
,
0220
0000
0330
0000
0000
0001
0010
0100
,
1000
0100
0010
0001
1000
0010
0100
0001
,
0100
0000
0010
0000
1000
0000
0001
0000
0010
0000
0100
0000
1000
0000
1000
0020
,
0000
0000
0000
0000
0130
0000
0100
0002
0000
0000
0000
0000
0013
0000
0010
0200
,
0000
0000
0000
0000
1000
0000
0000
0000
0010
0000
0000
0310
0000
0000
0010
0000
,
0001
0000
1000
0010
1000
0001
1000
0100
,
0010
0001
0010
0001
0100
0001
1000
0010
,
0100
0000
0001
1000
0010
0100
0010
1000
,
0001
0100
0010
0100
0001
0010
0100
0000
,
2002
3003
2002
3003
0010
1000
0010
0100
,
0010
1000
0100
0010
0100
0010
0001
0010
,
0001
1000
0100
1000
0010
0100
0001
1000
,
0010
0100
0010
1000
0100
0010
0001
1000
,
0001
0000
0000
0000
,
0010
0000
0000
0001
0010
0000
0001
0000
0010
0000
0000
0100
0010
0000
0001
0000
,
0100
0000
0000
0010
0100
0000
0010
0000
1000
0000
0000
0010
1000
0000
0010
0000
,
0100
0000
0000
0001
0100
0000
0010
0000
0100
0000
0000
0001
1000
0000
0100
0000
,
0010
0000
0000
0100
1000
0000
0100
0000
0010
0000
0000
0001
0100
0000
0010
0000
,
1000
0000
0000
0001
1000
0000
0010
0000
1000
0001
0000
0001
1000
0000
0100
0000
,
0010
0000
0000
0100
0010
0000
0001
0000
0010
0100
0000
0100
0010
0000
0001
0000
,
0001
0000
0000
1000
0001
0000
0010
0000
0001
1000
0000
1000
0001
0000
0100
0000
,
0001
0000
0000
0010
0001
0000
0100
0000
0010
0000
1000
0000
0100
0000
0000
0000
,
0110
0000
0010
0001
0010
0100
1000
0010
,
1000
0001
0100
0010
0100
0001
1000
0010
,
1010
0000
0000
0000
0110
0000
0000
0000
0010
0000
0100
0000
0010
0000
1000
0100
,
0000
0100
0010
0000
0001
0000
0001
0100
0000
0100
0010
0000
1000
0000
0001
0000
,
0101
0000
0100
0010
0100
0001
0100
0010
,
1000
0100
1000
0001
0010
0100
1000
0100
,
0010
0000
0100
0000
1000
0000
0001
0000
0010
0000
0001
0000
1000
0000
0100
1000
,
0000
0100
1000
0000
0010
0000
0100
0001
0000
0100
0001
0000
0010
0000
0000
0000
,
0001
0000
1000
0100
1000
0000
0001
0000
0010
0000
0000
0001
0010
0000
0001
0000
,
1000
0000
0001
0010
0001
0000
1000
0000
0010
0000
0000
0100
0010
0000
1000
0000
,
0001
0000
0100
0010
0100
0000
0001
0000
1000
0000
0000
0010
1000
0000
1000
0000
,
0001
0000
0100
0001
0100
0000
0010
0000
1000
0000
0000
0001
1000
0000
0100
0000
,
0010
0001
0000
0000
0001
0100
0000
0000
0100
0010
0000
0000
0010
1000
0000
0000
,
1000
0100
0000
0000
0100
0010
0000
0000
0010
0001
0000
0000
0001
0100
0000
0000
,
0100
0010
0100
0000
0010
1000
0010
0000
1000
0001
1000
0000
0001
0100
0001
0000
,
0010
0000
0001
0000
0010
0000
0100
0000
1000
0001
1000
0001
1000
0000
0010
0000
,
0100
0001
0100
1000
0100
0001
0010
0100
,
0010
0001
0010
1000
0010
0001
1000
0100
,
0110
0000
0000
0000
0011
0000
0000
0000
0010
0000
0001
0000
0100
0000
0001
0100
,
0000
0010
0100
0000
0001
0000
1000
0010
0000
0100
0010
0000
1000
0000
0100
0000
,
1000
0000
0001
0010
0000
0010
0100
0000
1000
0000
0001
0000
1000
0000
0010
0100
,
0000
0100
0001
0000
0100
0000
0010
0000
1000
0000
0100
0010
0100
0000
0010
0000
,
0001
0101
1010
0110
,
1001
0000
0000
0000
1000
0000
0100
0000
0010
0000
0001
0100
0000
0000
0100
0000
,
0020
0000
0000
0000
,
0030
0000
0000
0000
;

//---------------dance-single - ----------------
#NOTES:
     dance-single:
     :
     Easy:
     8:
     0.337364,0.399516,0.135429,0.101572,0.021161,279.000000,263.000000,16.000000,12.000000,0.000000,0.000000,0.337364,0.399516,0.135429,0.101572,0.021161,279.000000,263.000000,16.000000,12.000000,0.000000,0.000000:
0000
0000
0000
0000
,
0000
0000
0000
0000
,
0000
0000
0000
0000
,
0000
0000
0000
0000
,
0000
0000
0000
0000
,
0000
0000
0000
0000
,
0000
0000
0000
0000
,
0000
0000
0000
0000
,
0000
0000
0000
0000
,
0000
0000
0000
0000
,
0010
0000
0010
0000
1000
0000
1000
0001
,
0100
0010
0100
0001
1000
0010
1000
0100
,
0010
0000
0000
0010
0000
0010
0000
0000
0001
0000
0000
0001
0000
0001
0000
0000
,
1001
0000
1000
0000
0001
0010
0100
1000
,
0010
1000
0010
0000
0100
0010
0100
0000
,
0001
0100
0001
0000
0010
0001
0010
0000
,
0100
0000
1000
0100
0010
0000
0001
0100
,
0010
0000
0000
0000
1000
0000
0000
0000
0001
0000
0000
0001
0000
0000
1000
0000
,
2000
3100
0002
0103
,
0200
0310
2000
3010
,
0002
0013
2000
3100
,
0020
0031
0020
0130
,
1001
0000
0110
0000
0010
1000
0010
0000
,
0100
0000
0100
0000
0001
0010
0001
0000
,
0010
0100
0010
0000
0001
0010
0001
0000
,
1000
0100
1000
0000
0010
0100
0010
0000
,
1001
0000
0000
0000
,
1001
0000
0001
0100
0010
0000
0010
0100
,
1000
0000
1000
0100
0010
0000
0010
0100
,
0001
0000
1000
0100
0010
0000
0010
0100
,
0001
0000
0001
0100
0010
0000
0010
0100
,
1000
0000
0001
0010
0100
0000
0100
0010
,
1000
0000
1000
0010
0100
0000
0100
0010
,
0001
0000
1000
0010
0100
0000
0100
0010
,
1000
0000
0001
0000
0100
0010
1000
0000
,
0001
0000
1001
0000
1000
0010
1000
0000
,
0010
0000
0110
0000
0100
0010
0100
0000
,
0002
0000
2003
0000
3100
0010
0100
0000
,
0010
0001
0010
0000
0001
0100
0001
0000
,
1000
0000
1010
0000
0010
0100
0010
0000
,
1000
0000
1100
0000
0100
1000
0100
0000
,
0010
0000
0100
0000
0010
0001
0010
0000
,
0001
0100
0001
0000
1000
0001
1000
0000
,
0010
1000
0010
0000
0010
0100
0010
0000
,
0010
0001
0010
0000
0010
1000
0010
0000
,
0001
0010
0001
0000
1000
0100
1000
0000
,
0001
0100
0001
0000
1000
0010
1000
0000
,
1000
0100
1000
0000
0100
0010
0100
0000
,
0001
0100
0001
0000
0100
0010
0100
0000
,
1000
0010
1000
0000
0001
0100
0001
0000
,
0020
0000
0001
0000
0100
0100
0130
0000
,
1000
0010
1000
0000
0010
0000
0100
0000
,
0001
0000
1000
0000
0100
0010
0100
0000
,
0011
0000
1100
0000
0001
0100
0001
0000
,
1000
0000
0010
0000
1000
0001
1000
0000
,
0100
0000
1000
0000
0010
0100
0010
0000
,
1000
0000
0100
0000
0010
0001
0010
0000
,
0011
0101
1100
1010
,
0020
0000
1000
0000
1030
0100
0010
0000
,
1001
0000
0000
0000
;
