#VERSION:0.83;
#TITLE:A Geisha's Dream (Ruffage Remix);
#SUBTITLE:;
#ARTIST:NAOKI feat. SMiLE.dk;
#TITLETRANSLIT:;
#SUBTITLETRANSLIT:;
#ARTISTTRANSLIT:;
#GENRE:;
#ORIGIN:;
#CREDIT:;
#BANNER:A Geisha's Dream (Ruffage Remix).png;
#BACKGROUND:A Geisha's Dream (Ruffage Remix)-bg.png;
#PREVIEWVID:;
#JACKET:;
#CDIMAGE:;
#DISCIMAGE:;
#LYRICSPATH:;
#CDTITLE:;
#MUSIC:A Geisha's Dream (Ruffage Remix).mp3;
#OFFSET:1.659000;
#SAMPLESTART:29.189440;
#SAMPLELENGTH:13.714285;
#SELECTABLE:YES;
#BPMS:0.000=140.000;
#STOPS:;
#DELAYS:;
#WARPS:;
#TIMESIGNATURES:0.000=4=4;
#TICKCOUNTS:0.000=4;
#COMBOS:0.000=1;
#SPEEDS:0.000=1.000=0.000=0;
#SCROLLS:0.000=1.000;
#FAKES:;
#LABELS:0.000=Song Start;
#BGCHANGES:;
#KEYSOUNDS:;
#ATTACKS:
;

//---------------dance-single - ----------------
#NOTEDATA:;
#CHARTNAME:;
#STEPSTYPE:dance-single;
#DESCRIPTION:;
#CHARTSTYLE:;
#DIFFICULTY:Challenge;
#METER:14;
#RADARVALUES:0.732807,0.752802,0.318845,0.018756,0.440756,547.000000,513.000000,34.000000,2.000000,96.000000,0.000000,0.000000,0.000000,0.000000,0.732807,0.752802,0.318845,0.018756,0.440756,547.000000,513.000000,34.000000,2.000000,96.000000,0.000000,0.000000,0.000000,0.000000;
#CREDIT:Daniel Van Eden;
#NOTES:
// measure 0
0000
0000
0000
0000
,  // measure 1
0000
0000
0000
0000
,  // measure 2
1001
0000
0000
0000
0100
0000
0001
0000
0010
0000
0100
0010
0001
0000
1000
0000
,  // measure 3
0100
0000
0010
0000
0100
0000
1000
0000
0010
0000
0100
0010
1000
0000
0001
0000
,  // measure 4
0100
0000
0000
0000
0010
0000
1000
0000
0001
0000
0010
0100
1000
0000
0001
0000
,  // measure 5
0010
0000
0100
0000
0010
0000
0001
0000
1000
0000
0010
0100
0010
0000
1000
0000
,  // measure 6
1001
0000
0000
0000
1000
0000
0001
0000
0010
0000
0001
0100
0001
0000
1000
0000
,  // measure 7
0010
0000
0100
0000
0001
0000
1000
0000
0010
0000
1000
0100
1000
0000
0001
0000
,  // measure 8
0100
0000
0000
0000
0010
0000
1000
0000
0100
0000
0010
0001
0010
0000
0001
0000
,  // measure 9
0100
0000
0010
0000
1000
0000
0001
0000
0010
0100
1000
0001
1000
0100
0010
0001
,  // measure 10
0100
0001
1000
0001
1000
0000
0010
1000
0000
0001
1000
0000
0010
0000
0100
0000
,  // measure 11
0001
0000
0010
0000
0100
0000
0010
0000
0001
0000
1000
0100
1000
0000
0010
0000
,  // measure 12
0100
0000
0000
0000
0010
0000
0100
0000
0001
0000
0010
0001
0010
0000
0001
0000
,  // measure 13
1000
0000
0010
0000
0100
0000
0010
0000
1000
0000
0100
1000
0100
0000
0010
0000
,  // measure 14
0001
0010
0100
0010
0100
0000
0010
0001
0000
1000
0001
0000
0010
0000
0100
0000
,  // measure 15
1000
0000
0010
0000
0001
0000
0010
0000
0100
0000
0001
0100
0010
0000
1000
0000
,  // measure 16
0001
0000
0000
0000
1000
0000
0010
0000
0100
0000
0010
1000
0010
0000
1000
0000
,  // measure 17
0100
0000
0010
0000
0001
0000
1000
0000
0010
0100
0010
1000
0001
0010
0100
0000
,  // measure 18
1100
MMMM
0110
MMMM
0011
MMMM
0101
MMMM
,  // measure 19
1010
0000
0100
0010
1000
MMMM
0110
MMMM
,  // measure 20
1001
0000
1000
0100
0001
0000
0001
0100
,  // measure 21
1000
0000
0010
0000
0100
0000
0001
0000
0010
0000
0100
0010
0001
0000
1000
0000
,  // measure 22
0101
MMMM
0110
MMMM
1010
MMMM
1100
MMMM
,  // measure 23
0011
0000
0100
0010
0001
MMMM
0110
MMMM
,  // measure 24
1001
0000
0001
0010
1000
0000
1000
0010
,  // measure 25
0001
0000
0100
0000
0010
0000
1000
0001
0010
0100
1000
0000
0010
1000
0001
0000
,  // measure 26
0100
0001
1000
0001
1000
0000
0010
1000
0001
1000
0001
0000
0100
0000
0010
0000
,  // measure 27
1000
0100
0010
0100
0010
0000
0001
0010
0100
0010
0100
0000
1000
0000
0001
0000
,  // measure 28
0100
0010
1000
0010
1000
0000
0010
0100
0001
0100
0001
0000
0010
0000
0100
0000
,  // measure 29
0010
0001
1000
0001
1000
0000
0010
1000
0001
0000
0100
0000
0010
0000
1000
0000
,  // measure 30
1001
0000
0000
0000
0010
0000
1000
0000
0100
0000
0010
0001
1000
0000
0001
0000
,  // measure 31
0100
0000
0001
0000
0010
0000
0001
0000
0100
0000
0010
1000
0001
0000
0100
0000
,  // measure 32
0010
0000
0000
0000
0100
0000
0001
0000
1000
0000
0010
1000
0100
0000
0010
0000
,  // measure 33
0001
0000
0010
0000
0100
0000
1000
0000
0001
0000
0010
0001
0100
0000
0010
0000
,  // measure 34
1010
0000
0000
0000
1000
0000
0100
0000
0010
0000
0001
1000
0001
0000
0100
0000
,  // measure 35
0010
0000
0100
0000
0001
0000
0100
0000
0010
0000
1000
0001
1000
0000
0100
0000
,  // measure 36
0010
0000
0000
0000
0100
0000
0010
0000
0001
0000
1000
0010
1000
0000
0001
0000
,  // measure 37
0100
0000
0010
0000
1000
0000
0100
0000
0010
0001
0010
0100
1000
0010
0100
0001
,  // measure 38
0100
0010
1000
0010
1000
0000
0001
1000
0000
0001
0100
0000
0010
0000
0100
0000
,  // measure 39
0001
0000
0010
0000
0100
0000
0010
0000
0001
0000
1000
0100
1000
0000
0010
0000
,  // measure 40
0100
0000
0000
0000
0001
0000
0100
0000
0010
0000
1000
0001
1000
0000
0100
0000
,  // measure 41
0010
0000
0100
0000
1000
0000
0010
0000
0100
0000
0001
0100
0010
0000
1000
0000
,  // measure 42
0001
0100
0010
0100
0010
0000
1000
0010
0000
1000
0001
0000
1000
0000
0100
0000
,  // measure 43
0010
0000
0001
0000
1000
0000
0001
0000
0100
0000
0010
0100
0010
0000
1000
0000
,  // measure 44
0001
0000
0000
0000
1000
0000
0010
0000
0100
0000
0001
0010
0001
0000
1000
0000
,  // measure 45
0100
0000
0010
0000
0001
0000
1000
0000
0010
0100
0001
1000
0100
0010
0001
0000
,  // measure 46
1000
0010
1000
0000
0001
0000
0100
0001
0000
0001
0100
0000
0001
0000
1000
0000
,  // measure 47
0001
0010
0001
0000
0010
0000
0100
1000
0000
1000
0100
0000
0010
0000
0001
0000
,  // measure 48
0100
0001
1000
0000
0001
0000
0010
0000
0100
1000
0001
0000
1000
0000
0010
0000
,  // measure 49
0100
0000
0010
0000
1000
0000
0001
0000
0010
0000
0100
1000
0010
0000
0100
0000
,  // measure 50
0001
0100
0001
0000
1000
0000
0010
0100
0000
0100
0010
0000
1000
0000
0001
0000
,  // measure 51
1000
0100
1000
0000
0001
0000
0010
0100
0000
0100
0010
0000
0001
0000
0100
0000
,  // measure 52
0001
0010
0001
0000
0100
0000
0010
0000
1000
0010
1000
0000
0001
0000
0100
0000
,  // measure 53
0001
0000
0010
0000
0100
0000
0010
0000
0100
1000
0010
0100
0001
1000
0010
0000
,  // measure 54
1010
MMMM
0110
MMMM
0101
MMMM
0011
MMMM
,  // measure 55
1100
0000
1000
0100
0010
MMMM
0110
MMMM
,  // measure 56
1001
0000
0010
1000
0001
0000
0100
0001
,  // measure 57
0010
0000
0100
0000
0010
0000
0001
0000
1000
0000
0100
1000
0001
0000
0010
0000
,  // measure 58
0011
MMMM
0110
MMMM
1100
MMMM
1010
MMMM
,  // measure 59
0101
0000
0001
0100
0010
MMMM
0110
MMMM
,  // measure 60
1001
0001
0100
0010
1010
1000
0100
0010
,  // measure 61
2002
0000
0000
3003
;
