#VERSION:0.83;
#TITLE:777;
#SUBTITLE:;
#ARTIST:RoughSketch;
#TITLETRANSLIT:;
#SUBTITLETRANSLIT:;
#ARTISTTRANSLIT:;
#GENRE:;
#ORIGIN:;
#CREDIT:;
#BANNER:777.png;
#BACKGROUND:777-bg.png;
#PREVIEWVID:;
#JACKET:777-jacket.png;
#CDIMAGE:;
#DISCIMAGE:;
#LYRICSPATH:;
#CDTITLE:;
#MUSIC:777.ogg;
#OFFSET:-0.118075;
#SAMPLESTART:24.222155;
#SAMPLELENGTH:9.884169;
#SELECTABLE:YES;
#BPMS:0.000=194.250,
76.000=388.500,
206.000=194.250,
336.000=388.500,
466.000=194.250,
472.000=388.500;
#STOPS:76.000=0.309,
329.000=0.154,
331.500=0.463,
336.000=0.927,
472.000=0.309;
#DELAYS:;
#WARPS:;
#TIMESIGNATURES:0.000=4=4;
#TICKCOUNTS:0.000=4;
#COMBOS:0.000=1;
#SPEEDS:0.000=1.000=0.000=0;
#SCROLLS:0.000=1.000;
#FAKES:;
#LABELS:0.000=Song Start;
#BGCHANGES:0.000=777.avi=1.000=0=0=1=====,
99999=-nosongbg-=1.000=0=0=0 // don't automatically add -songbackground-
;
#KEYSOUNDS:;
#ATTACKS:
;

//---------------dance-single - ----------------
#NOTEDATA:;
#CHARTNAME:;
#STEPSTYPE:dance-single;
#DESCRIPTION:;
#CHARTSTYLE:;
#DIFFICULTY:Challenge;
#METER:19;
#RADARVALUES:1.112203,1.565730,0.330477,0.161396,0.664796,1013.000000,970.000000,43.000000,21.000000,0.000000,0.000000,0.000000,0.000000,0.000000,1.112203,1.565730,0.330477,0.161396,0.664796,1013.000000,970.000000,43.000000,21.000000,0.000000,0.000000,0.000000,0.000000,0.000000;
#CREDIT:Daniel Van Eden;
#DISPLAYBPM:777.000000;
#NOTES:
0000
0000
0000
0000
,
0000
0000
0000
0000
,
0000
0000
0000
0000
,
0000
0000
0000
0000
,
0000
0000
0000
0000
,
0000
0000
0000
0000
,
0000
0000
0000
0000
,
0000
0000
0000
0000
,
0000
0000
0000
0000
,
0000
0000
1000
0101
,
0001
1100
1000
0011
,
0001
0000
1010
0010
1000
0000
0011
0000
,
0001
1010
1000
0101
,
0001
0000
1100
0100
0010
0001
1000
0010
,
0001
0000
0010
0000
1000
0000
0001
1000
0001
0000
1000
0000
0100
0000
0001
0000
,
0100
0000
1000
0000
0010
0000
0100
0010
0100
0010
1000
0001
0010
0100
1000
0001
,
1000
0010
0100
0001
1000
0100
0010
0001
1000
0000
0000
0000
0000
0000
0100
0000
,
1000
0000
0010
0000
0101
0001
0100
0100
,
0010
0010
1000
1000
0001
0010
0100
1000
,
0000
0000
0010
0010
,
1000
0010
1000
0001
0010
0001
1000
0010
,
0100
0001
0010
0001
1000
0100
1000
0001
,
1000
0001
0010
0001
1000
0001
0100
0000
,
0001
0000
0000
1000
0000
0000
0001
0000
0010
0000
0100
0000
1000
0000
0000
0000
0000
0000
1000
0000
0000
0000
0000
0000
,
0001
0010
0001
1000
0010
1000
0001
0010
,
0100
0000
0000
1000
0000
0000
0001
0000
0000
1000
0000
0000
0001
0000
0010
0000
0001
0000
1000
0000
0000
0001
0000
0000
,
1000
0000
0000
0010
0000
0000
0100
0000
0000
0001
0000
0000
1000
0000
0010
0000
1000
0000
0001
0000
0000
0010
0000
0000
,
0100
0010
0100
0010
0100
0010
0100
0000
0000
0100
0000
0000
,
1000
0100
1000
0001
0100
0001
1000
0100
,
0010
0000
0000
0001
0000
0000
0100
0000
0000
0001
0000
0000
1000
0000
0100
0000
1000
0000
0001
0000
0000
1000
0000
0000
,
0001
0000
0000
0100
0000
0000
0010
0000
0000
1000
0000
0000
0001
0000
0000
1000
0000
0000
0010
0000
0100
0000
0010
0000
,
1000
0000
0000
0001
0000
0000
1000
0000
0010
0000
1000
0000
0001
0000
0000
0000
0000
0000
0001
0000
0000
0000
0000
0000
,
1000
0001
1000
0010
1000
0100
0010
0001
,
0100
0000
0000
0001
0000
0000
0010
0000
0000
0100
0000
0000
0010
0000
0001
0000
1000
0000
0100
0000
0000
1000
0000
0000
,
0010
0000
1000
0000
0001
0000
0100
0000
0000
0001
0000
0000
1000
0000
0000
0000
0000
0000
0000
0000
0000
0000
0000
0000
,
0001
1000
0001
1000
0001
1000
0001
0000
0000
0010
0000
0000
,
0100
0100
0001
0100
,
1000
0000
0010
1000
0001
0000
0100
0000
,
0010
0000
0010
0000
0001
0010
1000
0000
,
0001
0000
0010
1000
0010
0001
1000
0000
,
0100
0100
0001
0100
,
0010
0000
0000
0000
0000
0000
0001
0000
0000
0010
0000
0000
0100
0000
1000
0000
0100
0000
0010
0000
0000
0001
0000
0000
,
1000
0000
0010
0000
0100
0001
1000
0000
,
0001
0010
0210
0000
,
0310
0010
1000
0010
,
0001
0000
0100
0001
1000
0000
0010
0000
,
0100
0000
0100
0000
1000
0100
0001
0010
,
1000
0000
0010
0000
0001
0010
0001
0000
,
0010
1000
0001
0100
,
1000
0000
0000
0000
0000
0000
0010
0000
0000
1000
0000
0000
0001
0000
0100
0000
0001
0000
1000
0000
0000
0100
0000
0000
,
0010
0001
1010
0000
,
0011
0000
0000
0000
1001
1000
0100
0100
,
0010
0000
0010
0000
0001
0000
0001
0000
1000
0000
0010
0000
0100
0000
0001
0100
,
0010
1000
0000
1000
0001
0000
0010
0100
0010
0000
0100
0000
1000
0010
0000
0010
,
1000
0000
0001
0010
0001
0000
0100
0000
0010
1000
0001
0000
0010
0001
0000
0001
,
1000
0000
0100
0000
0001
0000
0100
0000
1100
0000
1000
0000
0001
0010
0000
0010
,
0001
0000
1000
0010
1000
0000
0100
0000
0010
0001
1000
0000
0010
1000
0000
1000
,
0001
0000
1000
0000
0220
0330
0000
0000
0001
0000
0010
0000
0001
0100
0000
0100
,
0001
0000
1000
0100
1000
0000
0001
0000
0100
0001
1000
0000
0001
0100
0000
0100
,
0001
0000
0010
0000
1000
0000
0010
0000
0011
0000
0001
0000
1000
0100
0000
0100
,
1000
0000
0000
0000
0000
0000
0001
0000
0000
1000
0000
0000
0001
0000
0000
0000
0000
0000
0100
0000
0000
0000
0000
0000
0001
0000
1000
0000
0001
0000
1000
0000
0001
0000
1000
0000
0001
0000
1000
0000
0001
0000
1000
0000
0001
0000
1000
0000
,
0020
0030
0000
0000
0020
0030
0000
0000
0020
0030
0000
0000
0000
0000
0000
0000
1000
0000
0001
0000
0010
0000
0000
0000
0100
0000
0010
0000
0000
0000
0010
0000
,
0001
0000
0010
0100
0010
0000
0001
0000
1000
0010
1000
0000
0001
0100
0000
0100
,
0001
0000
0010
0000
1000
0000
0010
0000
0001
1000
0010
0000
1000
0010
0000
0010
,
0100
0000
0010
0100
0010
0000
1000
0000
0001
0100
0001
0000
1000
0001
0000
0001
,
0010
0000
0100
0000
2002
3003
0000
0000
1000
0001
0100
0000
0010
0100
0000
0100
,
0001
0000
1000
0001
1000
0000
0100
0000
0010
0100
1000
0000
0001
0010
0000
0010
,
0001
0000
0100
0000
1000
0000
0100
0000
0001
1000
0100
0000
0010
0100
0000
0100
,
1000
0000
0001
0010
0001
0000
1000
0000
0010
0100
0001
0000
0010
0100
1000
0000
,
0001
0100
0010
0000
2020
0000
3030
0000
1000
0000
0000
0000
0101
0000
0000
0000
,
0001
0010
0000
0100
0001
0000
0100
0010
,
0000
0100
1000
0010
0100
0000
0001
0100
,
0000
0100
2000
0000
0000
3100
0010
0000
,
0010
1000
0001
0010
0100
0000
1100
0000
,
1000
0010
0000
0100
1000
0000
0100
0010
,
0000
0100
0001
0010
0100
0000
1000
0100
,
0000
0100
0020
0000
0030
0010
0010
0010
,
0010
0100
0010
0100
0010
0100
0010
0100
0010
0000
0001
0000
1000
0000
0001
0100
,
0001
0000
0100
0010
0000
0100
0001
1000
0010
0000
1000
0100
0000
1000
0001
0000
,
0000
0100
0001
0000
0001
0010
0100
1000
0001
0000
1000
0000
0010
0000
1000
0100
,
1000
0000
0100
0010
0000
0100
1000
0001
0010
0000
0001
0100
0000
0001
1000
0000
,
0100
1000
0010
0000
0100
0010
1000
0001
0100
0001
0100
0001
0100
0001
0100
0001
,
1000
0001
1000
0001
0000
0000
1000
0010
1000
0010
1000
0001
1000
0001
0000
0000
,
1000
0100
0010
0001
1000
0001
0010
0100
0002
0000
0103
1000
0020
0000
0031
0010
,
1000
0000
1000
0011
,
0001
0010
0100
1000
0001
1000
0100
0010
,
0000
0100
1000
0100
0010
0000
0100
1000
,
0000
0001
0100
0000
0010
1000
0001
0000
,
0001
0010
0100
1000
0001
0000
1010
0000
,
1000
0010
0100
0001
1000
0001
0100
0010
,
0000
0000
0000
1000
0000
0000
0010
0000
0000
0100
0000
0000
0001
0000
1000
0000
0001
0000
1000
0000
0000
0100
0000
0000
,
0000
0010
0001
0000
1000
0001
1000
0000
,
0010
1000
0001
1000
0100
0000
1100
0000
,
1000
0001
0010
0100
1000
0001
1000
0100
,
0000
1000
0001
0100
0010
0000
1000
0100
,
0000
0010
0100
0000
1000
0001
0010
0000
,
0010
0001
1000
0010
0100
0000
0101
0000
,
0001
1000
0100
0010
0001
1000
0001
0010
,
0100
0000
0000
0010
0000
0000
0100
0000
0000
0010
0000
0000
0001
0000
0100
0000
0001
0000
0100
0000
0000
0010
0000
0000
,
1000
0000
0001
0000
0010
1000
0010
0001
,
2000
0000
3001
0101
,
1001
1010
1000
1100
,
1001
0000
0001
0010
0001
0000
0010
0000
,
1000
0000
0010
0001
0100
1000
0100
0001
,
1000
0010
1000
1010
,
1001
0101
0001
0011
,
0001
0000
0000
1000
0000
0000
0001
0000
0000
0000
0000
0000
1000
0000
0100
0000
0010
0000
0001
0000
0000
1000
0000
0000
,
0100
0000
0001
0000
0100
1000
0001
0000
,
0100
1000
0100
0001
1000
0000
1010
0000
,
0110
0101
0001
1001
,
0001
1000
0200
0000
0310
0000
0011
0000
,
1001
0000
1100
0000
2000
3100
2000
3001
,
2000
0000
3100
0000
2000
0000
3001
0000
0010
0000
0000
0000
0001
1000
0001
0000
,
0000
0000
0100
0010
0100
0000
0000
0000
1010
0000
0000
0000
1000
0001
1000
0000
,
0000
0000
0100
0010
0100
0000
0000
0000
0011
0000
0000
0000
1000
0010
1000
0000
,
0000
0000
0001
0100
0001
0000
0000
0000
1001
0000
0000
0000
0000
0000
0000
0000
,
0001
1000
0020
0000
1030
1000
0100
0100
,
0010
0010
0001
0001
1000
0010
0100
0001
,
0000
0000
0010
0010
,
0001
0010
0001
1000
0010
0001
0010
1000
,
0010
0100
0010
1000
0001
0010
1000
0010
,
0001
1000
0010
0100
0001
1000
0001
0000
,
1000
0000
0000
0001
0000
0000
1000
0000
0010
0000
1000
0000
0001
0000
0000
0000
0000
0000
0001
0000
0000
0000
0000
0000
,
1000
0010
1000
0001
0010
1000
0010
0001
,
1000
0000
0000
0010
0000
0000
0100
0000
0000
0001
0000
0000
1000
0000
0010
0000
1000
0000
0001
0000
0000
1000
0000
0000
,
0100
0000
0000
0010
0000
0000
0100
0000
0000
1000
0000
0000
0001
0000
0010
0000
0001
0000
1000
0000
0000
0001
0000
0000
,
0100
0010
0100
0010
0100
0010
0100
0000
0000
0100
0000
0000
,
0001
0100
0001
1000
0100
0001
0100
1000
,
0001
0000
0000
0100
0000
0000
0010
0000
0000
0100
0000
0000
0001
0000
1000
0000
0010
0000
1000
0000
0000
0001
0000
0000
,
1000
0000
0000
0100
0000
0000
0001
0000
0000
0100
0000
0000
1000
0000
0000
0001
0000
0000
0100
0000
0010
0000
1000
0000
,
0001
0000
0000
1000
0000
0000
0100
0000
0010
0000
0001
0000
1000
0000
0000
0000
0000
0000
1000
0000
0000
0000
0000
0000
,
0001
0100
1000
0100
0001
1000
0010
0100
,
0010
0000
0000
1000
0000
0000
0001
0000
0000
0010
0000
0000
0100
0000
0010
0000
0001
0000
1000
0000
0000
0010
0000
0000
,
0100
0000
0010
0000
1000
0000
0001
0000
0000
0100
0000
0000
0001
0000
0000
0000
0000
0000
0000
0000
0000
0000
0000
0000
,
0001
0000
1000
0000
0001
0000
1000
0000
0001
0000
1000
0000
0001
0000
0000
0100
0000
0000
0001
0000
0000
0100
0000
0000
,
0001
0100
0001
0100
1000
0100
1000
0100
,
1000
0100
1000
0100
0010
0001
0010
0001
,
0010
0001
0010
0001
0010
1000
0010
1000
,
0010
1000
0010
1000
0001
1000
0001
1000
,
0001
1000
0001
1000
0001
1000
0001
1000
,
0001
1000
0001
1000
0001
0000
0000
0000
;

//---------------dance-single - ----------------
#NOTEDATA:;
#CHARTNAME:;
#STEPSTYPE:dance-single;
#DESCRIPTION:;
#CHARTSTYLE:;
#DIFFICULTY:Hard;
#METER:18;
#RADARVALUES:0.979353,1.349767,0.146025,0.238251,0.338162,892.000000,873.000000,19.000000,31.000000,0.000000,0.000000,0.000000,0.000000,0.000000,0.979353,1.349767,0.146025,0.238251,0.338162,892.000000,873.000000,19.000000,31.000000,0.000000,0.000000,0.000000,0.000000,0.000000;
#CREDIT:Daniel Van Eden;
#NOTES:
0000
0000
0000
0000
,
0000
0000
0000
0000
,
0000
0000
0000
0000
,
0000
0000
0000
0000
,
0000
0000
0000
0000
,
0000
0000
0000
0000
,
0000
0000
0000
0000
,
0000
0000
0000
0000
,
0000
0000
0000
0000
,
0000
0000
1000
1001
,
0001
0101
0100
0110
,
0010
0000
1010
1000
0001
0000
1001
0000
,
1000
1100
0100
0110
,
0010
0000
0011
0001
0010
0100
1000
0001
,
0000
1000
0001
0100
0010
1000
0000
0010
,
1000
0000
0001
0000
0100
0000
0001
0100
0001
0000
1000
0001
1000
0000
0010
1000
,
0010
1000
0100
0010
0001
0010
0100
1000
0001
0000
0000
0000
0000
0000
0100
0000
,
0010
0000
1000
0000
0001
0010
0001
0010
,
0100
1000
0100
1000
0100
0010
0001
1000
,
0010
0000
1000
1000
,
0001
0010
0001
0010
0001
1000
0010
1000
,
0010
1000
0001
0010
0100
1000
0001
1000
,
0001
1000
0010
1000
0001
1000
0001
0000
,
1000
0100
0010
0001
1000
0000
1000
0000
,
0010
1000
0010
1000
0001
1000
0001
0010
,
0001
0010
0100
1000
0001
0000
1000
0100
,
0010
0001
0100
0010
1000
0000
0010
1000
,
0002
0000
0103
0100
,
0001
0100
0001
0100
0001
1000
0100
1000
,
0100
1000
0001
0100
0010
1000
0001
1000
,
0001
1000
0010
0100
0001
1000
0100
0000
,
0010
0001
0010
0100
1000
0000
1000
0000
,
0001
0010
0001
1000
0100
1000
0010
0100
,
0010
1000
0001
0010
0100
0000
0010
0001
,
1000
0000
0010
1000
0001
0000
0000
0000
,
0201
0000
0310
0010
,
1000
0001
1000
0100
,
0010
0000
0001
1000
0001
0000
0100
0000
,
1000
0000
0100
0000
0001
1000
0010
0000
,
1000
0000
0001
0010
0100
1000
0001
0000
,
1000
0100
0001
0100
,
1000
0000
0001
1000
0010
0000
0100
0010
,
0100
0000
1000
0000
0100
0010
0100
0000
,
0001
0000
1001
0000
,
0001
1000
0001
0010
,
0100
0000
1000
0001
1000
0000
0010
0000
,
0001
0000
0010
0000
1000
0010
1000
0001
,
0100
0000
0001
0000
0010
0001
0010
0000
,
0100
1000
0001
0100
,
0010
0000
1000
0010
1000
0000
0001
0010
,
0100
1000
1100
0000
,
0110
0000
0000
0000
0011
0001
0100
0001
,
1000
0000
0100
0000
1000
0000
0100
0000
0010
0000
0001
0000
1000
0000
0010
0100
,
0010
1000
0000
1000
0100
0000
0010
0001
1000
0000
0001
0000
0100
0001
0000
0001
,
0100
0000
0010
0000
1000
0000
0001
0000
0100
0001
0100
0000
0010
1000
0000
1000
,
0001
0000
0010
0000
0100
0000
1000
0000
0001
0000
1000
0000
0100
1000
0000
1000
,
0100
0000
0010
0000
0001
0000
1000
0000
0100
1000
0100
0000
0010
0001
0000
0001
,
1000
0000
0010
0000
2002
3003
0000
0000
0001
0000
1000
0000
0001
0010
0000
0010
,
0001
0000
0100
0000
0010
0000
1000
0000
0001
0010
0001
0000
1000
0100
0000
0100
,
0010
0000
0001
0000
0100
0000
0010
0000
1000
0000
0001
0000
1000
0010
0000
0010
,
1000
0000
0001
0000
0010
0000
0100
0000
1000
0001
1000
0001
1000
0001
1000
0001
,
0010
0000
0010
0000
0010
0000
0000
0000
0100
0000
0010
0000
0001
0100
0000
0100
,
0001
0000
0010
0100
1000
0000
0001
0000
1000
0010
1000
0000
0001
0010
0000
0010
,
0001
0000
1000
0000
0010
0000
0100
0000
0001
0000
0100
0000
0010
1000
0000
1000
,
0010
0000
1000
0100
0010
0000
0001
0000
1000
0100
1000
0000
0001
0010
0000
0010
,
0001
0000
1000
0000
0220
0330
0000
0000
0100
0000
0010
0000
1000
0100
0000
0100
,
1000
0000
0001
0010
0100
0000
1000
0000
0001
0100
0001
0000
1000
0010
0000
0010
,
1000
0000
0100
0000
0010
0000
0001
0000
1000
0000
0001
0000
0100
0010
0000
0010
,
0100
0000
0001
1000
0010
0000
1000
0000
0001
0010
0100
0000
1000
0100
0010
0000
,
0001
0010
0100
0000
1001
0000
0000
0000
2000
0000
0000
0000
3010
0000
0000
0000
,
0100
0010
0000
1000
0100
0000
0000
0011
,
0000
0000
0010
0001
1000
0000
0001
0100
,
0000
0100
0020
0000
0000
1030
0001
0000
,
0001
0010
0100
1000
0002
0000
0013
0000
,
0100
0010
0000
0001
0100
0000
0000
1010
,
0000
0000
0010
1000
0001
0000
1000
0100
,
0000
0100
0020
0000
0000
0100
0100
0130
,
0100
1000
0100
0010
0001
1000
0001
1000
0001
0000
0010
0000
0100
0010
0100
0010
,
0001
0000
1000
0001
0000
0000
0100
0001
1000
0000
0010
1000
0000
0010
0100
0000
,
0010
0100
0010
0000
0010
1000
0001
1000
0001
0000
0100
0000
0010
0100
0010
0100
,
0010
0000
1000
0010
0000
0000
1000
0001
0100
0000
0010
0100
0000
0001
1000
0000
,
0100
0010
0001
0000
0001
0010
0100
1000
0001
0000
0100
0000
0010
0000
1000
0001
,
1000
0000
0100
0010
0000
0000
0001
0000
1000
0100
0000
1000
0010
0000
0000
0000
,
1000
0010
1000
0010
0100
0001
0100
0001
2000
0000
3010
0100
0002
0000
0013
0100
,
1000
0000
0001
0100
,
0001
0000
0010
0100
0010
0000
0001
0100
,
0000
0100
0010
1000
0010
0000
1000
0001
,
0000
1000
0100
0000
1000
0001
1000
0000
,
1000
0100
0010
0001
1000
0000
0100
0000
,
1000
0000
0010
0100
0010
0000
1000
0100
,
0000
0100
0010
0001
0010
0000
0001
0100
,
0000
0001
1000
0000
0010
1000
0001
0000
,
1000
0100
0010
0001
1000
0000
0010
0000
,
0100
0000
0001
1000
0001
0000
0010
0100
,
0000
0100
1000
0001
1000
0000
0010
1000
,
0000
0010
0100
0000
0010
1000
0001
0000
,
0001
0100
0010
1000
0001
0000
0010
0000
,
0100
0000
1000
0001
1000
0000
0010
0100
,
0000
0100
0001
1000
0010
0100
0010
1000
,
0001
0000
1000
0000
0200
0000
1300
0001
,
0020
0000
0230
1000
,
0010
0310
0002
0100
,
1000
0000
1003
0010
2000
0000
0010
0000
,
0001
0000
3001
0000
0100
0001
0100
0010
,
1000
0001
0020
0100
,
0001
0031
2000
0010
,
3001
0100
0001
0000
1000
0010
1000
0001
,
1000
0000
0100
0000
0010
0100
0010
0000
,
0010
0001
0010
0100
2000
0000
0010
0000
,
0010
3001
0100
0001
,
1000
0001
0020
0000
0032
0000
0100
0000
,
1000
1003
0020
2030
,
3200
0000
0320
0000
0031
0000
0100
1000
,
0000
0100
0001
0000
1000
0000
0100
0001
,
0000
0100
1000
0000
0001
0000
0010
1000
,
0000
0010
0001
0000
1001
0000
0000
0000
,
1000
0010
0200
0000
0301
1000
0001
1000
,
0010
0100
0010
0100
0010
1000
0100
0010
,
0001
0000
1000
1000
,
0001
0100
0010
0100
0001
1000
0100
0010
,
0100
1000
0001
0010
0100
1000
0001
1000
,
0010
0100
0001
1000
0100
0010
0100
0000
,
0010
0001
1000
0010
0100
0000
0100
0000
,
0001
0100
0010
0100
0001
1000
0010
0100
,
0010
1000
0100
0010
0001
0010
0100
1000
,
0001
1000
0010
0100
0001
0000
1000
0100
,
0020
0000
0031
0001
,
1000
0010
0100
0010
1000
0001
0100
0010
,
0100
0001
0010
0100
1000
0001
1000
0100
,
0010
0001
0100
0010
1000
0001
0200
0000
,
0301
1000
0100
1000
0010
0000
0010
0000
,
1000
0100
0010
0100
1000
0001
0100
0010
,
0100
0001
1000
0010
0200
0000
0301
1000
,
0020
0000
1030
0100
0010
0000
0000
0000
,
0001
0010
0100
1000
0001
1000
0001
1000
,
0001
1000
0001
1000
0010
1000
0010
1000
,
0010
1000
0010
1000
0001
0100
0001
0100
,
0001
0100
0001
0100
0010
0100
0010
0100
,
0010
0100
0010
0100
0010
1000
0100
0010
,
0001
1000
0100
0010
0001
0010
0100
1000
,
0001
0010
0100
1000
0001
0000
0000
0000
;

//---------------dance-single - ----------------
#NOTEDATA:;
#CHARTNAME:;
#STEPSTYPE:dance-single;
#DESCRIPTION:;
#CHARTSTYLE:;
#DIFFICULTY:Medium;
#METER:15;
#RADARVALUES:0.732319,1.079814,0.176767,0.253622,0.107597,667.000000,644.000000,23.000000,33.000000,0.000000,0.000000,0.000000,0.000000,0.000000,0.732319,1.079814,0.176767,0.253622,0.107597,667.000000,644.000000,23.000000,33.000000,0.000000,0.000000,0.000000,0.000000,0.000000;
#CREDIT:Daniel Van Eden;
#NOTES:
0000
0000
0000
0000
,
0000
0000
0000
0000
,
0000
0000
0000
0000
,
0000
0000
0000
0000
,
0000
0000
0000
0000
,
0000
0000
0000
0000
,
0000
0000
0000
0000
,
0000
0000
0000
0000
,
0000
0000
0000
0000
,
0000
0000
0100
1000
,
0100
0001
0100
1000
,
0100
0000
0001
0100
0010
0000
1000
0000
,
0010
0001
0010
1000
,
0010
0000
0001
0010
0100
0010
0001
1000
,
0000
0000
0010
0100
0001
1000
0000
0001
,
0010
0100
1000
0000
0002
0000
0000
0000
,
0100
1003
1010
0000
,
0110
0000
2001
3010
,
0102
0000
1003
0000
0001
0010
0100
1000
,
0001
0000
0010
0010
,
0001
0010
0100
0001
,
0100
1000
0001
0100
,
0010
0000
1000
0000
0001
1000
0001
0000
,
0100
0010
1000
1000
,
0001
0100
0010
1000
,
0001
0000
0010
0100
0010
0000
0001
0000
,
1000
0000
0001
0000
0010
0000
0001
1000
,
0002
0000
0103
0100
,
0001
0100
0010
0001
,
0010
1000
0001
0010
,
0100
1000
0001
0010
,
0001
1000
0010
0010
,
0100
0010
0100
0001
,
1000
0000
0100
0010
0100
0000
0010
0001
,
0010
0000
0001
1000
0001
0000
0000
0000
,
0200
0000
0310
0000
,
1010
0000
1000
0010
,
1000
0000
0001
1000
0001
0000
0000
0000
,
0011
0000
0001
0100
,
0010
0000
1000
0010
1000
0010
1000
0000
,
0001
0010
0100
0000
,
1000
0100
0010
0001
,
1000
0000
0001
0000
0100
0010
0100
0000
,
0100
0000
1001
0000
,
0001
1000
0010
1000
,
0001
0000
0010
0001
0010
0000
0100
0000
,
1000
0000
0001
0000
1000
0001
1000
0001
,
1000
0000
0100
0000
0010
0001
1000
0000
,
0001
0100
0010
1000
,
0001
0000
1000
0001
2000
0000
0000
0000
,
3010
0100
0001
0000
,
0101
0000
2001
3100
,
0012
1003
1020
0130
,
0001
0100
0000
0001
1000
0000
0010
0000
1000
0000
0001
0000
1000
0000
0000
1000
,
0100
0010
0000
0010
0100
0010
0001
0010
,
0100
0000
1000
0000
0001
0000
0100
0000
0001
0000
1000
0000
0001
0000
0000
0001
,
0010
0100
0000
0100
1000
0100
0010
0001
,
1000
0000
0010
0000
0200
0300
0000
0000
0001
0000
1000
0000
0010
0000
0000
0010
,
0100
0001
0000
0001
1000
0010
1000
0001
,
0010
0000
0100
0000
1000
0000
0001
0000
1000
0000
0100
0000
1000
0000
0000
1000
,
0010
0100
0000
0100
0002
0000
0000
0000
,
0013
0000
0010
0000
0010
0000
0000
0000
0100
0000
1000
0000
0001
1000
0000
0001
,
1000
0000
0010
0000
0000
0000
0010
0000
1000
0010
1000
0000
0001
0000
0010
0000
,
0100
0000
1000
0000
0100
0000
0010
0000
0001
0000
1000
0000
0001
0100
0000
0001
,
0100
0000
0010
0000
0000
0000
0010
0000
1000
0001
1000
0000
0010
0000
0100
0000
,
0001
0000
0100
0000
0020
0030
0000
0000
0100
0000
0001
0000
1000
0001
0000
1000
,
0001
0000
0010
0000
0000
0000
0010
0000
0001
0100
0001
0000
1000
0000
0010
0000
,
0100
0000
0001
0000
0010
0000
0100
0000
1000
0000
0001
0000
1000
0010
0000
1000
,
0010
0000
0100
0000
0000
0000
0001
0000
1000
0001
1000
0000
0001
0100
0001
0000
,
1000
0100
1000
0000
0001
0000
0000
0000
2001
0000
0000
0000
0010
0000
0000
0000
,
3001
0100
0000
1000
0100
0000
0000
0011
,
0000
0000
0100
0001
1000
0000
0010
1000
,
0000
1000
0200
0000
0000
0000
0310
0000
,
0010
0001
0010
0100
2000
0000
0100
0000
,
3001
0010
0000
1000
0010
0000
0000
0101
,
0000
0000
0001
0100
0010
0000
1000
0001
,
0000
0001
0200
0000
0000
0010
0010
0010
,
0010
0010
0310
0000
1000
0001
0010
0100
,
1000
0000
0000
0010
0000
0000
1000
0000
0100
0000
0000
0100
0000
0000
0010
0000
,
0000
0000
0010
0000
0001
0100
0001
0100
0001
0000
1000
0000
0010
0000
0100
0000
,
0001
0000
0000
0010
0000
0000
0001
0000
1000
0000
0000
0100
0000
0000
0100
0000
,
0000
0000
0100
0000
1000
0010
1000
0010
1000
0000
0001
0000
0100
0000
0010
0000
,
1000
0100
0000
0010
0001
0010
0100
0000
,
1000
0010
0001
0010
2020
3030
0202
0303
,
1001
0000
0001
0100
,
1000
0000
0100
0000
0001
0000
1000
0010
,
0000
1000
0001
0000
1000
0000
0001
0010
,
0000
0001
1000
0000
0100
0000
0010
0000
,
0010
0001
1000
0100
,
0001
0000
0100
0000
1000
0000
0001
0100
,
0000
0001
1000
0000
0010
0000
1000
0100
,
0000
1000
0001
0000
0010
0000
0100
0000
,
0010
0001
1000
0001
1000
0000
0010
0000
,
0001
0000
0010
0000
1000
0000
0001
0100
,
0000
0001
1000
0000
0010
0000
1000
0100
,
0000
1000
0001
0000
0010
0000
0100
0000
,
0100
0010
0001
0010
,
1000
0000
0010
0000
0001
0000
1000
0010
,
0000
1000
0001
0000
1000
0000
0001
0100
,
0000
0001
1000
0000
0200
0000
0000
0000
,
0320
0000
0031
1000
,
0010
0010
0100
0001
,
1000
1000
0010
0100
,
0001
0010
1000
0010
,
0001
1000
0001
0010
,
0100
0100
1000
0001
,
0010
0010
0100
1000
,
0001
0100
1000
0100
,
0001
1000
0010
1000
,
0001
1000
0010
0100
,
0001
1000
0002
0000
0013
0000
0001
0000
,
1000
0001
0200
0320
,
2030
0000
3200
0000
0310
0000
0000
0011
,
0000
0000
1001
0000
1000
0000
0000
1010
,
0000
0000
0110
0000
0100
0000
0000
0101
,
0000
0010
1001
0000
,
1000
0100
0020
0000
0032
0000
0000
0000
,
2003
0000
3020
0000
,
0130
0000
0001
0001
,
1000
0001
1000
0100
,
0001
0100
1000
0001
,
1000
0000
0010
0000
0100
0001
1000
0000
,
0100
0010
0001
0001
,
0010
0100
0010
0100
,
1000
0000
0010
0100
0010
0000
1000
0000
,
0001
0000
0100
0000
0001
0000
1000
0001
,
2000
0000
3100
0100
,
1000
0010
0001
0010
,
1000
0001
0010
0100
,
1000
0100
0001
0100
,
1000
0001
1000
1000
,
0001
0100
0010
1000
,
0100
0000
0010
0001
0010
0000
0100
0010
,
0100
0000
1000
0100
1000
0000
0000
0000
,
0020
0000
0000
0000
1030
0001
1000
0001
,
1000
0001
1000
0000
0100
0010
0100
0010
,
0100
0010
0100
0000
0010
0001
0010
0001
,
0010
0001
0010
0000
0001
0100
0001
0100
,
0001
0100
0001
0000
1000
0001
1000
0001
,
1000
0001
1000
0001
1000
0001
1000
0001
,
1000
0001
1000
0001
1000
0000
0000
0000
;

//---------------dance-single - ----------------
#NOTEDATA:;
#CHARTNAME:;
#STEPSTYPE:dance-single;
#DESCRIPTION:;
#CHARTSTYLE:;
#DIFFICULTY:Easy;
#METER:12;
#RADARVALUES:0.530300,0.809860,0.130654,0.176767,0.007686,483.000000,466.000000,17.000000,23.000000,0.000000,0.000000,0.000000,0.000000,0.000000,0.530300,0.809860,0.130654,0.176767,0.007686,483.000000,466.000000,17.000000,23.000000,0.000000,0.000000,0.000000,0.000000,0.000000;
#CREDIT:Daniel Van Eden;
#NOTES:
// measure 0
0000
0000
0000
0000
,  // measure 1
0000
0000
0000
0000
,  // measure 2
0000
0000
0000
0000
,  // measure 3
0000
0000
0000
0000
,  // measure 4
0000
0000
0000
0000
,  // measure 5
0000
0000
0000
0000
,  // measure 6
0000
0000
0000
0000
,  // measure 7
0000
0000
0000
0000
,  // measure 8
0000
0000
0000
0000
,  // measure 9
0000
0000
1000
0000
,  // measure 10
0012
0000
0000
0100
,  // measure 11
0100
0000
1003
0000
0010
0000
1000
0200
,  // measure 12
0000
0010
0000
1000
,  // measure 13
0000
0000
0310
0000
0001
0000
1000
0010
,  // measure 14
1000
0000
0001
0000
1000
0001
1000
0000
,  // measure 15
0001
0010
0100
0000
1000
0000
0000
0000
,  // measure 16
0100
0010
0011
0000
,  // measure 17
0110
0000
2001
0000
,  // measure 18
3002
0000
0023
0000
,  // measure 19
0130
0000
1000
0001
,  // measure 20
1000
0000
0010
0000
,  // measure 21
0100
0000
0001
0000
,  // measure 22
1000
0000
0001
0010
,  // measure 23
0001
1000
0010
0100
,  // measure 24
0010
0000
1000
0000
,  // measure 25
0001
0000
0100
0010
,  // measure 26
0100
0000
0001
1000
,  // measure 27
0002
0000
0013
0100
,  // measure 28
0010
0000
0100
0000
,  // measure 29
1000
0000
0010
0000
,  // measure 30
0100
0000
0001
1000
,  // measure 31
0010
0000
1000
0001
,  // measure 32
1000
0000
0100
0000
,  // measure 33
0010
0000
0001
0010
,  // measure 34
0100
0010
0001
0000
,  // measure 35
2000
0000
3010
0000
,  // measure 36
0110
0000
0010
0000
,  // measure 37
1000
0001
1000
0000
,  // measure 38
0100
0000
0010
0000
,  // measure 39
0001
1000
0001
0000
,  // measure 40
0010
0000
0100
0000
,  // measure 41
0010
0000
0001
0100
,  // measure 42
0010
1000
0001
1000
,  // measure 43
0001
0000
0110
0000
,  // measure 44
1001
0000
1000
0000
,  // measure 45
0010
1000
0001
0000
,  // measure 46
1000
0000
0001
0010
,  // measure 47
0100
1000
0001
0000
,  // measure 48
0001
0100
0000
0100
,  // measure 49
0010
0000
1010
0000
,  // measure 50
1000
0010
0100
0000
,  // measure 51
0001
0000
1001
0000
,  // measure 52
0000
0000
0000
0000
,  // measure 53
0000
1001
1000
0101
,  // measure 54
0001
1000
0100
0000
1000
0010
1000
0000
,  // measure 55
0001
0010
0100
0010
0001
0000
1010
0000
,  // measure 56
1000
0001
0010
0000
0001
0100
0001
0000
,  // measure 57
1000
0000
0100
0000
0020
0030
0000
0000
0001
0000
0000
0000
1100
0000
0000
0000
,  // measure 58
1000
0001
0100
0000
0001
0010
0001
0000
,  // measure 59
1000
0010
0100
0001
1000
0000
0011
0000
,  // measure 60
0001
1000
0100
0000
0020
0000
0000
0000
,  // measure 61
0130
0100
0100
0000
1000
0001
0010
0000
,  // measure 62
0001
0100
0000
0100
0001
1000
0010
0000
,  // measure 63
1000
0100
0010
0001
1000
0100
0010
0000
,  // measure 64
0001
1000
0000
1000
0010
0100
0010
1000
,  // measure 65
0001
0010
0200
0300
1000
0001
0010
0000
,  // measure 66
0001
0100
0000
0100
0010
0100
0001
0000
,  // measure 67
1000
0010
0100
0001
1000
0001
0010
0000
,  // measure 68
0100
0010
0000
0010
0001
0000
1000
0010
,  // measure 69
0000
0100
0001
0000
1001
0000
1000
0000
,  // measure 70
0010
0000
0000
1000
0010
0000
0000
0200
,  // measure 71
0000
0000
0301
0000
1000
0000
0001
0010
,  // measure 72
0000
0010
0100
0000
0000
0000
0100
0000
,  // measure 73
1000
0100
0010
0001
1000
0000
0001
0000
,  // measure 74
0100
0001
0000
0100
0010
0000
0000
2000
,  // measure 75
0000
0000
3001
0000
0010
0000
0100
0010
,  // measure 76
0000
0010
0002
0000
0000
0000
1000
0000
,  // measure 77
1000
0000
1003
0000
0001
0100
0001
0000
,  // measure 78
1000
0000
0000
1000
0000
0000
0010
0000
1000
0000
0000
0000
0100
0000
0010
0000
,  // measure 79
0000
0010
0100
0000
1000
0100
1000
0000
,  // measure 80
0001
0000
0000
0001
0000
0000
0010
0000
0001
0000
0000
0000
0100
0000
0010
0000
,  // measure 81
0000
0010
0100
0001
1000
0001
1000
0001
,  // measure 82
1000
0001
0000
0010
0100
0010
0100
0000
,  // measure 83
1000
0100
0010
0001
2000
3000
0002
0003
,  // measure 84
1001
0000
0001
1000
,  // measure 85
0001
0000
1000
0000
0001
0000
0000
0010
,  // measure 86
0000
0010
0001
0000
,  // measure 87
1000
0100
0000
0100
,  // measure 88
1000
0001
1000
0001
,  // measure 89
1000
0000
0001
0000
1000
0000
0000
0010
,  // measure 90
0000
0010
1000
0000
,  // measure 91
0001
0100
0000
0100
,  // measure 92
0010
1000
0010
0100
,  // measure 93
0010
0000
0100
0000
0001
0000
0000
1000
,  // measure 94
0000
1000
0100
0000
,  // measure 95
0010
0001
0000
0001
,  // measure 96
0010
0100
0010
0100
,  // measure 97
0010
0000
0100
0000
0010
0000
0000
0001
,  // measure 98
0000
0001
0100
0000
,  // measure 99
0010
1000
0002
0000
,  // measure 100
0000
0000
0103
0001
,  // measure 101
0100
0000
0010
0100
,  // measure 102
0010
0000
1000
0010
,  // measure 103
1000
0000
0001
1000
,  // measure 104
0001
1000
0100
1000
,  // measure 105
0100
0000
0010
0100
,  // measure 106
0010
0000
0001
0010
,  // measure 107
0001
0010
0001
1000
,  // measure 108
0001
1000
0100
0010
,  // measure 109
0100
0000
1000
0001
,  // measure 110
2000
0000
3010
0100
,  // measure 111
0010
0100
0002
0000
,  // measure 112
0000
0000
0000
0000
1003
0000
0000
0001
,  // measure 113
0000
0000
0001
0000
0010
0000
0000
0100
,  // measure 114
0000
0000
0100
0000
1000
0000
0000
0010
,  // measure 115
0000
0010
0100
0000
,  // measure 116
0001
0000
1002
0000
,  // measure 117
2003
0000
3020
0000
,  // measure 118
0130
0000
0001
1000
,  // measure 119
0001
1000
0010
0000
,  // measure 120
0100
0001
1000
0001
,  // measure 121
1000
0000
0001
0010
,  // measure 122
0001
1000
0010
0100
,  // measure 123
0010
0100
0001
0000
,  // measure 124
1000
0001
0100
0010
,  // measure 125
0100
0000
0001
1000
,  // measure 126
0002
0000
0013
0100
,  // measure 127
0010
0001
0010
0000
,  // measure 128
0100
1000
0010
1000
,  // measure 129
0100
0000
1000
0001
,  // measure 130
0010
0000
0001
1000
,  // measure 131
0001
1000
0100
0000
,  // measure 132
1000
0001
1000
0010
,  // measure 133
0100
0010
1000
0000
,  // measure 134
0002
0000
0013
0100
,  // measure 135
0010
0100
1000
0001
,  // measure 136
1000
0001
0100
0001
,  // measure 137
0100
0001
1000
0010
,  // measure 138
1000
0010
1000
0100
,  // measure 139
0010
0001
0010
0100
,  // measure 140
1000
0001
1000
0000
;

//---------------dance-single - ----------------
#NOTEDATA:;
#CHARTNAME:;
#STEPSTYPE:dance-single;
#DESCRIPTION:;
#CHARTSTYLE:;
#DIFFICULTY:Beginner;
#METER:8;
#RADARVALUES:0.316204,0.485916,0.199823,0.000000,0.000000,288.000000,262.000000,26.000000,0.000000,0.000000,0.000000,0.000000,0.000000,0.000000,0.316204,0.485916,0.199823,0.000000,0.000000,288.000000,262.000000,26.000000,0.000000,0.000000,0.000000,0.000000,0.000000,0.000000;
#CREDIT:Daniel Van Eden;
#NOTES:
0000
0000
0000
0000
,
0000
0000
0000
0000
,
0000
0000
0000
0000
,
0000
0000
0000
0000
,
0000
0000
0000
0000
,
0000
0000
0000
0000
,
0000
0000
0000
0000
,
0000
0000
0000
0000
,
0000
0000
0000
0000
,
0000
0000
1000
0000
,
0001
0000
0010
0000
,
0001
1000
0001
0000
,
1000
0000
0010
0000
,
1000
0000
0001
0000
1000
0000
0000
1000
,
0000
0000
0001
0000
0000
0001
0000
1000
,
0000
1000
0001
0000
,
0100
0010
1000
0000
,
0001
0000
1001
0000
,
0001
0000
0001
0000
,
0010
0000
0110
0000
,
0000
0000
0100
0000
,
0010
0000
0100
0000
,
0010
0000
0000
0011
,
0000
0000
1001
0000
,
0000
0000
1000
0000
,
0001
0000
1000
0000
,
0010
0000
1000
0000
,
0001
0000
1001
0000
,
0000
0000
1000
0000
,
0010
0000
0100
0000
,
0010
0000
0000
1010
,
0000
0000
1001
0000
,
0000
0000
1000
0000
,
0001
0000
0000
1100
,
0000
0000
0101
0000
,
0000
0000
1000
0000
,
1001
0000
0000
0000
,
0001
0000
0010
0000
,
0001
0000
0000
0000
,
1000
0000
0100
0000
,
1000
0000
0000
0000
,
0001
0000
1000
0000
,
0001
0000
0100
0000
,
0010
0000
0000
0000
,
0110
0000
0000
0000
,
0100
0000
0010
0000
,
0100
0000
0000
0000
,
0001
0000
1000
0000
,
0000
0100
0000
0000
,
0010
0000
0001
0000
,
1000
0000
0010
0000
,
0010
0000
0110
0000
,
0000
0000
0000
0000
,
0000
1001
0000
0001
,
1000
0000
0010
1000
,
0001
0010
0100
1000
,
0001
0000
1000
0001
,
0100
0010
0000
0100
,
0001
0000
1000
0100
,
0010
0001
1000
0010
,
1000
0000
0001
0000
,
0010
0010
0010
0000
0100
0000
0010
0000
,
0100
0000
1000
0001
,
1000
0010
0100
0001
,
0100
0000
0010
1000
,
0001
0010
0100
1000
,
0100
0000
1000
0010
,
1000
0001
0100
0010
,
0100
0000
0000
0000
0001
0000
0000
1000
,
0000
0010
0100
0000
,
0100
0000
0001
0100
,
0010
0000
0100
0010
,
1000
0000
0001
0010
,
0100
1000
0001
0000
,
0010
0000
0100
0010
,
0100
0000
1000
0100
,
0010
0001
0000
0000
,
0000
0000
1000
1000
,
1000
0000
0010
0000
,
1000
0001
0100
0100
,
0100
0000
0001
0000
,
0010
0100
0010
0010
,
0010
0000
0000
0100
0000
0100
0000
0100
,
1000
0001
1000
0001
,
0100
0000
0001
0000
,
0000
0000
1000
0000
,
0010
0000
1000
0000
,
0001
0000
1000
0000
,
0100
0000
0010
0000
,
0000
0000
0001
0000
,
0100
0000
0001
0000
,
1000
0000
0100
0000
,
1000
0000
0001
0000
,
0000
0000
0010
0000
,
0100
0000
0010
0000
,
0001
0000
1000
0000
,
0001
0000
0100
0000
,
0000
0000
0010
0000
,
1000
0000
0010
0000
,
0100
0000
0001
0000
,
0000
0000
1000
0000
,
1000
0000
1000
0000
,
0010
0000
0100
0000
,
0100
0000
0100
0000
,
0000
0000
0001
0000
,
0001
0000
0001
0000
,
0010
0000
0100
0000
,
0100
0000
0100
0000
,
0000
0000
1001
0000
,
0000
0000
1000
0000
,
0000
0000
0110
0000
,
0000
0000
0100
0000
,
0000
0000
0000
0000
0001
0000
0000
0001
,
0000
0000
0000
0000
1000
0000
0000
1000
,
0000
0000
1001
0000
,
0000
0000
0010
0000
,
0000
0000
0110
0000
,
0100
0000
0100
0000
,
0001
0000
0110
0000
,
0000
0000
0100
0000
,
0010
0000
0100
0000
,
0010
0000
0000
1010
,
0000
0000
1001
0000
,
0000
0000
0001
0000
,
1000
0000
0001
0000
,
0010
0000
0001
0000
,
1000
0000
1001
0000
,
0000
0000
0001
0000
,
0010
0000
0100
0000
,
0010
0000
0000
0011
,
0000
0000
1001
0000
,
0000
0000
1000
0000
,
0100
0000
0000
0011
,
0000
0000
1010
0000
,
0000
0000
1000
0000
,
1000
0000
0001
0000
,
0001
0000
0010
0000
,
0010
0000
0100
0000
,
0100
0000
1000
0000
,
0000
0000
0000
0000
,
0000
0000
1001
0000
;
