#TITLE:10 Victoria's Secret Models;
#SUBTITLE:;
#ARTIST:MAX;
#TITLETRANSLIT:;
#SUBTITLETRANSLIT:;
#ARTISTTRANSLIT:;
#GENRE:;
#CREDIT:;
#BANNER:10 Victorias Secret Models.png;
#BACKGROUND:10 Victorias Secret Models-bg.png;
#LYRICSPATH:;
#CDTITLE:;
#MUSIC:10 Victorias Secret Models.ogg;
#OFFSET:-0.220509;
#SAMPLESTART:61.051971;
#SAMPLELENGTH:13.521133;
#SELECTABLE:YES;
#BPMS:0.000000=142.000000
,142.000000=35.500000
,142.500000=142.000000
,251.000000=35.500000
,251.500000=142.000000
;
#STOPS:178.500000=0.634000,
287.500000=0.634000
;
#BGCHANGES:;
#KEYSOUNDS:;
#ATTACKS:;

//---------------dance-single - ----------------
#NOTES:
     dance-single:
     :
     Hard:
     11:
     0.470611,0.537035,0.332317,0.375663,0.162546,456.000000,410.000000,46.000000,52.000000,0.000000,0.000000,0.470611,0.537035,0.332317,0.375663,0.162546,456.000000,410.000000,46.000000,52.000000,0.000000,0.000000:
0000
0000
0000
0000
,
0000
0000
0000
0000
,
0000
0000
0000
0000
,
0000
0000
0000
0000
0000
0001
0002
0100
,
1003
0000
0000
0100
1000
0000
0001
0100
,
0001
1000
0000
1000
1001
0000
0000
0000
,
0011
0000
0000
0000
0000
0000
0100
0010
0100
0000
0000
1000
0000
0000
0100
0000
,
0010
0000
0000
0001
0000
0000
0010
0000
0100
0000
0000
1000
0000
0000
0000
0000
,
1001
0000
0000
0010
0100
0000
0001
0010
,
0001
0000
0010
0000
0000
0000
0100
0000
1100
0000
0000
1000
0000
0000
0000
0000
,
0000
0000
0000
0000
0000
0010
1000
0000
0001
0000
0001
0000
0001
0000
0100
0000
,
0001
1000
0100
1000
0010
0001
0010
1000
,
0200
0000
0000
0320
0000
0000
0032
0100
,
2003
0010
0000
0010
3001
0000
0000
0000
,
0200
0000
0000
0010
0301
0000
0001
0100
,
0002
0010
0000
0100
1003
0000
0000
0000
,
0010
0100
0002
0013
0002
0003
1001
0001
,
0100
0010
2000
0100
3001
0000
0100
0000
,
1000
0001
0010
0100
0010
0000
0001
0000
,
0001
1000
0001
0000
0110
0100
0010
1000
,
1010
0010
2000
0000
3100
0000
0110
0000
,
0011
0200
0301
0000
0001
0100
0010
0000
,
0210
0000
0001
0000
0301
0010
0200
0000
,
1000
0000
0000
1300
0000
0000
0010
0000
1000
0000
0100
0000
,
0010
0100
0100
1000
0001
0000
0011
0000
,
0011
0000
0000
0000
0000
0000
0000
0000
0000
1000
0000
0000
0100
0000
0000
0000
0010
0000
0000
0000
0001
0000
0000
0000
,
0100
0010
1000
0010
0100
0000
0001
0000
,
0010
0101
1100
0110
,
1010
0010
1000
0000
0100
0000
0010
0000
,
0100
1000
0001
0000
0010
0001
0100
0000
,
0101
0000
1010
0000
0101
0000
0001
1000
,
0010
0000
0000
0000
0000
0000
1000
0000
0000
0100
0000
0000
0010
0000
0000
0000
0001
0000
0000
0000
1000
0000
0000
0000
,
0010
1000
0100
1000
0010
0000
0110
0000
,
0101
0000
0000
0000
0000
0000
1000
0000
0000
0001
0000
0000
0010
0000
0000
0000
0100
0000
0000
0000
1000
0000
0000
0000
,
0100
0010
0100
0010
0002
0000
0100
0000
,
2003
0000
0010
0000
3001
2002
0000
0000
,
3003
2020
0000
0000
3030
0220
0000
0000
,
0330
0202
0000
0000
0303
2002
0000
0000
,
3003
0100
0001
0010
0001
0010
0100
1000
,
0100
1000
0010
0100
0001
1000
0001
0010
,
0000
0000
0001
0010
0001
0010
0001
0100
,
0001
0100
0010
1000
0100
1000
0100
0010
,
0000
0011
0000
0001
1000
0001
0100
0010
,
0000
1000
0000
0100
0000
0220
0000
0000
,
0330
0022
0000
0000
0033
0000
2002
0000
,
0000
3003
0202
0000
0000
0303
0100
0010
,
1000
0000
0000
0010
0000
0000
1000
0000
0000
0100
0000
0000
0010
0000
0000
0001
0000
0000
0010
0000
0000
0000
0001
0000
,
0000
0000
1000
0000
0001
0000
1000
0000
0000
0100
0000
0000
0010
0000
0000
0000
0000
0000
0000
0000
0000
0001
0000
0000
,
0100
0000
0000
0001
0000
0000
0100
0000
0000
0000
0010
0000
0000
0000
1000
0000
0010
0000
0100
0000
0000
0000
0010
0000
,
0000
0000
0100
0000
0001
0000
1000
0000
0000
0000
1100
0000
0000
0000
0110
0000
0000
0000
0011
0000
0000
0001
0000
0000
,
1000
0100
0001
0100
1000
0010
0100
0000
,
0010
0000
0100
0001
0100
0000
0100
0000
,
0100
0010
0100
0000
0100
0000
0010
0000
,
1000
0000
0010
0100
0010
0000
0010
0000
,
0010
0000
0001
1000
0010
0000
0100
1000
,
1000
0000
0000
0010
0000
0000
0100
0000
0000
0000
0001
0000
0000
0000
0100
0000
0000
0000
0010
0000
0000
0000
0000
0000
,
1000
0000
0000
0000
0000
0000
0001
0000
0000
1000
0000
0000
0000
0000
0000
0000
0000
0000
1000
0000
0000
0000
0100
0000
,
0000
0000
0010
0000
0000
0000
0002
0000
0000
0000
0000
0000
0000
0000
0000
0010
0000
0000
0000
0000
1000
0000
0000
0000
,
0000
0003
0000
0200
0000
0000
0000
0000
0000
0310
0000
1000
,
0000
0000
0010
0000
0000
0000
0100
0000
0000
0010
0000
0000
0100
0000
0000
0001
0000
0000
0100
0000
0000
0000
0000
0000
,
0010
0000
1000
0100
0010
0000
0010
0001
,
1000
0000
1000
0010
0100
0000
0100
0001
,
1000
0000
0010
0100
0001
0000
0001
0022
,
0000
0000
0033
2002
0000
0000
3003
2200
,
0000
0000
3300
0220
0000
0000
0330
0001
,
0000
0010
0000
0000
0000
0100
0000
0000
0000
1000
0000
0000
0010
0000
0000
1000
0000
0000
0010
0000
0000
0100
0000
0000
,
0001
0100
0010
1000
0100
0010
0001
1000
,
0001
1000
0000
0001
0010
0001
0010
0100
,
0010
0100
1000
0010
1000
0100
0010
0001
,
1000
0100
0000
1001
0000
0001
1000
0001
,
0100
0010
0000
1000
0000
0010
0000
0202
,
0000
0000
0303
2020
0000
0000
3030
0000
,
2002
0000
0000
3003
2200
0000
0000
3300
,
1000
0010
0100
0001
0100
0010
0100
0001
,
0010
0000
0000
0000
0100
0000
0000
0000
0010
0000
0100
0000
1000
0000
0000
0001
0000
0000
1000
0000
0000
0000
0000
0000
,
0010
0000
0000
0100
0000
0000
0001
0000
0000
0100
0000
0000
0010
0000
0000
0000
1000
0000
0000
0000
0001
0000
1000
0000
,
0001
0000
0010
0000
0100
0010
0100
0000
1100
0000
0110
0000
,
0011
0100
0001
0100
0010
0100
0010
1000
,
0001
1000
0000
0000
;

//---------------dance-single - ----------------
#NOTES:
     dance-single:
     :
     Beginner:
     2:
     0.125909,0.169048,0.057794,0.000000,0.000000,122.000000,114.000000,8.000000,0.000000,0.000000,0.000000,0.125909,0.169048,0.057794,0.000000,0.000000,122.000000,114.000000,8.000000,0.000000,0.000000,0.000000:
// measure 0
0000
0000
0000
0000
,  // measure 1
0000
0000
0000
0000
,  // measure 2
0000
0000
0000
0000
,  // measure 3
0000
0000
0000
0000
,  // measure 4
0010
0000
0000
0000
,  // measure 5
0100
0000
0000
0000
,  // measure 6
0001
0000
1000
0000
,  // measure 7
0001
0000
1000
0000
,  // measure 8
0010
0000
0000
0000
,  // measure 9
0100
0000
0000
0000
,  // measure 10
0010
0000
0010
0010
,  // measure 11
0000
0001
0001
0000
,  // measure 12
1000
0000
1000
0000
,  // measure 13
0010
0000
0010
0000
,  // measure 14
0100
0000
0100
0000
,  // measure 15
0001
0000
0001
0000
,  // measure 16
0000
0000
1000
0000
,  // measure 17
0001
0000
1000
0000
,  // measure 18
0000
0000
0010
0000
,  // measure 19
0100
0000
0100
0000
,  // measure 20
1001
0000
0000
0000
,  // measure 21
0001
0000
0000
0000
,  // measure 22
1000
0000
0000
0000
,  // measure 23
0010
0000
0000
0000
,  // measure 24
0100
0000
0000
0000
,  // measure 25
0010
0000
0000
0000
,  // measure 26
1000
0000
0000
0000
,  // measure 27
0001
0000
0000
0000
,  // measure 28
1000
0000
1000
0000
,  // measure 29
1000
0000
0000
0000
,  // measure 30
0001
0000
0001
0000
,  // measure 31
0001
0000
0000
0000
,  // measure 32
0010
0000
0100
0000
,  // measure 33
0100
0000
0010
0000
,  // measure 34
1000
0000
0001
0000
,  // measure 35
1000
0000
0000
0000
0000
1001
0000
0000
,  // measure 36
0000
0001
0000
0000
0000
0000
0000
0000
,  // measure 37
0000
1000
0000
0000
0000
0000
0000
0000
,  // measure 38
0000
0010
0000
0000
0000
0100
0000
0000
,  // measure 39
0000
0010
0000
0000
0000
1000
0000
1000
,  // measure 40
0000
0000
0000
0000
0000
0010
0000
0000
,  // measure 41
0000
0100
0000
0000
0000
0001
0000
0001
,  // measure 42
0000
0000
0000
0000
0000
1000
0000
1000
,  // measure 43
0000
0000
0000
0000
,  // measure 44
0000
1001
0000
0000
0000
0000
0110
0000
,  // measure 45
0000
0010
0000
0100
,  // measure 46
0000
0000
0000
0010
,  // measure 47
0000
1000
1000
0000
,  // measure 48
0000
0001
0000
0010
,  // measure 49
0000
0100
0000
0100
,  // measure 50
0000
0010
0000
1000
,  // measure 51
0000
0110
0000
0000
,  // measure 52
0000
0000
0000
0000
,  // measure 53
0000
0000
0000
0000
,  // measure 54
0000
0000
0000
0000
,  // measure 55
0000
1000
0000
0000
,  // measure 56
0000
0001
0000
0000
,  // measure 57
0000
0100
0000
0000
,  // measure 58
0000
0010
0000
0000
,  // measure 59
0000
1000
0000
0001
,  // measure 60
0000
0100
0000
0010
,  // measure 61
0000
0010
0000
1000
,  // measure 62
0000
0000
1000
0000
0000
0000
0000
1001
,  // measure 63
0000
0000
0000
0001
0000
0000
0000
0000
,  // measure 64
0000
0000
0000
1000
0000
0000
0000
0100
,  // measure 65
0000
0000
0000
0010
0000
0000
0000
0000
,  // measure 66
0000
0000
0000
0010
0000
0000
0000
0001
,  // measure 67
0000
0001
0000
0000
0000
0000
0000
0100
,  // measure 68
0000
0000
0000
0010
0000
0000
0000
1000
,  // measure 69
0000
1000
0000
0000
0000
0000
0000
0001
,  // measure 70
0000
0001
0000
0000
0000
0000
0000
1001
,  // measure 71
0000
0000
0000
0010
0000
0000
0000
0000
,  // measure 72
0110
0000
0010
0000
,  // measure 73
1000
0000
0000
0000
,  // measure 74
0100
0000
0010
0010
,  // measure 75
0000
0000
0001
0000
,  // measure 76
0000
0000
1000
0000
,  // measure 77
1000
0000
0010
0000
,  // measure 78
0100
0000
0000
0000
;

//---------------dance-single - ----------------
#NOTES:
     dance-single:
     :
     Easy:
     5:
     0.227049,0.282650,0.065019,0.072243,0.000000,220.000000,211.000000,9.000000,10.000000,0.000000,0.000000,0.227049,0.282650,0.065019,0.072243,0.000000,220.000000,211.000000,9.000000,10.000000,0.000000,0.000000:
0000
0000
0000
0000
,
0000
0000
0000
0000
,
0000
0000
0000
0000
,
0000
0000
0000
0000
,
0010
0000
1000
0001
,
1000
0000
0100
0000
,
0010
0000
0100
0010
,
0001
0000
1000
0000
,
0010
0000
0100
0000
,
0001
0000
1000
0000
,
0010
0000
0100
0100
,
0010
0000
1000
0001
,
2000
0000
3001
0000
,
0002
0000
0013
0000
,
0020
0000
0130
0000
,
0200
0000
1300
0000
,
0000
0001
0001
1000
,
1000
0010
0100
0001
,
0000
1000
0001
1000
,
0010
0010
0100
0100
,
1001
0000
1000
0001
,
0100
0000
0100
0010
,
1000
0000
1000
0001
,
0010
0000
0010
0100
,
1000
0000
1000
0001
,
1000
0000
0010
0100
,
0001
0000
0001
0010
,
0100
1000
1000
1000
,
1000
0001
1000
0001
,
0010
0000
0010
0100
,
0010
0000
0001
0001
,
0001
0000
0100
0010
,
1000
0000
0010
0100
,
0010
0000
1000
0100
,
0010
0000
0001
0100
,
0010
0000
0000
0000
1000
1001
0000
0000
,
0000
0002
0000
0000
0000
0013
0000
0000
,
0000
0200
0000
0000
0000
0310
0000
0000
,
0000
2000
0000
0000
0000
3001
0000
0100
,
0000
0010
0000
1000
0000
0001
0000
0100
,
0000
0000
0000
0100
0000
0010
0000
1000
,
0000
0100
0000
0010
0000
0001
0000
1000
,
0000
0000
0000
1000
0000
0001
0000
0100
,
0000
0010
0000
0010
0000
1000
0000
0000
,
0000
0002
0000
0000
0003
0000
2002
3003
,
0000
0010
0000
1000
,
0000
0100
0000
0010
,
0100
1000
0001
0000
,
0001
0100
0010
0100
,
0001
0100
0000
0010
,
0000
1000
0001
1000
,
0100
1000
0000
0010
,
0000
0000
0000
0100
,
0000
0000
0000
0010
,
0000
1000
0000
0001
,
0000
1000
0000
0100
,
0100
0010
0000
0010
,
0001
0010
0000
0100
,
1000
0001
0000
0100
,
0000
0010
0000
1000
,
0000
1000
0001
0001
,
0010
0010
0100
0100
,
0010
0000
0010
0000
0001
0000
1000
1001
,
0000
0000
0000
0010
0000
0000
0000
1000
,
0000
0000
0000
1100
0000
0000
0000
0010
,
0000
0000
0000
0011
0000
0000
0000
0100
,
0000
0010
0000
0100
0000
0001
0000
1000
,
0000
0100
0000
0010
0000
0000
0000
0100
,
0000
1000
0000
0001
0000
1000
0000
0010
,
0000
0100
0000
0001
0000
0000
0000
1000
,
0000
0001
0000
0010
0000
0000
0000
0100
,
0000
0000
0000
0110
0000
0000
0000
0000
,
0011
0000
1000
0000
,
0101
0000
0010
0000
,
1000
0100
1000
0001
,
0010
0000
0100
0010
,
1000
0010
0100
0001
,
1000
0000
0010
1000
,
0001
0001
0000
0000
;

//---------------dance-single - ----------------
#NOTES:
     dance-single:
     :
     Medium:
     7:
     0.327157,0.395710,0.245626,0.065019,0.000000,317.000000,283.000000,34.000000,9.000000,0.000000,0.000000,0.327157,0.395710,0.245626,0.065019,0.000000,317.000000,283.000000,34.000000,9.000000,0.000000,0.000000:
0000
0000
0000
0000
,
0000
0000
0000
0000
,
0000
0000
0000
0000
,
0000
0000
0000
0000
,
0010
0000
0000
0100
0010
0000
0000
0000
,
1000
0001
0000
0001
1000
0000
0000
0000
,
1000
0000
0000
0100
0010
0000
0001
0000
,
1000
0010
1000
0001
,
0100
0000
0000
0010
0100
0000
0000
0000
,
0001
0010
0000
0010
0001
0000
0000
0000
,
1000
0000
0000
0000
0001
1000
0001
0000
,
0100
0010
1000
0100
,
0110
0000
0000
0010
0001
0000
0001
0000
,
1001
0000
0000
1000
0010
0000
0100
0000
,
1010
0000
0000
1000
0100
0000
0010
0000
,
0100
0001
0000
0001
0100
0000
0010
0000
,
1001
0000
0000
0001
0010
0000
0100
0000
,
1000
0000
0000
0001
1000
0000
0010
0000
,
0100
0000
0000
0010
1000
0000
0001
0000
,
0100
0001
0100
0000
0010
0000
1000
0000
,
0200
0010
0010
0310
,
0002
0000
1000
0000
1000
0000
1000
0003
,
0200
0010
0010
0310
,
2000
0001
0001
3001
,
0020
0000
0001
0000
0100
0000
0001
0030
,
2000
0010
0100
3010
,
0002
0100
1000
0103
,
0020
1000
0100
1030
,
1001
0101
1001
0010
,
1000
0100
1000
0000
0010
0000
0100
0000
,
1001
0010
0110
1000
,
1100
0100
0010
0001
,
1000
0010
1000
0000
0100
0000
0010
0000
,
0110
0000
0001
1000
,
0010
0100
0010
0000
1000
0000
0001
0000
,
0020
0000
0100
0000
1030
0001
0000
0000
,
0000
1010
0000
0000
0000
0100
0000
0000
,
0000
0011
0000
0000
0000
1000
0000
0000
,
0000
0101
0000
0010
0000
1000
0000
0100
,
0000
1000
0000
0010
0000
1000
0001
1000
,
0000
0110
0000
0000
0000
0010
0000
0100
,
0000
0001
0000
0100
0000
1000
0100
0001
,
0000
0011
0000
0000
0000
0100
0000
0010
,
0000
1010
0000
0100
0000
0010
0000
0000
,
0000
1001
0000
0000
0000
0000
1001
0000
,
0000
0010
0000
0110
,
0100
0001
0010
0100
,
0010
0000
0001
0010
0001
0000
0101
0000
,
0000
0010
1000
1001
,
1000
0100
0010
0100
,
1000
0000
0100
1000
0100
1000
0100
0000
,
0010
0001
0000
1001
,
0000
0000
0000
1001
,
0000
0000
0000
1001
,
0000
0000
0010
0010
0010
0000
1000
0000
,
0010
0100
0000
0001
,
1000
0010
0000
1000
,
0100
0010
0000
0010
,
0001
1000
0000
0001
,
0100
0000
0010
1000
0010
0000
0100
0000
,
0001
0000
0100
0001
0100
0000
0010
0100
,
0010
0000
1000
0010
1000
0000
0001
1000
,
0001
0000
1000
0100
1000
0000
0001
0110
,
0000
0000
0000
1001
0000
0000
0000
1100
,
0000
0000
0000
0011
0000
0000
0000
1001
,
0000
0000
0000
0010
0000
0100
0000
0001
,
0000
0100
0000
0010
0000
1000
0000
0100
,
0010
0100
0000
0010
0000
0000
0000
0001
,
0000
0010
0000
0100
0000
1000
0000
0100
,
1000
0010
0000
1000
0000
0001
0000
0100
,
0010
0100
0000
0001
0000
0010
0000
0001
,
0000
0000
0000
0101
0000
0000
0000
0000
,
1010
0000
0100
0000
,
1001
0000
1000
0100
,
0010
0000
0100
0000
0010
0001
0010
0000
,
0100
0001
0100
1000
,
0010
1000
0001
0010
,
0110
0000
0100
0000
0001
0100
0001
0100
,
0001
0010
0000
0000
;
