#TITLE:10 Victorias Secret Models;
#SUBTITLE:(Whethan Remix);
#ARTIST:MAX;
#TITLETRANSLIT:;
#SUBTITLETRANSLIT:;
#ARTISTTRANSLIT:;
#GENRE:;
#CREDIT:;
#BANNER:10 Victorias Secret Models (Whethan Remix).png;
#BACKGROUND:10 Victorias Secret Models (Whethan Remix)-bg.png;
#LYRICSPATH:;
#CDTITLE:;
#MUSIC:10 Victorias Secret Models (Whethan Remix).ogg;
#OFFSET:-0.141489;
#SAMPLESTART:59.704350;
#SAMPLELENGTH:13.241379;
#SELECTABLE:YES;
#BPMS:0.000000=145.000000
,140.000000=36.250000
,141.000000=145.000000
;
#STOPS:
;
#BGCHANGES:;
#KEYSOUNDS:;
#ATTACKS:;

//---------------dance-single - ----------------
#NOTES:
     dance-single:
     :
     Challenge:
     12:
     0.498096,0.559517,0.392643,0.141352,0.157057,444.000000,394.000000,50.000000,18.000000,0.000000,0.000000,0.498096,0.559517,0.392643,0.141352,0.157057,444.000000,394.000000,50.000000,18.000000,0.000000,0.000000:
// measure 0
0000
0000
0000
0000
,  // measure 1
0000
0000
0000
0000
,  // measure 2
0000
0000
0000
0000
,  // measure 3
0000
0000
0000
0000
,  // measure 4
0000
0000
0000
0000
0000
0000
0010
0000
0001
0000
0000
1000
0000
0000
0000
0000
,  // measure 5
0000
0000
0000
0000
0000
0000
1000
0010
1000
0000
0000
0001
0000
0000
0100
0000
,  // measure 6
0100
0000
0000
0000
0000
0000
0001
0010
0001
0000
0000
0010
0000
0000
0001
0000
,  // measure 7
0100
0000
0000
0010
0000
0000
1000
0000
1000
0000
0000
0100
0000
0000
0000
0000
,  // measure 8
0000
0000
0000
0000
0000
0000
0100
1000
0100
0000
0000
0010
0000
0000
0000
0000
,  // measure 9
0000
0000
0000
0000
0000
0000
0010
0000
0001
0000
0000
1000
0000
0000
0010
0000
,  // measure 10
0010
0000
0000
0000
0000
1000
0001
0000
0100
0000
0100
0000
0100
0000
0000
0000
,  // measure 11
0000
0001
0010
0100
1000
0000
1001
0000
,  // measure 12
0120
0000
1000
0130
,  // measure 13
0200
0000
0000
0010
0001
0000
0300
0001
,  // measure 14
0002
0000
0010
1003
,  // measure 15
2000
0000
0000
0100
0010
0000
3001
0000
,  // measure 16
0200
0310
0020
1030
,  // measure 17
2000
0000
3001
0010
0001
0000
0100
0010
,  // measure 18
1000
0001
1000
0100
0010
0000
0100
0000
,  // measure 19
0010
0001
0010
0000
1100
0000
0101
0000
,  // measure 20
1001
1000
1000
1000
,  // measure 21
1000
0100
0010
0000
0100
1000
0001
0000
,  // measure 22
0010
0001
0100
0010
,  // measure 23
1000
0000
0000
0000
0000
0000
0001
0000
0000
1000
0000
0000
0100
0000
0000
0000
0010
0000
0000
0000
0001
0000
0000
0000
,  // measure 24
0100
0010
1000
0001
1000
0000
0010
0000
,  // measure 25
0010
0000
0000
0000
0000
0000
0100
0000
0000
0010
0000
0000
1000
0000
0000
0000
0100
0000
0000
0000
0010
0000
0000
0000
,  // measure 26
0001
0010
0100
0010
0100
0000
1000
0000
,  // measure 27
1000
1010
0101
0011
,  // measure 28
0110
0100
1000
0000
0001
0000
1000
0000
,  // measure 29
0010
1000
0001
0000
1000
0001
0100
0000
,  // measure 30
0010
0000
0010
0000
0010
1000
0001
0000
,  // measure 31
0100
0000
0000
0000
0000
0000
0010
0000
0000
1000
0000
0000
0010
0000
0000
0000
1000
0000
0000
0000
0001
0000
0000
0000
,  // measure 32
0100
0010
0100
0001
1000
0000
0010
0000
,  // measure 33
0010
0000
0000
0000
0000
0000
1000
0000
0000
0100
0000
0000
0010
0000
0000
0000
0100
0000
0000
0000
1000
0000
0000
0000
,  // measure 34
0001
0010
0001
0100
0100
0000
0010
0000
,  // measure 35
1000
0001
1020
0000
0000
0000
1030
0001
,  // measure 36
0201
0000
0300
0001
0001
0010
0110
0000
,  // measure 37
1000
0100
0101
0000
1000
0000
0010
1000
,  // measure 38
0100
0010
0010
0100
0001
0100
1000
0001
,  // measure 39
1000
0012
0000
1003
,  // measure 40
0110
0010
1000
0100
0100
1000
0011
0000
,  // measure 41
0001
0100
0101
0000
0100
0000
0010
1000
,  // measure 42
0010
0100
0100
0001
1000
0001
0010
0100
,  // measure 43
1100
0110
0110
0011
,  // measure 44
1001
0001
0100
0010
1000
1000
1010
0000
,  // measure 45
0010
0100
0101
0000
0010
0000
0001
0010
,  // measure 46
0100
1000
1000
0010
0001
0010
1000
0001
,  // measure 47
1000
0101
1001
1010
,  // measure 48
1000
0100
0010
0100
1000
1000
1100
0000
,  // measure 49
0100
0010
0011
0000
0010
0000
0001
0100
,  // measure 50
0001
0000
0101
0100
0110
0000
1010
0000
,  // measure 51
1100
0000
0000
0110
0000
0010
0000
0100
0000
1100
0000
0000
,  // measure 52
1001
0000
0000
0000
0000
0000
1000
0000
0000
0010
0000
0000
0010
0000
0000
0100
0000
0000
0101
0000
0000
0000
0001
0000
,  // measure 53
0000
0000
0000
0000
0010
0000
0000
0000
0000
0000
0000
0000
0210
0000
0000
0000
0000
0000
0000
0000
0000
0000
0000
0000
0000
0000
0000
0000
1000
0000
0000
0000
0000
0000
0000
0000
0000
0000
0000
2300
0000
0000
0000
0000
0000
0000
0000
0000
,  // measure 54
3020
0000
0000
0000
0000
0000
1030
0000
0000
0001
0000
0000
0001
0000
0000
0100
0000
0000
0101
0000
0000
0000
0001
0000
,  // measure 55
0000
0000
1000
0000
0000
0000
0010
0000
0000
1000
0000
0000
0100
0000
0000
1000
0000
0000
0001
0000
0000
0000
0000
0000
,  // measure 56
0010
0000
0100
0010
0001
0000
0001
0100
,  // measure 57
1000
0000
1000
0100
0010
0000
0010
1000
,  // measure 58
0100
0000
0100
0010
0001
0000
1001
0000
,  // measure 59
0110
2100
0000
3001
,  // measure 60
0011
0000
0010
0100
0100
0100
1001
0000
,  // measure 61
1000
0000
0000
0001
0000
0000
0100
0000
0000
0000
0010
0000
0000
0000
1000
0000
0000
0000
0001
0000
0000
0010
0000
0000
,  // measure 62
0100
0010
0010
0100
1000
0010
1000
0001
,  // measure 63
0100
0010
0010
0100
0002
0000
0013
0100
,  // measure 64
1000
0001
1000
0010
0100
0001
1000
1000
,  // measure 65
0100
0010
0001
1000
0100
0000
0011
0000
,  // measure 66
0010
0001
1000
0010
0100
0010
0110
0000
,  // measure 67
0101
2100
0000
3001
,  // measure 68
0010
0000
0000
0100
0100
0100
0200
0000
,  // measure 69
0300
0000
1000
0000
0000
0000
0000
0001
,  // measure 70
1000
0000
0000
0001
0000
0000
1000
0000
0000
0010
0000
0000
1000
0000
0000
0010
0000
0000
0100
0000
0000
0000
0001
0000
,  // measure 71
0000
0000
0100
0000
0010
0000
0100
0000
0000
0001
0000
0000
0010
0000
0000
0000
0000
0000
0000
0000
0000
0100
0000
0000
,  // measure 72
1000
0000
0000
0010
0000
0000
1000
0000
0000
0000
0100
0000
0000
0000
0010
0000
0001
0000
0010
0000
0000
0000
0100
0000
,  // measure 73
0000
0000
1000
0000
0100
0000
1000
0000
0000
0000
0110
0000
0000
0000
0011
0000
0000
0000
0000
0000
0000
0001
0000
0000
,  // measure 74
0100
0010
0100
0001
1000
0001
0020
0000
,  // measure 75
0130
0000
0000
0000
;
