#TITLE:ViRTUALiZED EVOLVED (Ver 2);
#SUBTITLE:;
#ARTIST:Damox underground;
#TITLETRANSLIT:;
#SUBTITLETRANSLIT:;
#ARTISTTRANSLIT:;
#GENRE:;
#CREDIT:;
#BANNER:ViRTUALiZED EVOLVED (Ver 2).png;
#BACKGROUND:ViRTUALiZED EVOLVED (Ver 2)-bg.png;
#LYRICSPATH:;
#CDTITLE:;
#MUSIC:Virtualized EVOLVED Ver 2.ogg;
#OFFSET:-1.279999;
#SAMPLESTART:1.290000;
#SAMPLELENGTH:15.000002;
#SELECTABLE:YES;
#DISPLAYBPM:186.000000:372.000000;
#BPMS:0.000000=372.000000
,128.000000=186.000000
,160.000000=372.000000
,288.000000=186.000000
,317.000000=200.000000
,345.000000=100.000000
,347.000000=400.000000
,475.000000=200.000000
,503.000000=100.000000
,505.000000=400.000000
,633.000000=200.000000
;
#STOPS:316.000000=0.970000
;
#BGCHANGES:;
#KEYSOUNDS:;
#ATTACKS:;

//---------------dance-single - ----------------
#NOTES:
     dance-single:
     :
     Hard:
     17:
     0.834071,1.117750,0.396489,0.699687,0.000000,751.000000,700.000000,51.000000,90.000000,0.000000,0.000000,0.834071,1.117750,0.396489,0.699687,0.000000,751.000000,700.000000,51.000000,90.000000,0.000000,0.000000:
0000
0000
0000
0000
,
0000
0000
0000
0000
,
0000
0000
0000
0000
,
0000
0000
0000
0000
,
0000
0000
0000
0000
,
0000
0000
0000
0000
,
0000
0000
0000
0000
,
0000
0000
0000
0000
,
1000
0001
0100
0001
,
0010
0100
0010
0001
,
0100
0001
0010
0100
,
1000
0010
0100
0010
,
1000
0010
0100
0001
,
0010
0100
0010
0001
,
1000
0010
0100
0010
,
1000
0100
0010
0001
,
1000
0010
0100
0010
,
1000
0000
0001
0000
0010
0001
0010
0000
,
0001
0100
0010
1000
,
0100
0000
0010
0000
0100
1000
0100
0000
,
1000
0010
0100
0010
,
1000
0000
0001
0000
0010
0001
0010
0000
,
0001
0100
0001
0010
,
0100
0000
0010
0000
0001
0100
0001
0000
,
0100
0010
1000
0010
,
1000
0000
0100
0000
1000
0010
1000
0000
,
0010
0100
0010
1000
,
0010
0100
0001
0100
,
0001
0100
0001
0000
0100
0000
0010
0000
,
1000
0010
1000
0000
0010
0000
0100
0000
,
0001
0010
0001
0000
0010
0000
0100
0000
,
1000
0100
1000
0000
0001
0010
0001
0000
,
2002
0000
0000
0000
,
0000
0000
0000
0000
3003
0000
0000
0010
,
0110
0000
0001
0011
0000
1000
1010
0000
,
0220
0000
0000
0330
,
1000
0001
0010
0000
0100
1000
0001
0000
,
0100
0001
0010
0000
0001
0100
1000
0100
,
0010
0000
0100
0110
0000
0010
0110
0000
,
1010
0011
1100
0101
,
2000
0000
0000
0000
3001
0010
0001
0000
,
0100
0010
0110
0100
,
0020
0000
0000
0000
1030
0100
1000
0000
,
0001
0011
0012
0000
,
2003
0000
0000
0000
3010
0100
0010
0000
,
1000
1000
0011
0011
,
0002
0000
0000
0000
0103
0010
0100
0000
,
0020
1000
2030
0000
,
3002
0000
0000
0000
1003
0100
1000
0000
,
0010
0100
0110
0010
,
0200
0000
0000
0000
0301
0010
0001
0000
,
1000
1100
2100
0000
,
3002
0000
0000
0000
0103
0010
0100
0000
,
0001
0001
1100
1100
,
2000
0000
0000
0000
3010
0100
0010
0000
,
0200
0001
0302
0000
,
1003
0100
1000
0000
0100
0010
0100
0000
,
0010
0001
0010
0000
0001
0100
0001
0000
,
0201
0000
0310
1000
,
1010
0010
0210
0000
,
0301
0010
0001
0000
0010
0100
0010
0000
,
0100
1000
0100
0000
1000
0010
1000
0000
,
1020
0000
0130
0001
,
0011
0010
0210
0000
,
1300
0010
0100
0000
0001
0100
0010
0000
,
1000
0001
0010
0000
0100
1000
0001
0000
,
0201
0000
0310
1000
,
1100
0100
0021
0000
,
0031
0100
0010
0000
1000
0010
0100
0000
,
0010
1000
0100
0000
0010
0000
0011
0000
,
0001
1000
0100
0000
0010
0001
0100
0000
,
0010
0100
0010
0100
0010
0100
0010
0100
,
0020
0000
0000
0000
,
2000
0000
0030
0000
,
0200
0000
3000
0000
,
0002
0000
0300
0000
,
0103
1000
0000
0010
0100
0000
0001
0010
,
1000
0010
0000
0001
0100
0000
0010
1000
,
0010
0001
0010
0100
0001
0011
0100
1100
,
1001
0000
1000
0001
0010
0000
0100
0100
,
0100
0000
1000
0010
0001
0010
0100
0000
,
0110
0000
0001
1000
0100
0000
0010
0010
,
0010
0000
0001
0100
1000
0100
0010
0000
,
0110
0000
0010
1000
0100
0000
1000
1000
,
1000
0000
0010
1000
0100
0010
0001
0000
,
0011
0000
1000
0100
0001
0100
1000
0010
,
0100
0000
0002
0000
2000
3003
1000
0000
,
0100
0001
0100
0010
,
0001
0000
0100
0010
1000
0000
0100
0000
,
0001
0100
0010
0001
,
0100
0000
0010
1000
0001
1000
0010
0000
,
0100
0010
1000
0010
,
0100
0000
0001
1000
0100
0000
0010
0000
,
1000
0010
0001
0100
,
0010
0000
1000
0001
0100
0001
1000
0000
,
0010
1000
0100
0010
,
0100
0000
1000
0001
0100
0000
0010
0000
,
0001
0010
1000
0100
,
0010
0000
0001
1000
0100
0000
0010
0000
,
0100
0110
0010
0001
,
0100
0000
0110
0000
0010
0000
1000
0010
,
0100
0000
0001
1000
0100
0000
0010
0001
,
0010
0001
0100
0010
0100
0010
1000
0000
,
0001
0100
0001
0000
0100
0000
0010
0100
,
0010
0000
0100
0010
0100
0000
0020
0000
,
2030
3200
0320
0032
,
0203
0020
0330
1000
,
0010
1000
0010
0000
1000
0000
0100
0010
,
0100
0000
0010
0100
0010
0000
0200
0000
,
2300
3020
0230
0302
,
0023
0200
0330
1000
,
0001
0100
0001
0000
1000
0000
0010
1000
,
0010
0000
1000
0001
1000
0000
0002
0000
,
0203
0320
2030
3002
,
2003
0002
3003
1000
,
0001
0101
0100
0010
,
1000
0000
1010
0000
0010
0000
1000
0010
,
0100
0000
0010
1000
0001
0000
0010
0001
,
0010
0100
1000
0100
1000
0001
1000
0010
,
0000
0010
0100
0000
0110
0000
0010
1000
,
0000
1000
0100
0000
0110
0000
0010
0001
,
0000
0001
1000
0000
1001
0000
1000
0001
,
0000
0001
0100
0000
0110
0000
0010
1000
,
0100
0001
0100
0010
0001
0100
1000
0100
,
0010
0100
0010
0000
1001
0000
0020
0000
,
0000
0200
0330
2000
,
0002
3003
0001
0000
1000
0010
1000
0000
,
0010
0000
0100
0010
0100
0000
0010
0100
,
0010
0200
0302
0023
,
0230
2300
3020
0200
,
0330
0000
0001
0000
0100
0001
0100
0000
,
0001
0000
0010
0100
0010
0000
0100
0010
,
0100
0020
0032
0203
,
0320
2030
3200
0020
,
0330
0000
0001
0000
1000
0010
1000
0000
,
0001
0000
0100
0001
0100
0000
0001
1000
,
0001
2000
3020
0230
,
0302
2003
3002
2000
,
3003
0001
1000
1010
,
0010
0100
0001
0101
,
0100
0000
0001
0100
0010
0000
0100
0001
,
1000
0000
0100
1000
0100
0010
0001
0010
,
0001
1000
0100
0000
0010
0001
1000
0000
,
0010
0000
0100
0001
0010
0000
0100
1000
,
0100
2000
3020
0032
,
0023
2030
0001
0020
,
3030
0000
0001
0000
1000
0001
0010
0000
,
0100
0000
0010
0001
1000
0000
0010
0100
,
0010
0200
0302
0023
,
2030
3020
0001
0200
,
0330
0000
1100
0000
1000
0010
0100
0000
,
0001
0000
0010
0001
0100
0000
0010
0000
,
1000
0011
0010
0001
,
0100
0010
1000
0100
,
0010
0000
0001
1000
0001
1000
0001
1000
,
0001
0100
0001
0100
0001
0100
0001
0100
,
0010
1000
0010
1000
0010
1000
0100
0010
,
0001
0010
0100
1000
0010
0100
0001
0010
,
0100
1000
2002
0000
0000
0000
0000
0000
,
0000
0000
0000
3003
;

//---------------dance-single - ----------------
#NOTES:
     dance-single:
     :
     Medium:
     14:
     0.639714,0.995110,0.202132,0.699687,0.000000,576.000000,550.000000,26.000000,90.000000,0.000000,0.000000,0.639714,0.995110,0.202132,0.699687,0.000000,576.000000,550.000000,26.000000,90.000000,0.000000,0.000000:
0000
0000
0000
0000
,
0000
0000
0000
0000
,
0000
0000
0000
0000
,
0000
0000
0000
0000
,
0000
0000
0000
0000
,
0000
0000
0000
0000
,
0000
0000
0000
0000
,
0000
0000
0000
0000
,
1000
0100
0010
0100
,
0000
0010
0001
0000
,
0001
0010
0100
0010
,
0000
0100
1000
0000
,
0010
1000
0010
0001
,
0000
0001
0010
1000
,
0020
0000
0230
0000
,
0301
0000
2002
3003
,
0100
0000
0100
0010
,
0000
1000
0001
0010
,
0100
0000
0100
0010
,
0000
0001
1000
0100
,
0010
0000
0010
0100
,
0000
0010
0001
0100
,
0010
0000
0010
1000
,
0000
0100
0010
0001
,
0010
0000
0010
0001
,
0000
1000
0100
0010
,
0001
0100
0010
0000
,
0010
1000
0100
0000
,
0100
1000
0100
0010
,
0001
0010
0001
0100
,
0001
1000
0001
0000
1000
0001
1000
0000
,
0001
1000
0001
0000
1000
0001
1000
0000
,
2002
0000
0000
0000
,
3003
0000
0000
0000
0000
0000
0000
0010
,
0010
0000
0100
0100
0000
0010
0010
0000
,
2002
0000
0000
3003
,
1000
0100
0001
0100
0000
0100
1000
0000
,
0001
0010
1000
0010
0000
0010
0001
1000
,
0100
0000
0010
0100
0000
0100
0010
0000
,
1100
0011
1010
1001
,
2000
0000
3010
0100
,
0001
0010
0100
1000
,
0200
0000
0310
0001
,
1000
0100
0020
0000
,
0032
0000
0013
0100
,
1000
0100
0001
0100
,
2000
0000
3001
2000
,
0002
0000
3003
0000
,
0002
0000
0103
0010
,
1000
0100
0010
0001
,
0020
0000
0130
1000
,
0001
0010
0200
0000
,
2300
0000
3100
0010
,
0001
0010
1000
0010
,
0002
0000
1003
0002
,
2000
0000
3003
0000
,
0020
0000
2030
0000
,
3002
0000
0023
0230
,
0320
0000
0031
0100
,
0010
1000
2002
3003
,
0002
0000
0203
0000
,
0320
0000
2030
3020
,
0230
0000
0310
1000
,
0001
0010
2002
3003
,
0200
0000
0302
0000
,
0023
0000
0230
2300
,
3200
0000
0310
0001
,
0100
0010
2002
3003
,
0010
0001
0100
0001
,
0010
0100
1000
0010
,
1000
0001
1000
0000
0001
1000
0001
0000
,
1000
0001
1000
0000
0001
1000
0001
0000
,
2000
0000
0000
0000
,
3002
0000
0000
0000
,
2003
0000
0000
0000
,
3002
0000
0000
0000
,
1003
0010
0000
0010
1000
0000
0001
0010
,
0001
0010
0000
0010
0001
0000
0100
0010
,
0100
0001
0100
1000
0100
0010
0100
0001
,
1001
1001
0010
0010
,
0010
0010
0010
0010
,
0010
0001
1000
0000
0100
0000
0100
0000
,
0100
0100
0100
0100
,
0100
1000
0010
0100
0001
0000
0001
0100
,
0001
0000
1000
0100
1000
0000
0010
0100
,
0010
0000
0100
0010
1000
0001
0100
0010
,
0100
0000
0002
0000
2000
3003
1000
0000
,
0100
0010
0001
0100
,
0010
0100
0001
0010
,
0100
1000
0010
0001
,
0010
1000
0000
0001
,
0100
0010
1000
0100
,
0010
0100
1000
0010
,
0100
0001
0100
1000
,
0100
0001
0000
1000
,
0100
1000
0010
0100
,
0001
1000
0010
0100
,
0010
1000
0100
0001
,
0100
1000
0000
0001
,
0100
0010
0100
0010
,
1000
0000
0001
0000
1000
0000
0001
1000
,
0001
0000
1000
0001
1000
0000
0001
1000
,
0001
0000
1000
0001
1000
0000
0010
0000
,
0100
0100
0010
0100
,
0100
0010
0100
0102
,
0000
2000
3000
0020
,
0030
2000
3003
0010
,
0100
0100
0010
0100
,
0100
0010
0100
2100
,
0000
0020
0030
0002
,
0003
0200
3300
0010
,
0100
0100
0010
0100
,
0100
0010
0100
0102
,
0000
0020
0030
0200
,
0300
2000
3003
1000
,
0010
0100
0010
1000
,
0001
0000
0010
0000
0100
0000
1000
0001
,
1000
0000
0001
1000
0001
0000
1000
0001
,
1000
0000
0001
1000
0001
0000
1000
0100
,
0000
0100
1000
0000
0110
0000
0100
0001
,
0000
0001
0010
0000
0101
0000
0100
0001
,
0000
0001
0010
0000
0110
0000
1000
0010
,
0000
0010
1000
0000
1100
0000
1000
0100
,
0001
0000
0001
0100
1000
0000
1000
0010
,
0001
0010
1000
0000
0110
0000
0020
0000
,
0000
0200
0330
2000
,
0002
3003
1000
0000
0100
0000
0100
0000
,
0010
0100
0100
1000
,
0010
0201
0000
0020
,
0030
2000
3000
0020
,
0330
0001
0010
0010
,
0100
0010
0010
0001
,
1000
1020
0000
0200
,
0300
0002
0003
0200
,
0330
0010
1000
1000
,
0100
0010
0010
0100
,
1000
0021
0000
0200
,
0300
2000
3000
0200
,
0330
0010
0001
0100
,
0010
1000
0100
0010
,
0001
0000
1000
0001
1000
0000
0001
1000
,
0001
0000
1000
0001
1000
0000
0001
1000
,
0001
1000
0100
0001
,
1000
0010
0001
0100
,
0010
1020
0000
0002
,
0003
0200
0300
2000
,
3030
0001
0010
1000
,
0001
0100
1000
0010
,
0100
1020
0000
0002
,
0003
0200
0300
2000
,
3030
0010
1000
1000
,
0100
0010
0010
0001
,
0100
1000
0100
0001
,
0100
0010
0100
0001
,
0010
0000
0100
0010
0100
0000
0010
0000
,
0001
0000
0100
0001
0100
0000
0010
0000
,
1000
0000
0001
1000
0001
0000
0100
0010
,
0100
0000
0010
0100
0010
0100
0010
0000
,
0100
2002
0000
0000
,
0000
0000
0000
0000
,
3003
0000
0000
0000
;

//---------------dance-single - ----------------
#NOTES:
     dance-single:
     :
     Easy:
     11:
     0.420923,0.746332,0.303198,0.272100,0.000000,379.000000,340.000000,39.000000,35.000000,0.000000,0.000000,0.420923,0.746332,0.303198,0.272100,0.000000,379.000000,340.000000,39.000000,35.000000,0.000000,0.000000:
0000
0000
0000
0000
,
0000
0000
0000
0000
,
0000
0000
0000
0000
,
0000
0000
0000
0000
,
0000
0000
0000
0000
,
0000
0000
0000
0000
,
0000
0000
0000
0000
,
0000
0000
0000
0000
,
1000
0000
0100
0000
,
1000
0000
0001
0000
,
0010
0000
0001
0000
,
0100
0000
0001
0000
,
1000
0000
0010
0000
,
1000
0000
0001
0000
,
0100
0000
0100
0000
,
1001
0000
0000
0000
,
0010
0000
0000
0010
,
0000
0000
1001
0000
,
0100
0000
0000
0100
,
0000
0000
1001
0000
,
1000
0000
0000
1000
,
0000
0000
1100
0000
,
0001
0000
0000
0001
,
0000
0000
0011
0000
,
0001
0000
0000
1000
,
0000
0000
1001
0000
,
0010
0000
1000
0000
,
0100
0000
0010
0000
,
0001
0000
0100
0000
,
0001
0000
1000
0000
,
0010
0100
0010
0000
,
0100
0010
0100
0000
,
2002
0000
0000
0000
,
3003
0000
0000
0000
,
1000
0000
0000
0001
0000
0000
1000
0000
,
1001
0000
0000
0000
,
1001
0100
0100
0100
,
1001
0010
0010
0010
,
0011
0000
0000
1000
0000
0000
1010
0000
,
0010
0010
0100
1001
,
1000
0000
0001
0000
,
0100
0000
0001
0000
,
1000
0000
0010
0000
,
1000
0000
0100
0000
,
1000
0000
0010
0000
,
0100
0000
0001
0000
,
0100
0000
0100
0000
,
1001
0000
0000
0000
,
0001
0000
1000
0000
,
0010
0000
1000
0000
,
0100
0000
0010
0000
,
0100
0000
1000
0000
,
0010
0000
0100
0000
,
0001
0000
1000
0000
,
0010
0000
0010
0000
,
1001
0000
0000
0000
,
1000
0000
1000
0000
,
0001
0000
0001
0000
,
1001
0000
0100
0000
,
1001
0000
0000
0000
,
0001
0000
0001
0000
,
1000
0000
1000
0000
,
1001
0000
0010
0000
,
1001
0000
0000
0000
,
0100
0000
0100
0000
,
0010
0000
0010
0000
,
1010
0000
0100
0000
,
0101
0000
0000
0000
,
0001
0000
0010
0000
,
0001
0000
1000
0000
,
0010
0100
0010
0000
,
0100
0010
0100
0000
,
2001
0000
0000
0000
,
3002
0000
0000
0000
,
2003
0000
0000
0000
,
3002
0000
0000
0000
,
1003
0000
0000
1000
0000
0000
1100
0000
,
0001
0000
0000
0001
0000
0000
0011
0000
,
0010
0010
0100
0110
,
1001
1000
0001
2000
,
0001
3001
1000
0002
,
1000
0103
0010
0200
,
0010
0310
0100
0010
,
0001
1000
1000
0001
,
0001
1000
0001
1000
,
0001
0100
0100
0010
,
0110
2002
3003
0010
,
0000
0010
0000
0010
,
0000
0010
0000
1000
,
0000
1000
0000
1000
,
0000
1000
0000
0001
,
0000
0001
0000
0001
,
0000
0001
0000
0100
,
0000
0100
0000
0100
,
0000
0100
0000
0001
,
0000
0001
0000
0001
,
0000
0001
0000
0010
,
0000
0010
0000
0010
,
0000
0010
0000
0100
,
0000
0110
0000
0010
,
0000
1001
0000
1000
,
0001
1000
0000
0001
,
1000
0001
0000
0000
,
0100
0001
0000
0100
,
0001
0100
0000
0010
,
0000
0200
0000
0010
,
0000
0310
0000
0000
,
0100
1000
0000
0100
,
1000
0100
0000
0010
,
0000
0200
0000
0010
,
0000
0310
0000
0000
,
0100
0001
0000
0100
,
0001
0100
0000
0010
,
0000
0200
0000
0010
,
0000
0310
0000
1000
,
0000
1100
0000
0001
,
0000
0101
0000
0100
,
0010
0100
0000
0010
,
0100
0010
0000
2000
,
0000
3020
0000
0230
,
0000
0302
0000
1003
,
1000
0010
0010
0100
,
0100
0001
0001
0010
,
0100
0010
0100
1000
,
0001
1000
0001
0220
,
0000
0000
0330
2002
,
3003
1000
0001
0100
,
0000
0010
0100
0010
,
0000
0200
0000
0302
,
0000
0100
0000
0103
,
0000
0000
0010
0100
,
0000
1000
0100
1000
,
0000
0200
0000
2300
,
0000
0010
0000
3010
,
0000
0000
0100
0001
,
0000
0010
0001
0010
,
0000
0200
0000
2300
,
0000
0010
0000
3010
,
0000
1000
0000
1001
,
0000
0001
0000
0011
,
0000
0010
0100
0010
,
0000
0100
1000
0100
,
0000
0000
1000
0001
,
0000
0100
0010
2000
,
0000
3020
0000
0032
,
0000
0010
0000
0013
,
0000
0000
1000
0100
,
0000
0010
0100
1000
,
0000
0200
0000
0302
,
0000
0100
0000
0103
,
0000
0010
0000
1001
,
0000
0100
0000
0100
,
0000
0010
0000
1001
,
0000
0100
0000
0100
,
0000
1000
0001
1000
,
0000
0100
0010
0100
,
0000
1000
0001
1000
,
0001
1000
0001
1000
,
0000
2002
0000
0000
,
0000
0000
0000
0000
,
3003
0000
0000
0000
;

//---------------dance-single - ----------------
#NOTES:
     dance-single:
     :
     Beginner:
     7:
     0.288760,0.683069,0.155486,0.116614,0.000000,260.000000,240.000000,20.000000,15.000000,0.000000,0.000000,0.288760,0.683069,0.155486,0.116614,0.000000,260.000000,240.000000,20.000000,15.000000,0.000000,0.000000:
// measure 0
0000
0000
0000
0000
,  // measure 1
0000
0000
0000
0000
,  // measure 2
0000
0000
0000
0000
,  // measure 3
0000
0000
0000
0000
,  // measure 4
0000
0000
0000
0000
,  // measure 5
0000
0000
0000
0000
,  // measure 6
0000
0000
0000
0000
,  // measure 7
0000
0000
0000
0000
,  // measure 8
1000
0000
0000
0000
,  // measure 9
0001
0000
0000
0000
,  // measure 10
1000
0000
0000
0000
,  // measure 11
0001
0000
0000
0000
,  // measure 12
0100
0000
0000
0000
,  // measure 13
0010
0000
0000
0000
,  // measure 14
0100
0000
0010
0000
,  // measure 15
0100
0000
0000
0000
,  // measure 16
1000
0000
0000
0000
,  // measure 17
0100
0000
0000
0000
,  // measure 18
1000
0000
0000
0000
,  // measure 19
0010
0000
0000
0000
,  // measure 20
0100
0000
0000
0000
,  // measure 21
0001
0000
0000
0000
,  // measure 22
0010
0000
0100
0000
,  // measure 23
0010
0000
0000
0000
,  // measure 24
0100
0000
0000
0000
,  // measure 25
0010
0000
0000
0000
,  // measure 26
0100
0000
0000
0000
,  // measure 27
0001
0000
0000
0000
,  // measure 28
0100
0000
0000
0000
,  // measure 29
0100
0000
0000
0000
,  // measure 30
0100
0000
0010
0000
,  // measure 31
0100
0000
0010
0000
,  // measure 32
0200
0000
0000
0000
,  // measure 33
0300
0000
0000
0000
,  // measure 34
0010
0000
0010
0010
,  // measure 35
1001
0000
0000
0000
,  // measure 36
1000
0000
0001
0000
,  // measure 37
0100
0100
0010
0000
,  // measure 38
0010
0000
0010
0010
,  // measure 39
1001
0000
0110
0000
,  // measure 40
1000
0000
0000
0000
,  // measure 41
0100
0000
0000
0000
,  // measure 42
1000
0000
0010
0000
,  // measure 43
0100
0000
0001
0000
,  // measure 44
0100
0000
0000
0000
,  // measure 45
0001
0000
0000
0000
,  // measure 46
0010
0000
0001
0000
,  // measure 47
1001
0000
0000
0000
,  // measure 48
0001
0000
0000
0000
,  // measure 49
0010
0000
0000
0000
,  // measure 50
0001
0000
0010
0000
,  // measure 51
0100
0000
1000
0000
,  // measure 52
0010
0000
0000
0000
,  // measure 53
1000
0000
0000
0000
,  // measure 54
0100
0000
1000
0000
,  // measure 55
1001
0000
0000
0000
,  // measure 56
1000
0000
1000
0000
,  // measure 57
1000
0000
0000
0000
,  // measure 58
1001
0000
0001
0000
,  // measure 59
0110
0000
0000
0000
,  // measure 60
0001
0000
0001
0000
,  // measure 61
0001
0000
0000
0000
,  // measure 62
0110
0000
0100
0000
,  // measure 63
1001
0000
0000
0000
,  // measure 64
1000
0000
0100
0000
,  // measure 65
1000
0000
0000
0000
,  // measure 66
1001
0000
0100
0000
,  // measure 67
0110
0000
0000
0000
,  // measure 68
0010
0000
0100
0000
,  // measure 69
0010
0000
0000
0000
,  // measure 70
0010
0000
0100
0000
,  // measure 71
0010
0000
0100
0000
,  // measure 72
0020
0000
0000
0000
,  // measure 73
0030
0000
0000
0000
,  // measure 74
0020
0000
0000
0000
,  // measure 75
0030
0000
0000
0000
,  // measure 76
0100
0000
0100
0100
,  // measure 77
0010
0000
0100
0100
,  // measure 78
0010
0000
1001
1001
,  // measure 79
1001
1000
1000
1000
,  // measure 80
0000
0001
0001
0001
,  // measure 81
0000
1000
1000
1000
,  // measure 82
0000
0001
0001
0001
,  // measure 83
0000
0100
0100
0010
,  // measure 84
0000
0100
0100
0010
,  // measure 85
0000
0100
0010
0100
,  // measure 86
0010
2002
3003
1000
,  // measure 87
0000
0000
0000
0001
,  // measure 88
0000
0000
0000
0100
,  // measure 89
0000
0010
0000
0100
,  // measure 90
0000
0000
0000
0001
,  // measure 91
0000
0000
0000
1000
,  // measure 92
0000
0000
0000
0010
,  // measure 93
0000
0100
0000
0010
,  // measure 94
0000
0000
0000
1000
,  // measure 95
0000
0000
0000
0100
,  // measure 96
0000
0000
0000
0010
,  // measure 97
0000
0100
0000
0010
,  // measure 98
0000
0000
0000
0001
,  // measure 99
0000
1000
0000
0001
,  // measure 100
0000
0000
0000
0100
,  // measure 101
0000
0010
0000
0100
,  // measure 102
0000
0000
0000
0001
,  // measure 103
0000
0001
0000
0001
,  // measure 104
0000
0001
0000
0001
,  // measure 105
0000
0100
0000
0001
,  // measure 106
0000
0000
0000
1000
,  // measure 107
0000
1000
0000
1000
,  // measure 108
0000
1000
0000
1000
,  // measure 109
0000
0100
0000
1000
,  // measure 110
0000
0000
0000
0010
,  // measure 111
0000
0010
0000
0010
,  // measure 112
0000
0010
0000
0010
,  // measure 113
0000
0100
0000
0010
,  // measure 114
0000
0000
0000
0100
,  // measure 115
0000
0100
0000
0100
,  // measure 116
0000
0100
0000
0100
,  // measure 117
0000
0010
0000
0100
,  // measure 118
0000
0000
0000
2000
,  // measure 119
0000
0000
0000
3002
,  // measure 120
0000
0000
0000
2003
,  // measure 121
0000
0000
0000
3002
,  // measure 122
0000
0000
0000
1003
,  // measure 123
1000
0100
0000
0001
,  // measure 124
0001
0100
0100
0220
,  // measure 125
0000
0000
0330
2002
,  // measure 126
3003
1000
0000
1000
,  // measure 127
0000
1000
0000
0100
,  // measure 128
0000
1000
0000
0100
,  // measure 129
0000
1000
0000
0000
,  // measure 130
0000
0001
0000
0001
,  // measure 131
0000
0001
0000
0100
,  // measure 132
0000
0001
0000
0100
,  // measure 133
0000
0001
0000
0000
,  // measure 134
0000
0100
0000
0100
,  // measure 135
0000
0100
0000
0100
,  // measure 136
0000
0010
0000
0100
,  // measure 137
0000
0010
0000
0000
,  // measure 138
0000
1000
0000
0001
,  // measure 139
0000
1000
0000
0000
,  // measure 140
0000
0010
0000
0100
,  // measure 141
0000
0010
0000
0000
,  // measure 142
0000
0100
0000
0001
,  // measure 143
0000
0100
0000
0001
,  // measure 144
0000
0100
0000
0100
,  // measure 145
0000
0010
0000
0000
,  // measure 146
0000
0010
0000
1000
,  // measure 147
0000
0010
0000
1000
,  // measure 148
0000
0010
0000
0010
,  // measure 149
0000
1000
0000
0000
,  // measure 150
0000
0100
0000
0000
,  // measure 151
0000
1001
0000
0000
,  // measure 152
0000
0010
0000
0000
,  // measure 153
0000
1001
0000
0000
,  // measure 154
0000
1000
0000
0001
,  // measure 155
0000
1000
0000
0010
,  // measure 156
0000
0100
0000
0010
,  // measure 157
0000
0100
0000
0000
,  // measure 158
0000
2002
0000
0000
,  // measure 159
0000
0000
0000
3003
;
