#TITLE:STEEL ANDROiD;
#SUBTITLE:;
#ARTIST:iNFECTiON;
#TITLETRANSLIT:;
#SUBTITLETRANSLIT:;
#ARTISTTRANSLIT:;
#GENRE:;
#CREDIT:;
#MUSIC:STEEL ANDROiD.ogg;
#BANNER:STEEL ANDROiD.png;
#BACKGROUND:STEEL ANDROiD-bg.png;
#CDTITLE:;
#SAMPLESTART:51.364;
#SAMPLELENGTH:15.006;
#SELECTABLE:YES;
#OFFSET:-1.090;
#BPMS:0.000=70.000
,32.000=210.000
,48.000=420.000
,168.000=105.000
,170.000=210.000
,234.000=105.000
,266.000=210.000
,298.000=840.000
,330.000=210.000
,338.000=420.000
;
#STOPS:;
#BGCHANGES:;
#FGCHANGES:;

//--------------- dance-single - ----------------
#NOTES:
     dance-single:
     :
     Beginner:
     11:
     0.358748,0.657388,0.290052,0.419812,0,329,291,38,55,0,0,0.358748,0.657388,0.290052,0.419812,0,329,291,38,55,0,0:
0000
0000
0000
0000
,
0000
0000
0000
0000
,
1000
0000
1000
0000
,
0001
0000
0001
0000
,
1100
0000
0100
0000
,
0011
0000
0001
0000
,
0101
0000
0100
0000
,
1010
0000
0010
0000
,
2002
0000
0000
0000
,
3003
0000
0000
0000
,
1010
0000
0101
0000
,
1000
0000
0001
0000
1000
0001
1000
0001
,
2000
0000
0000
3020
,
0000
0000
2030
0000
,
3002
0000
0023
0000
,
0230
0000
2300
0000
,
3002
0000
0000
0023
,
0000
0000
0230
0000
,
0320
0000
0032
0000
,
2000
0000
3003
0000
,
0002
0000
0000
0203
,
0000
0000
0320
0000
,
2030
0000
3200
0000
,
0320
0000
0032
0000
,
0203
0000
0000
0320
,
0000
0000
2030
0000
,
3200
0000
2300
0000
,
0002
0000
3003
0000
,
1000
0000
0100
0000
,
0010
0000
0001
0000
,
0100
0000
0010
0000
,
1000
0001
1000
0000
,
0001
0000
0010
0000
,
0100
0000
0010
0000
,
0001
0000
1000
0000
,
0001
1000
0001
0000
,
1000
0000
1000
0000
,
0100
0000
0100
0000
,
0010
0000
0010
0000
,
0001
0000
0001
0000
,
1000
0001
1000
0001
,
1000
0001
1000
0000
,
1000
0001
1001
0000
1000
0000
0001
0000
,
0100
0010
1000
1100
,
0001
0101
0001
0010
,
0100
1000
0001
0011
,
1000
1010
0010
1000
,
0100
0010
0001
0101
,
1000
1010
0010
1000
,
0100
0010
0001
0101
,
1000
1010
0010
1000
,
0100
0010
0001
0011
,
0100
1100
0010
0001
,
0100
0010
1000
1010
,
0001
0101
0001
0001
,
0100
0100
0010
0010
,
1000
1000
0010
0010
,
0010
0000
0010
0000
1000
0001
1000
0001
,
1000
1001
2000
0000
,
0010
0000
3002
0023
,
0230
0000
2300
0000
3001
0010
0100
1000
,
0001
0010
0100
1000
0002
0000
0203
0000
,
0320
2030
3002
0000
,
0100
0000
2003
3020
,
0230
0000
0302
0000
1003
0100
0010
0001
,
1000
0100
0010
0001
2000
0000
3200
0000
,
0320
0032
1003
1000
,
0001
0001
1001
0000
,
1001
0000
0001
0001
,
1000
1000
1001
0000
,
1001
0000
0100
0100
,
0010
0010
0110
0000
,
1010
0000
0010
0010
,
0100
0100
0101
0000
,
1001
0000
2002
0000
,
0000
0000
0000
0000
,
0000
0000
0000
0000
,
0000
0000
0000
0000
,
0000
0000
3003
0000
,
0000
0000
0000
0000
,
0000
0000
0000
0000
,
0000
0000
0000
0000
,
0000
0000
0002
0000
,
0000
0000
1000
0000
,
1000
1000
1003
0000
,
0100
0000
0010
0000
,
0001
0000
0010
0000
,
0100
0000
0010
0000
,
0001
0000
1000
0000
,
0010
0000
0100
0000
,
0010
0000
1000
0000
,
0100
0000
0010
0000
,
0001
0000
0100
0000
,
0010
0000
1000
0000
,
0100
0000
0010
0000
,
0001
0000
1000
0000
,
0100
0000
1000
0000
,
1100
0000
0001
0000
,
0101
0000
0002
0000
,
0000
0000
2003
0000
,
0000
0000
3001
0000
,
0010
0000
0001
0000
,
0100
0000
0010
0000
,
1000
0000
0100
0000
,
1000
0000
0010
0000
,
0100
0000
0001
0000
,
0010
0000
0100
0000
,
0010
0000
0001
0000
,
1000
0000
0001
0000
,
0001
0000
0100
0000
,
0100
0000
0010
0000
,
0010
0000
1000
0000
,
1000
0000
0001
0010
,
0001
0000
1000
0100
,
1000
0000
0002
0000
,
0000
0000
2003
0000
,
0000
0000
3001
0000
,
0000
0110
0000
0000
,
1001
0000
1000
0000
,
0010
0000
0100
0000
,
0001
0000
1001
0000
,
0000
0110
0000
0000
,
1001
0000
0001
0000
,
0010
0000
0100
0000
,
1000
0000
2002
0000
,
0000
0000
0000
0000
,
0000
0000
0000
0000
,
0000
0000
0000
0000
,
0000
0000
0000
0000
,
0000
0000
0000
0000
,
0000
0000
0000
0000
,
0000
0000
0000
0000
,
0000
0000
3003
0000
;

//--------------- dance-single - ----------------
#NOTES:
     dance-single:
     :
     Easy:
     14:
     0.54521,0.859661,0.358748,0.587737,0.083962,500,453,47,77,0,0,0.54521,0.859661,0.358748,0.587737,0.083962,500,453,47,77,0,0:
0000
0000
0000
0000
,
0000
0000
0000
0000
,
0020
0000
0000
0000
1030
0000
0001
1000
0020
0000
0130
0000
0020
0000
0130
0000
,
0002
0000
0000
0000
1003
0000
0001
0100
0020
0000
1030
0000
0200
0000
0310
0000
,
0002
0000
0000
0000
1003
0000
0010
0100
0002
0000
0000
0000
2003
0000
0000
0000
,
3020
0000
0000
0000
1030
0000
0010
0100
0002
0000
0000
0000
0203
0000
0000
0000
,
0320
0000
0000
0000
1030
0000
0010
1000
0200
0000
0000
0000
0320
0000
0000
0000
,
0032
0000
0000
0000
0103
0000
0010
1000
0200
0000
0000
0000
2300
0000
0000
0000
,
0002
0000
0000
0000
,
3003
0000
0000
0000
,
1010
0000
0011
0000
,
0101
0000
1100
0000
1000
0001
1000
0001
,
2000
0000
3001
0020
,
0000
0130
2000
0000
,
3020
0000
1030
0002
,
2000
3003
0220
0330
,
0020
0000
1030
0200
,
0000
0310
0002
0000
,
2003
0000
3001
0000
,
2002
0000
3003
0000
,
0002
0000
0013
0200
,
0000
0310
0002
0000
,
0203
0000
0310
2000
,
0002
3003
0220
0330
,
0020
0000
1030
0200
,
0000
0310
0002
0000
,
0203
0000
0310
0000
,
2002
0000
3003
0000
,
1000
0010
0100
0000
,
0010
1000
0100
0000
,
0010
0001
0100
0000
,
0001
0100
0010
0000
,
0100
0001
0010
0000
,
0100
0010
0001
0000
,
1000
0010
0100
0000
,
0010
1000
0100
0000
,
1000
0001
1000
0001
,
1000
0001
1000
0000
,
0010
0100
0010
0100
,
0010
0100
0010
0000
,
1000
0100
0010
0001
,
1000
0100
0010
0001
,
1000
0001
1001
0000
1000
0000
0010
1000
,
0100
0010
0001
0000
0101
0000
0100
0000
,
0110
0000
0010
0000
1010
0000
1000
0100
,
0010
0001
0100
0000
0110
0000
0010
0000
,
1010
0000
1000
0000
1001
0000
0001
0010
,
0100
0010
0001
0000
0101
0000
0100
0000
,
0110
0000
0010
0000
1010
0000
0010
1000
,
0100
0010
0001
0000
0101
0000
0001
0000
,
0011
0000
0010
0000
0110
0000
0100
1000
,
0010
0100
0001
0000
0101
0000
0001
0000
,
0011
0000
0010
0000
0110
0000
0010
0001
,
0100
0010
1000
0000
1100
0000
0100
0000
,
0110
0000
0010
0000
0010
0001
0100
0000
,
0010
1000
0100
0000
1000
0000
1000
0000
,
0001
0000
0001
0000
1000
0010
0100
0001
,
1000
0010
0100
0001
1000
0000
1001
0000
,
0001
0000
0010
0000
0100
0000
1000
0000
0001
0000
0000
0100
0000
0000
0010
0000
,
1000
0000
0100
0000
0010
0000
0001
0000
1000
0000
0000
0010
0000
0000
0100
0000
,
0001
0010
0100
1000
0002
0100
0203
0010
,
0320
1000
2030
0001
3001
0000
1001
0000
,
1000
0000
0000
0000
1001
0000
0000
0000
1000
0000
0000
0010
0000
0000
0100
0000
,
0001
0000
0010
0000
0100
0000
0010
0000
0001
0000
0000
0100
0000
0000
0010
0000
,
1000
0100
0010
0100
2000
0010
3020
0100
,
0230
0001
0302
1000
1003
0000
1001
0000
,
0001
1001
1000
0010
,
0100
0000
0000
0001
0000
0000
1000
0000
0010
0000
0100
0000
,
0001
1001
0001
0010
,
0100
0000
0000
1000
0000
0000
0001
0100
0010
1000
0000
0000
,
0001
0100
0010
1000
0000
0000
0001
0000
0000
0010
0000
0000
,
0100
0000
0000
0010
0000
0000
0001
0000
0100
0000
0010
0000
,
1000
0010
0100
0001
1000
0000
0100
0000
,
0010
0000
0000
0000
0000
0000
0001
0000
0000
0000
0000
0000
1000
0000
0100
0000
0010
0000
0001
0000
0000
1000
0000
0000
,
0001
0010
0100
1000
0000
0000
2002
0000
0000
0000
0000
0000
,
0000
0000
0000
0000
,
0000
0000
0003
0000
,
0000
0000
0000
0000
,
0000
0000
3020
0000
,
0000
0000
0000
0000
,
0000
0000
2030
0000
,
0000
0000
3002
0000
,
0203
0000
0000
0000
0301
0010
0100
0000
,
1001
0000
1001
0000
1000
0100
0010
0000
,
1001
1001
0001
1000
,
0010
0000
1000
0100
,
0010
0000
0001
0100
,
0010
0000
0100
0001
,
1000
0000
0100
0010
,
0001
0000
0100
0001
,
1000
0000
0010
1000
,
0001
0000
0100
0010
,
1000
0000
0100
0010
,
0001
0000
0100
0001
,
0010
0000
0100
1000
,
0010
0000
1000
0001
,
0100
0000
0001
0001
,
0022
0033
1000
1000
,
2200
3300
0002
0000
,
0000
0000
2003
0000
,
0000
0000
3001
0100
,
0010
0000
0100
0010
,
1000
0000
0100
0010
,
0001
0000
0100
0001
,
0010
0000
0100
1000
,
0001
0000
0100
0001
,
1000
0000
0010
1000
,
0100
0000
0010
0001
,
0100
0000
0010
0100
,
0010
0100
0010
0100
,
0010
0000
1000
0001
,
1000
0001
1000
0001
,
1000
0000
0100
0010
,
0100
0010
0100
0010
,
0100
0010
0001
1000
,
0001
1000
0001
1000
,
0001
1000
0001
0022
,
0033
1000
2200
3300
,
1000
1001
0001
0010
,
0100
0000
1000
0100
,
0010
0000
0001
0022
,
0033
1000
2200
3300
,
1000
1001
0001
0010
,
0100
1000
0001
0000
,
0110
0000
2002
0000
,
0000
0000
0000
0000
,
0000
0000
0000
0000
,
0000
0000
0000
0000
,
0000
0000
0000
0000
,
0000
0000
0000
0000
,
0000
0000
0000
0000
,
0000
0000
0000
0000
,
0000
0000
3003
0000
;

//--------------- dance-single - ----------------
#NOTES:
     dance-single:
     :
     Medium:
     15:
     0.70005,1.16307,0.526673,0.717497,0.160292,642,573,69,94,0,0,0.70005,1.16307,0.526673,0.717497,0.160292,642,573,69,94,0,0:
0000
0000
0000
0000
,
0000
0000
0000
0000
,
2001
0000
0000
0000
3010
0000
1000
0001
0200
0000
0310
0000
2000
0000
3001
0000
,
1002
0000
0000
0000
0103
0000
0010
1000
0200
0000
1300
0000
0002
0000
1003
0000
,
1200
0000
0000
0000
1300
0000
0010
1000
0200
0000
0310
0000
0002
0000
1003
0000
,
0021
0000
0000
0000
0031
0000
1000
0010
0200
0000
0301
0000
2000
0000
3001
0000
,
0210
0000
0000
0000
0301
0000
0010
0100
2000
0000
3010
0000
0200
0000
0301
0000
,
0120
0000
0000
0000
1030
0000
0100
0010
0002
0000
0103
0000
0020
0000
1030
0000
,
2002
0000
0000
0000
,
3003
0000
0000
0000
,
1000
1010
0010
0110
,
0100
0000
0101
0000
1000
0100
0010
0001
,
2000
0000
3001
0102
,
0000
1003
1020
0000
,
2030
0000
0000
0000
3001
0010
0001
0000
,
0022
0033
2200
3300
,
2000
0000
3010
0102
,
0000
1003
1200
0000
,
1300
0010
1000
0000
0001
0100
0001
0000
,
2002
0000
3003
0000
,
0002
0000
1003
1020
,
0000
1030
0201
0000
,
0302
0000
0000
0000
1003
0100
1000
0000
,
2020
3030
0202
0303
,
0021
0000
0031
1200
,
0000
1300
1020
0000
,
0130
0001
0100
0000
0010
1000
0010
0000
,
2002
0000
3003
0000
,
1000
0010
1000
0010
,
0100
0001
0100
0001
,
0010
0100
0010
0001
,
1000
0001
1000
0000
0001
1000
0001
0000
,
1000
0010
0100
0010
,
1000
0100
0010
0001
,
0100
0010
1000
0100
,
1000
0001
1000
0001
1000
0000
0001
0000
,
1000
0100
1000
0000
0100
0000
0010
0000
,
0001
0010
0001
0000
0100
0000
0001
0000
,
1000
0010
1000
0000
0010
0000
0100
0000
,
0001
0100
0001
0000
1000
0000
0001
0000
,
1000
0001
1000
0000
0001
0100
0001
0000
,
1000
0010
1000
0000
0010
0100
0010
0000
,
1001
0110
1002
0000
1003
0000
0010
1000
,
0100
0010
0001
0100
0001
0000
0011
0000
,
1000
0000
1001
0000
1000
0000
0010
0001
,
0010
1000
0100
0010
0001
0000
0101
0000
,
0001
0000
1001
0000
0001
0000
0100
0010
,
1000
0100
0010
0001
0100
0000
0101
0000
,
1000
0000
1001
0000
0001
0000
0010
1000
,
0010
0001
0100
0010
1000
0000
1100
0000
,
1000
0000
1001
0000
1000
0000
0010
0010
,
1000
0100
0001
0100
1000
0000
1010
0000
,
0010
0000
0110
0000
0001
0000
0010
0010
,
0100
1000
0010
0001
0010
0000
1010
0000
,
1000
0000
1001
0000
1000
0100
0100
0000
,
0001
0100
0100
0000
1000
0010
0100
0001
,
0010
0000
0110
0000
1000
1000
0010
0100
,
0001
0001
0010
0100
1000
0000
1001
0000
,
1000
0000
0010
0000
0100
0000
0001
0000
1000
0000
0010
1000
0000
0001
0100
0000
,
0020
0000
2030
0000
3001
0010
0100
1000
0001
0000
1000
0010
0000
0100
0001
0000
,
0020
0000
0032
0000
0103
0010
1000
0100
2000
0000
0100
0000
0010
0000
3001
0000
,
0002
0000
0010
0000
0100
0000
1000
0000
1003
0020
0000
0000
0130
0002
0000
0000
,
0013
0200
0000
0000
0310
0001
0010
0100
1000
0000
0010
1000
0000
0001
0100
0000
,
0020
0000
2030
0000
3001
0010
0100
1000
0001
0000
0100
0010
0000
1000
0100
0000
,
0020
0000
0032
0000
1003
0010
0100
0001
2000
0000
0010
0000
0100
0000
0001
0000
,
3002
0000
0100
0000
0010
0000
1000
0000
1003
0020
0000
0000
0130
0002
0000
0000
,
0013
0200
0000
0000
1300
0000
0002
0000
1003
0000
0000
0000
1010
0000
0000
0000
,
1010
0000
0000
1001
0000
0000
1000
0000
0001
0000
0010
0000
,
0100
1001
0001
0011
,
0011
0000
0000
1001
0000
0000
0001
0010
0100
1000
0000
0000
,
0001
0010
0100
1000
0000
0000
0001
0000
0000
0101
0000
0000
,
0101
0000
0000
1001
0000
0000
0001
0000
0100
0000
0010
0000
,
1000
0001
0100
0010
1000
0000
1100
0000
,
0011
0000
0000
0000
0000
0000
1001
0000
0000
0000
0000
0000
1000
0000
0100
0000
0010
0000
0001
0000
0000
1000
0000
0000
,
0001
0010
0100
1000
0000
0000
2002
0000
0000
0000
0000
0000
,
0000
0000
0000
0000
,
0000
0000
0003
0000
,
0000
0000
0000
0000
,
0000
0000
3020
0000
,
0000
0000
0000
0000
,
0000
0000
2030
0000
,
0000
0000
3002
0000
,
0203
0000
0000
0000
0301
0010
0100
1000
,
0001
0000
1001
0000
1000
0100
0010
0001
,
1000
0000
1001
0000
1000
0010
1000
0000
,
0010
1000
0100
0010
,
0001
0000
0100
0000
0001
0010
0001
0000
,
1000
0010
0100
0001
,
0010
0000
0100
0000
1000
0100
1000
0000
,
0001
0010
0100
0010
,
0001
0000
0100
0000
0010
0100
0010
0000
,
0100
0010
1000
0100
,
0010
0000
0001
0000
1000
0010
1000
0000
,
0010
0100
0001
0010
,
0100
0000
0010
0000
0001
0100
0001
0000
,
1000
0010
0100
0010
,
1000
0100
1000
1000
,
2200
3300
0001
0001
,
0022
0033
2000
0000
,
0000
0000
3002
0000
,
0000
0000
0000
0000
1003
0010
1000
0000
,
0010
0100
0001
0010
,
0100
0000
0010
0000
0100
1000
0100
0000
,
0010
0001
0010
0100
,
0010
0000
0001
0000
1000
0010
1000
0000
,
0010
0100
0001
0010
,
0100
0000
0010
0000
0001
0100
0001
0000
,
1000
0001
0100
0010
,
0100
0001
1000
1000
,
1000
1000
0001
0001
,
0001
0001
0100
0100
,
0100
0100
0010
0010
,
0010
0000
0010
0000
1000
0100
1000
0100
,
2000
0000
0000
0000
3001
0010
0001
0010
,
0002
0000
0000
0000
1003
0100
1000
0000
,
0010
0100
0010
0000
0100
0001
0100
0000
,
0001
1000
0001
0000
1000
0000
2200
0000
,
3300
0001
0202
0303
,
0001
0000
1001
0000
1000
0010
0100
0000
,
0001
0010
0100
1000
,
0010
0100
0001
0022
,
0033
0001
2002
3003
,
1000
0000
1100
0000
1000
0010
0100
0000
,
0001
1000
2002
3003
,
0220
0330
2002
0000
,
0000
0000
0000
0000
,
0000
0000
0000
0000
,
0000
0000
0000
0000
,
0000
0000
0000
0000
,
0000
0000
0000
0000
,
0000
0000
0000
0000
,
0000
0000
0000
0000
,
0000
0000
3003
0000
;

//--------------- dance-single - ----------------
#NOTES:
     dance-single:
     :
     Hard:
     18:
     0.894145,1.618185,0.511407,0.549572,0.343483,820,753,67,72,0,0,0.894145,1.618185,0.511407,0.549572,0.343483,820,753,67,72,0,0:
0000
0000
0000
0000
,
0000
0000
0000
0000
,
0210
0000
0001
0001
0301
0000
1000
0100
0012
0000
1000
1000
0103
0000
1001
0000
,
1020
0000
0000
0000
0100
0000
0100
0000
0130
0000
0000
0000
0001
0000
0010
0000
1200
0000
0000
0000
0010
0000
0010
0000
1300
0000
0000
0000
1001
0000
1000
0010
,
0201
0000
0010
0010
0310
0000
1000
0100
0021
0000
0100
0100
0031
0000
1001
0000
,
1020
0000
0001
0001
0031
0000
0100
0010
1020
0000
0100
0100
1030
0000
1001
1000
,
1200
0000
0010
0010
0310
0000
0001
0100
1020
0000
0100
0100
1030
0000
1001
0000
,
0021
0000
0000
0000
0100
0000
0100
0000
0130
0000
0000
0000
1000
0000
0010
0000
0102
0000
0000
0000
0010
0000
0010
0000
1003
0000
0000
0000
1001
0000
1000
0001
,
2002
0000
0000
0000
,
3003
0000
0000
0000
,
1200
0010
0010
0301
,
0210
0000
0000
0000
1000
0000
0000
0000
0310
0000
0001
0100
0010
0000
1000
0000
,
1200
0000
1300
0021
,
0000
0031
2001
0000
,
3020
0000
0000
0000
1030
0010
0100
0001
,
1000
0100
1000
0000
0001
0010
0001
0000
,
0021
0000
0130
1200
,
0000
1300
2001
0000
,
3001
0010
0100
0000
1000
0100
0010
0000
,
0001
0100
0010
1000
0001
0000
1000
0000
,
0201
0000
0310
1020
,
0000
0130
0120
0000
,
2030
0000
0000
0000
3001
0010
0100
1000
,
0001
0010
0001
0000
1000
0100
1000
0000
,
1200
0000
0310
0012
,
0000
0103
0120
0000
,
1030
0100
0010
0000
0001
0010
0100
0000
,
1000
0010
0100
0001
0010
0000
0100
0000
,
1000
0010
0100
0000
0001
0000
0010
0100
,
0010
0000
0001
0000
0100
0010
1000
0000
,
0010
1000
0100
0000
0010
0001
0010
0000
,
0001
0100
0010
0000
1000
0100
0010
0000
,
0001
0100
0010
0000
1000
0000
0100
0010
,
0100
0000
1000
0000
0010
0100
0001
0000
,
1000
0001
0100
0000
0001
1000
0100
0000
,
1000
0010
0001
0010
1000
0000
0001
0000
,
1000
0100
0010
0100
1000
0100
0010
0000
,
0001
0010
0100
0010
0001
0010
0100
0000
,
1000
0010
0100
0010
1000
0010
0100
0000
,
0001
0100
0010
0100
0001
0100
0010
0000
,
1000
0100
0010
0001
0100
0010
1000
0001
,
0100
0010
1000
0001
0100
0010
1000
0100
,
1000
0000
0000
0000
1010
0000
0000
0000
0101
0000
0000
0000
1000
0100
0010
0001
1000
0000
0000
0000
0000
0000
0000
0000
0100
0000
0000
0000
0001
0000
0000
0000
,
0100
1000
1010
0010
0100
0000
0101
0000
,
1000
0100
0010
0000
0001
0000
1000
0000
0010
0000
0000
0000
1000
0000
0100
0000
,
0001
0100
1100
1000
0100
0000
0011
0000
,
0001
1000
0010
0000
0100
0000
0010
0000
1000
0000
0000
0000
0001
0000
0010
0000
,
1000
0000
0010
0000
0011
0000
0001
0000
1000
0100
0010
0000
0001
0100
0010
0000
,
1000
0100
0010
0000
0100
0000
0010
0000
0001
0000
0000
0000
1000
0000
0100
0000
,
1000
0000
0001
0000
1010
0000
0010
0000
1000
0001
0010
0000
0001
1000
0010
0000
,
1000
0001
0100
0000
0010
0000
1000
0000
0001
0000
0000
0000
0010
0000
0001
0000
,
1000
0010
0110
0001
1000
0000
1010
0000
,
1000
0001
0100
0000
0010
0000
1000
0000
0100
0000
0000
0000
0010
0000
0001
0000
,
0010
1000
0110
0010
0001
0000
0011
0000
,
1000
0010
0100
0000
0001
0000
0100
0000
0010
0000
0010
0000
1000
0000
0000
0000
,
0001
0000
0001
0000
0010
0000
0000
0000
0100
1000
0100
0000
1000
0001
0010
0000
,
0100
1000
0010
0000
0100
0000
0001
0000
1000
0000
0001
0000
0010
0000
0100
0000
,
1000
0000
0001
0000
0100
0000
0010
0000
1000
0100
0010
0100
1000
0010
0100
0001
,
0010
0100
1000
0010
0100
0001
1000
0100
1000
0000
0001
0010
0000
0100
1000
0000
,
0002
0000
0203
0000
0310
1000
0100
0010
0001
0000
1000
0010
0000
0100
0001
0000
,
0020
0000
0230
0000
1300
0010
0100
0001
2000
0000
0010
0000
0100
0000
0001
0000
,
3002
0000
0100
0000
0010
0000
1000
0000
1003
0200
0000
0000
0310
0002
0000
0000
,
0103
0020
0000
0000
1030
0010
0100
0001
1000
0000
0010
1000
0000
0100
0010
0000
,
0002
0000
0203
0000
0310
1000
0100
0010
0001
0000
0100
0010
0000
1000
0100
0000
,
0020
0000
0032
0000
0103
0010
1000
0100
2000
0000
0010
0000
0100
0000
0001
0000
,
3002
0000
0100
0000
0010
0000
1000
0000
1003
0200
0000
0000
0301
0200
0000
0000
,
1300
0020
0000
0000
0031
0010
1000
0100
1000
0000
0000
0000
1020
0000
0000
0000
,
0001
0000
0000
0130
0000
0000
1000
0000
0100
0000
0001
0000
,
0100
1100
0021
0100
,
1000
0000
0000
0130
0000
0000
0001
0100
0010
1000
0000
0000
,
0001
0100
0010
1000
0000
0000
0201
0000
0000
0010
0000
0000
,
1000
0000
0000
0310
0000
0000
0001
0000
1000
0000
0100
0000
,
0010
0001
0100
0010
1000
0000
1200
0000
,
0001
0000
0000
0000
0000
0000
0310
0000
0000
0000
0000
0000
1000
0000
0010
0000
0100
0000
0001
0000
0000
1000
0000
0000
,
0001
0100
0010
1000
0100
0010
2002
0000
0000
0000
0000
0000
,
0000
0000
0000
0000
,
0000
0000
0003
0000
,
0000
0000
0000
0000
,
0000
0000
3020
0000
,
0000
0000
0000
0000
,
0000
0000
2030
0000
,
0000
0000
3001
0010
,
0100
0000
0000
0000
1000
0000
0000
0000
0001
0100
0010
0000
1000
0000
0100
0000
,
0010
0000
0001
0000
1001
0000
0000
0000
1000
0010
0100
0000
0001
0000
0010
0000
,
0100
1000
1001
0000
1000
0000
0010
0100
,
0001
0000
0010
0000
0001
1000
0010
0100
,
0010
0000
1000
0000
0100
0000
1000
0001
,
0100
0000
0010
0000
1000
0010
0100
0001
,
1000
0000
0100
0000
1000
0000
0010
1000
,
0100
0000
0010
0000
0001
1000
0010
0100
,
0001
0000
0010
0000
0100
0000
0010
0001
,
1000
0000
0010
0000
1000
0100
0010
0001
,
1000
0000
0010
0000
1000
0000
0001
1000
,
0010
0000
1000
0000
0100
1000
0001
0100
,
0010
0000
1000
0000
0001
0000
0100
0010
,
1000
0000
0100
0000
1000
0010
0100
0001
,
0010
0000
0001
0000
1000
0000
0100
1000
,
2200
0000
3300
0000
0001
0000
0010
0001
,
0022
0000
0033
0000
1000
0100
0010
0001
,
1000
0000
1001
0000
0001
0100
0010
1000
,
0001
0100
0010
1000
0001
0000
0100
0010
,
1000
0000
0100
0000
1000
0001
0010
1000
,
0010
0000
0001
0000
0100
0000
0010
1000
,
0100
0000
0010
0000
0001
0100
1000
0100
,
0010
0000
1000
0000
0100
0000
0010
0001
,
1000
0000
0010
0000
0100
1000
0100
0001
,
0100
0000
0010
0000
1000
0010
0100
0001
,
0010
0100
1000
0010
1000
0001
0100
0001
,
0010
0100
1000
0010
1000
0000
0001
0000
,
0011
0001
0100
0010
,
0110
0010
1000
0100
,
1100
0100
1000
0001
,
1001
0000
0001
0000
1000
0100
0001
0100
,
2000
0000
0000
0000
3001
0100
1000
0100
,
0002
0000
0000
0000
1003
0100
0010
0001
,
1000
0010
0100
0001
1000
0010
0001
0010
,
1000
0100
0001
0100
1000
0000
0022
0000
,
0033
0001
2020
3030
,
1000
0000
1001
0000
0001
0010
0100
1000
,
0001
0010
0001
0100
0010
1000
0001
0100
,
0010
1000
0100
0010
0001
0000
2020
0000
,
3030
1000
0022
0033
,
0001
0000
1001
0000
0001
1000
0010
0100
,
0010
1000
0001
0010
0001
0010
1000
0010
,
0001
0100
1000
0100
2002
0000
0000
0000
,
0000
0000
0000
0000
,
0000
0000
0000
0000
,
0000
0000
0000
0000
,
0000
0000
0000
0000
,
0000
0000
0000
0000
,
0000
0000
0000
0000
,
0000
0000
0000
0000
,
0000
0000
3003
0000
;

//--------------- dance-single - ----------------
#NOTES:
     dance-single:
     :
     Challenge:
     19:
     1.040262,1.668753,0.717497,0.33585,0.526673,954,860,94,44,132,0,1.040262,1.668753,0.717497,0.33585,0.526673,954,860,94,44,132,0:
0000
0000
0000
0000
,
0000
0000
0000
0000
,
0120
0000
1000
0001
0130
0000
0010
0010
1020
0000
0001
1000
0130
0000
1001
0000
,
0210
0000
0000
0000
0001
0000
1000
0000
0310
0000
0000
0000
0100
0000
0100
0000
0201
0000
0000
0000
1000
0000
0001
0000
0310
0000
0000
0000
1000
0000
0001
0010
,
1200
0000
0001
0010
1300
0000
1000
1000
0021
0000
1000
0100
0031
0000
1010
0000
,
0201
0000
0001
1000
0310
0000
0001
0001
1020
0000
0001
1000
0130
0000
0011
1000
,
1200
0000
0010
0001
0310
0000
1000
0001
0201
0000
1000
0010
1300
0000
1001
0000
,
0021
0000
0000
0000
1000
0000
0100
0000
1030
0000
0000
0000
0001
0000
1000
0000
1020
0000
0000
0000
0100
0000
1000
0000
0130
0000
0000
0000
1000
0000
0001
0010
,
2002
0000
0000
0000
,
3003
MMMM
MMMM
MMMM
,
0201
0010
1000
0310
,
1200
0000
0000
0000
0001
0000
0000
0000
0310
0001
1000
0001
0010
0000
0001
0000
,
1000
0100
0001
0000
0110
0000
0001
0100
,
1000
0000
0110
0000
0001
0010
1000
0000
,
0001
0100
0010
0000
1000
0100
0010
0100
,
1000
0100
0001
0000
1000
0010
0001
0000
,
1000
0010
0001
0000
0110
0000
0001
0100
,
1000
0000
0110
0000
1000
0010
0001
0000
,
1000
0100
0001
0000
0010
0100
1000
0000
,
0001
0100
0010
0001
0010
0000
1001
0000
,
1000
0100
0001
0000
0110
0000
0001
0100
,
1000
0000
0110
0000
1000
0100
0001
0000
,
1000
0010
0100
0000
0001
0010
0100
0010
,
0001
0100
1000
0000
0001
0010
1000
0000
,
1000
0010
0001
0000
0110
0000
1000
0100
,
0001
0000
0110
0000
1000
0010
0001
0000
,
1000
0100
0001
0000
0010
0100
1000
0000
,
0010
1000
0100
0001
0100
0000
1000
0000
,
0001
0010
1000
0000
1010
0000
1000
0010
,
0001
0000
0011
0000
0001
0010
1000
0000
,
0010
0001
0100
0000
0010
1000
0100
0010
,
0001
1000
0010
0000
0100
0001
1000
0000
,
0001
0100
1000
0000
1100
0000
1000
0100
,
0001
0000
0101
0000
0001
0100
1000
0000
,
0001
0010
1000
0000
0100
0010
0001
0000
,
1000
0010
0100
1000
0100
0000
0001
0000
,
1000
0100
1000
0100
1000
0010
1000
0100
,
1000
0100
0010
0001
0010
0001
0100
0001
,
0010
0001
0010
0100
1000
0100
1000
0010
,
1000
0100
1000
0010
0100
0001
0010
0100
,
1000
0100
0001
0100
1000
0010
0100
0001
,
0010
0000
1000
0000
0010
0000
0001
0000
1000
0001
1000
0000
0001
0000
1000
0000
,
1001
0000
0000
0000
0110
0000
0000
0000
1001
0000
0000
0000
1000
0100
0010
0001
1000
0000
0000
0000
1000
0000
0000
0000
0001
0000
0000
0000
1000
0000
0000
0000
,
1010
0010
0110
0100
0001
MMMM
1100
MMMM
,
1000
0010
0100
0010
1000
0001
0010
0000
0100
0000
0100
0000
1000
0000
0010
0000
,
0110
0010
1010
1000
0010
MMMM
1010
MMMM
,
1000
0100
0010
0001
1000
0010
0001
0010
1000
0000
0001
0000
1000
0000
0100
0000
,
1100
0000
0100
0000
0110
0000
0010
0000
0001
0010
1000
0000
0010
0001
0100
0000
,
0010
1000
0100
0010
0001
0010
0100
1000
0001
0000
0100
0000
1000
0000
0100
0000
,
0110
0000
0100
0000
0101
0000
0001
0000
1000
0100
0001
0000
0100
0010
0001
0000
,
0100
0010
1000
0100
0010
0001
1000
0100
1000
0000
1000
0000
0001
0000
0100
0000
,
0110
0010
1010
1000
0100
MMMM
1100
MMMM
,
0001
0010
0100
0010
0001
1000
0100
0000
1000
0000
1000
0000
0100
0000
0010
0000
,
0011
0100
0110
0100
0001
MMMM
1010
MMMM
,
0010
1000
0100
0001
0100
0010
0001
0100
0010
0000
1000
0000
1000
0000
MMMM
0000
,
0010
0000
0001
0000
0001
0000
MMMM
0000
0010
1000
0001
0000
0100
0001
1000
0000
,
0100
1000
0100
0010
0001
0010
0100
1000
0001
0000
0010
0000
0100
0000
0100
0000
,
1000
0000
0010
0000
0100
0000
0100
0000
0001
0010
0100
1000
0010
0001
0010
0100
,
0010
1000
0100
0001
0100
1000
0010
1000
0001
0000
0001
0100
0000
1000
0100
0000
,
0002
0000
0023
0000
1030
0010
0001
0100
1000
0000
1000
0100
0000
0001
0010
0000
,
2000
0000
3020
0000
0031
0100
1000
0100
0020
0000
0001
0000
0100
0000
1000
0000
,
0230
0000
0000
0000
1000
0000
0000
0000
0010
0000
0000
0000
0001
0000
0000
0000
0310
1000
0100
0000
MMMM
0000
0000
0000
0010
0001
0100
0000
MMMM
0000
0000
0000
,
0001
1000
0010
0000
MMMM
0000
0000
0000
0100
0001
1000
0000
0010
0000
0100
0000
0001
0000
0000
0000
0001
0000
0100
0000
0000
0000
1000
0000
0100
0000
0000
0000
,
0002
0000
0023
0000
1030
0010
0001
0100
1000
0000
1000
0100
0000
0001
0010
0000
,
2000
0000
3020
0000
0031
0100
1000
0100
0020
0000
0001
0000
0100
0000
1000
0000
,
0230
0000
0000
0000
1000
0000
0000
0000
0010
0000
0000
0000
0001
0000
0000
0000
0310
1000
0100
0000
MMMM
0000
0000
0000
0010
0001
0100
0000
MMMM
0000
0000
0000
,
0001
1000
0010
0000
MMMM
0000
0000
0000
0100
0001
1000
0000
0010
0000
0100
0000
0001
0000
0000
0000
0010
0000
0000
0000
1000
0000
0000
0000
0010
0000
0000
0000
,
MMMM
0000
0000
0100
0000
0000
1000
0000
0000
0001
0000
0000
1000
0000
0000
0000
0011
0000
0000
0000
1100
0000
0000
0000
,
0001
MMMM
1001
MMMM
0001
0100
1000
0100
,
MMMM
0000
0000
1000
0000
0000
0010
0000
0000
0100
0000
0000
0001
0000
0010
0000
1000
0000
0010
0000
0000
MMMM
0000
0000
,
0001
0000
0100
0000
1000
0000
0100
0000
0000
MMMM
0000
0000
0001
0000
0000
1000
0000
0000
0100
0000
0000
0001
0000
0000
,
MMMM
0000
0000
0010
0000
0000
1000
0000
0000
0001
0000
0000
1000
0000
0000
0000
1100
0000
0000
0000
0011
0000
0000
0000
,
0001
MMMM
1001
MMMM
1000
0010
0001
0010
,
MMMM
0000
0000
0100
0000
0000
1000
0000
0000
0001
0000
0000
0010
0000
0001
0000
1000
0000
1001
0000
0000
0001
0000
0000
,
1000
0010
0001
0010
1000
0100
2002
0000
0000
0000
0000
0000
,
0000
0000
0000
0000
,
0000
0000
0000
0000
,
0000
0000
0000
0000
,
0000
3003
0022
0000
,
0000
0000
0000
0000
,
0000
0033
2020
0000
,
0000
0030
3001
0010
,
1000
0000
0000
0000
0010
0000
0000
0000
0001
0010
0001
0100
0010
0100
0001
0010
,
0100
1000
0100
1000
0010
0100
0010
1000
0001
0010
1000
0010
0001
0100
0010
0100
,
0001
0010
1000
0010
0001
1000
0010
1000
0001
0000
0000
0000
1000
0000
0010
0000
,
0100
0000
0001
0000
0010
0100
0010
0001
,
0100
0000
1010
0000
0010
0000
1000
0001
,
0010
0000
0100
0000
0010
0001
0100
0010
,
1000
0000
1100
0000
0100
0000
0010
0001
,
1000
0000
0010
0000
0100
0001
0010
0100
,
0010
0000
0011
0000
0001
0000
1000
0010
,
0100
0000
0010
0000
1000
0010
0100
0001
,
0010
0000
1100
0000
1000
0000
0010
0001
,
0010
0000
0100
0000
0001
0010
1000
0010
,
0001
0000
0101
0000
0010
0000
1000
0100
,
0001
0000
0100
0000
1000
0010
0001
0010
,
0100
0000
0110
0000
1000
0100
1000
0100
,
2200
0000
3300
0000
0001
0010
0001
0010
,
0022
0000
0033
0000
1000
0010
0001
0010
,
1000
0000
1001
0000
1000
0001
0100
0010
,
0001
0010
1000
0100
1000
0000
0001
0010
,
0100
0000
0010
0000
0001
0100
0010
1000
,
0001
0000
0101
0000
0001
0000
0010
0100
,
1000
0000
0100
0000
1000
0001
0100
0010
,
1000
0000
1010
0000
0010
0000
1000
0001
,
0010
0000
0001
0000
1000
0010
0001
0010
,
1000
0000
0101
0000
1000
0100
1000
0010
,
0100
0001
0010
0001
0100
0010
0100
0001
,
1000
0010
1000
0001
0100
0000
1100
0000
,
0101
0002
0013
0011
,
1010
2000
3010
1010
,
0011
0002
0013
1100
,
0101
0000
0002
0000
1003
0100
1000
0010
,
0001
0010
1000
0100
1000
0010
0001
0010
,
1000
0100
1000
0001
0010
0100
0010
0001
,
1000
0010
0001
0010
1000
0100
0010
0001
,
1000
0001
1000
0001
1000
0000
0001
0000
1010
0000
0000
0000
0011
0000
0000
0000
,
MMMM
0101
1100
MMMM
,
1010
0000
0011
0000
1000
0010
0001
0010
,
1000
0100
0001
0100
1000
0010
0001
0010
,
1000
0100
0001
0100
1010
0000
0011
0000
,
MMMM
1100
0101
MMMM
,
1010
0000
0011
0000
1000
0010
1000
0100
,
0001
0100
1000
0010
1000
0100
0001
0100
,
1000
0001
1000
0001
1000
0001
1000
0000
2002
0000
0000
0000
0000
0000
0000
0000
,
0000
0000
0000
0000
,
0000
0000
0000
0000
,
0000
0000
0000
0000
,
0000
0000
0000
0000
,
0000
0000
0000
0000
,
0000
0000
0000
0000
,
0000
0000
0000
0000
,
0000
0000
3003
0000
;

//--------------- dance-double - ----------------
#NOTES:
     dance-double:
     :
     Challenge:
     20:
     1.014091,1.665604,0.572471,0.25952,0.499958,930,855,75,34,248,0,1.014091,1.665604,0.572471,0.25952,0.499958,930,855,75,34,248,0:
00000000
00000000
00000000
00000000
,
00000000
00000000
00000000
00000000
,
12000000
00000000
00100000
00010000
03100000
00000000
00010000
00100000
00021000
00000000
00000100
00001000
00030100
00000000
00000010
00000000
,
00000021
00000000
00000000
00000000
00000100
00000000
00001000
00000000
00000130
00000000
00000000
00000000
00001000
00000000
00000100
00000000
00012000
00000000
00000000
00000000
00100000
00000000
00010000
00000000
00103000
00000000
00000000
00000000
00010000
00000000
01000000
00100000
,
10200000
00000000
00010000
01000000
00310000
00000000
01000000
00010000
00012000
00000000
00010000
00000100
00013000
00000000
00000100
00000000
,
00000201
00000000
00000010
00001000
00000310
00000000
00001000
00000100
00021000
00000000
00001000
00100000
00031000
00000000
00100000
01000000
,
12000000
00000000
00100000
00010000
03100000
00000000
00010000
00100000
00012000
00000000
00000100
00010000
00003100
00000000
00000010
00000000
,
00000021
00000000
00000000
00000000
00000100
00000000
00000001
00000000
00000130
00000000
00000000
00000000
00001000
00000000
00000100
00000000
00021000
00000000
00000000
00000000
00100000
00000000
00001000
00000000
00130000
00000000
00000000
00000000
01000000
00000000
00100000
10000000
,
20020000
00000000
00000000
00000000
,
30030000
MMMMMMMM
MMMMMMMM
MMMMMMMM
,
00000011
00011000
11000000
00011000
,
00000011
00000000
00000000
00000000
00011000
00000000
00000000
00000000
10000000
01000000
10000000
01000000
00100000
00000000
00010000
00000000
,
10000000
00100000
00010000
00000000
01100000
00000000
00010000
00100000
,
10000000
00000000
01100000
00000000
10000000
00100000
00010000
00000000
,
00001000
00100000
00010000
00000000
00100000
00001000
00010000
00000100
,
00010000
00100000
00010000
00000000
00000100
00001000
00000100
00000000
,
00001000
00000010
00000001
00000000
00000110
00000000
00001000
00000100
,
00000001
00000000
00000110
00000000
00000001
00000100
00001000
00000000
,
00010000
00001000
00100000
00000000
00001000
00010000
00000100
00000000
,
00010000
00001000
00100000
00000100
00010000
00000000
00001000
00000000
,
00010000
00100000
10000000
00000000
01100000
00000000
10000000
01000000
,
00010000
00000000
01100000
00000000
10000000
00100000
00010000
00000000
,
00001000
00010000
00000100
00000000
00001000
00000100
00010000
00001000
,
00010000
00100000
00010000
00000000
00000100
00001000
00000100
00000000
,
00001000
00000100
00000001
00000000
00000110
00000000
00000001
00000010
,
00001000
00000000
00000110
00000000
00000001
00000010
00001000
00000000
,
00010000
00001000
00100000
00000000
00000100
00010000
00001000
00000000
,
00100000
00001000
00010000
00000100
00010000
00000000
00001000
00000000
,
10000000
00100000
00010000
00000000
00110000
00000000
00010000
00100000
,
10000000
00000000
10100000
00000000
00100000
01000000
00010000
00000000
,
00001000
00000010
00000001
00000000
00000010
00001000
00000100
00000010
,
00000001
00001000
00000100
00000000
00000010
00000001
00001000
00000000
,
00010000
01000000
10000000
00000000
11000000
00000000
10000000
01000000
,
00010000
00000000
00110000
00000000
10000000
00100000
00010000
00000000
,
00001000
00000010
00000001
00000000
00000010
00001000
00000100
00000000
,
00000010
00000001
00001000
00000100
00000010
00000000
00000100
00000000
,
00100000
00010000
10000000
00100000
10000000
00010000
00100000
00010000
,
01000000
00001000
00010000
00000100
00010000
00001000
00100000
00001000
,
00010000
00000100
00001000
00000010
00000100
00000001
00000010
00000100
,
00000010
00000100
00010000
00001000
00100000
00010000
01000000
00100000
,
10000000
01000000
00100000
00010000
00001000
00100000
00000100
00001000
,
00000001
00000010
00000100
00010000
10000000
01000000
00001000
01000000
,
10010000
00000000
00000000
00000000
00011000
00000000
00000000
00000000
00001001
00000000
00000000
00000000
00000001
00000010
00000100
00001000
00000001
00000000
00000000
00000000
00001000
00000000
00000000
00000000
00000100
00000000
00000000
00000000
00001000
00000000
00000000
00000000
,
00001100
00000100
00000110
00000010
00000001
MMMMMMMM
00001100
MMMMMMMM
,
00001000
00000010
00000100
00000001
00010000
00001000
00100000
00000000
00010000
00000000
10000000
00000000
01000000
00000000
00100000
00000000
,
00110000
00100000
01100000
01000000
10000000
MMMMMMMM
10100000
MMMMMMMM
,
00010000
10000000
01000000
00100000
00001000
00010000
00000010
00000000
00000100
00000000
00000001
00000000
00001000
00000000
00000010
00000000
,
00001010
00000000
00000010
00000000
00000101
00000000
00000001
00000000
00001000
00000010
00000100
00000000
00000001
00001000
00000100
00000000
,
00010000
00001000
00000100
00001000
00010000
00100000
10000000
00100000
00010000
00000000
01000000
00000000
00100000
00000000
01000000
00000000
,
01100000
00000000
00100000
00000000
10100000
00000000
10000000
00000000
00010000
01000000
00100000
00000000
10000000
00100000
01000000
00000000
,
00001000
00010000
00000100
00010000
00001000
00000100
00000001
00000100
00000010
00000000
00000010
00000000
00001000
00000000
00001000
00000000
,
00000110
00000100
00000101
00000001
00001000
MMMMMMMM
00001100
MMMMMMMM
,
00010000
00001000
00100000
00001000
00010000
01000000
00100000
00000000
00010000
00000000
00010000
00000000
10000000
00000000
10000000
00000000
,
01010000
01000000
01100000
00100000
10000000
MMMMMMMM
10100000
MMMMMMMM
,
00010000
00001000
00000100
00001000
00010000
00000010
00000100
00000000
00000001
00000000
00000001
00000000
00000001
00000000
MMMMMMMM
00000000
,
10000000
00000000
10000000
00000000
10000000
00000000
MMMMMMMM
00000000
00001000
00000001
00000100
00000000
00000010
00001000
00000100
00000000
,
00010000
00001000
00000010
00001000
00010000
00001000
00100000
00000000
01000000
00000000
10000000
00000000
11000000
00000000
01000000
00000000
,
00100000
00000000
00010000
00000000
00110000
00000000
00010000
00000000
10000000
00100000
01000000
00010000
00001000
00000010
00000100
00000001
,
00000010
00000100
00001000
00010000
00100000
01000000
10000000
00010000
10000000
00000000
00010000
00100000
00000000
00100000
01000000
00000000
,
10000000
00000000
00100000
00000000
00010000
00100000
10000000
01000000
00100000
00000000
00010000
01000000
00000000
01000000
00100000
00000000
,
10000000
00000000
00100000
00000000
00010000
00001000
00000010
00000001
00000200
00000000
00100000
00000000
00010000
00000000
00001000
00000000
,
00200300
00000000
00000000
00000000
00000100
00000000
00000000
00000000
00001000
00000000
00000000
00000000
00010000
00000000
00000000
00000000
00310000
10000000
01000000
00000000
MMMMMMMM
00000000
00000000
00000000
00100000
00010000
01000000
00000000
MMMMMMMM
00000000
00000000
00000000
,
00100000
10000000
01000000
00000000
MMMMMMMM
00000000
00000000
00000000
00010000
00001000
00010000
00000000
00000010
00000000
00000100
00000000
00000001
00000000
00000000
00000000
00001000
00000000
00000100
00000000
00000000
00000000
00000100
00000000
00000010
00000000
00000000
00000000
,
00000001
00000000
00000100
00000000
00001000
00000100
00000001
00000010
00000100
00000000
00001000
00000010
00000000
00000010
00000100
00000000
,
00000001
00000000
00000100
00000000
00001000
00010000
01000000
10000000
00200000
00000000
00000100
00000000
00001000
00000000
00010000
00000000
,
00300200
00000000
00000000
00000000
00100000
00000000
00000000
00000000
00010000
00000000
00000000
00000000
00001000
00000000
00000000
00000000
00001300
00000001
00000010
00000000
MMMMMMMM
00000000
00000000
00000000
00000100
00001000
00000010
00000000
MMMMMMMM
00000000
00000000
00000000
,
00000100
00000001
00000010
00000000
MMMMMMMM
00000000
00000000
00000000
00001000
00010000
00001000
00000000
01000000
00000000
00100000
00000000
10000000
00000000
00000000
00000000
00010000
00000000
00000000
00000000
01000000
00000000
00000000
00000000
00100000
00000000
00000000
00000000
,
MMMMMMMM
00000000
00000000
00001000
00000000
00000000
00010000
00000000
00000000
00000010
00000000
00000000
00001000
00000000
00000000
00000000
00001100
00000000
00000000
00000000
00000011
00000000
00000000
00000000
,
00000001
MMMMMMMM
00001001
MMMMMMMM
10000000
00100000
00010000
00100000
,
MMMMMMMM
00000000
00000000
00000001
00000000
00000000
00000010
00000000
00000000
00000100
00000000
00000000
00001000
00000000
00000100
00000000
00000010
00000000
00000001
00000000
00000000
MMMMMMMM
00000000
00000000
,
00001000
00000000
00000010
00000000
00000100
00000000
00000001
00000000
00000000
MMMMMMMM
00000000
00000000
10000000
00000000
00000000
00001000
00000000
00000000
00010000
00000000
00000000
00000100
00000000
00000000
,
MMMMMMMM
00000000
00000000
00000100
00000000
00000000
00010000
00000000
00000000
00000010
00000000
00000000
00001000
00000000
00000000
00000000
00001010
00000000
00000000
00000000
00000101
00000000
00000000
00000000
,
00000001
00010000
00001000
10000000
00010000
00100000
10000000
00100000
,
MMMMMMMM
00000000
00000000
00001000
00000000
00000000
00010000
00000000
00000000
00000010
00000000
00000000
00001000
00000000
00000010
00000000
00000001
00000000
00001000
00000000
00000000
00011000
00000000
00000000
,
00010000
00100000
01000000
10000000
00100000
01000000
20020000
00000000
00000000
00000000
00000000
00000000
,
00000000
00000000
00000000
00000000
,
00000000
00000000
00000000
00000000
,
00000000
00000000
00000000
00000000
,
30030000
00000000
00000022
00000000
,
00000000
00000000
00000000
00000000
,
00000033
00000000
22000000
00000000
,
33000000
00000000
00001000
00000001
,
00010000
00000000
00000000
00000000
00001000
00000000
00000000
00000000
10000000
00100000
01000000
00010000
00100000
00001000
00010000
00000100
,
00001000
00000010
00000100
00000001
00001000
00000100
00010000
00001000
00100000
00010000
01000000
00100000
10000000
01000000
00010000
00000100
,
00000001
00000100
00010000
01000000
10000000
00000100
00010000
00001000
10000000
00000000
00000000
00000000
00010000
00000000
01000000
00000000
,
00100000
00000000
01000000
00000000
00010000
00100000
01000000
10000000
,
00100000
00000000
01000000
00000000
00010000
00000000
00100000
01000000
,
10000000
00000000
00100000
00000000
01000000
00010000
10000000
01000000
,
00100000
00000000
00001000
00000000
00000001
00000000
00001000
00000010
,
00000100
00000000
00000001
00000000
00000010
00000100
00001000
00000010
,
00000100
00000000
00000010
00000000
00001000
00000000
00000001
00000100
,
00000010
00000000
00001000
00000000
00000100
00000010
00000001
00001000
,
00000100
00000000
00010000
00000000
10000000
00000000
00010000
00100000
,
10000000
00000000
00100000
00000000
00010000
01000000
10000000
01000000
,
00010000
00000000
00100000
00000000
10000000
00000000
00100000
00010000
,
01000000
00000000
00100000
00000000
00010000
00100000
10000000
00100000
,
00010000
00000000
00100000
00000000
10000000
01000000
10000000
01000000
,
11000000
00000000
00000000
00000000
00000001
00000010
00000001
00000010
,
00000011
00000000
00000000
00000000
10000000
01000000
00100000
00010000
,
00001000
00000000
00011000
00000000
00010000
00001000
00000100
00000010
,
00000001
00000010
00000100
00000010
00000001
00000000
00000010
00001000
,
00000010
00000000
00000100
00000000
00001000
00000010
00000001
00000010
,
00001000
00000000
00000010
00000000
00000100
00000000
00001000
00000100
,
00001000
00000000
00000010
00000000
00000001
00000010
00001000
00000010
,
00000001
00000000
00001000
00000000
10000000
00000000
00010000
00100000
,
10000000
00000000
00100000
00000000
00010000
01000000
10000000
01000000
,
00010000
00000000
10000000
00000000
00010000
00100000
00000001
00010000
,
00001000
10000000
00000100
00100000
00000001
00010000
00000010
00000100
,
00000001
00000010
00001000
00100000
20000000
00000000
30010000
00000000
,
00012000
00003100
00000002
00000103
,
00012000
00103000
20000000
30100000
,
00021000
00030010
00000002
00000103
,
00021000
00000000
00130000
00000000
10000000
00010000
00100000
01000000
,
10000000
00001000
00010000
00000001
00001000
00000010
00000100
00000001
,
00001000
00000001
00010000
00001000
10000000
00100000
00010000
00100000
,
00001000
00000100
00000001
00000100
00001000
00100000
10000000
01000000
,
00010000
00000100
00000001
00010000
10000000
00000000
11000000
00000000
,
MMMMMMMM
00000001
00000011
MMMMMMMM
,
10000000
00000000
11000000
00000000
10000000
00100000
01000000
00010000
,
00001000
00000010
00000100
00000001
00001000
00000100
00000001
00000100
,
00001000
00010000
00100000
01000000
10000000
00000000
10100000
00000000
,
MMMMMMMM
00000001
00000101
MMMMMMMM
,
10000000
00000000
10100000
00000000
10000000
01000000
00100000
00010000
,
00001000
00000100
00000010
00000001
00001000
00100000
10000000
00100000
,
00010000
00001000
00010000
00001000
00010000
00000000
00001000
00000000
00022000
00000000
00000000
00000000
00000000
00000000
00000000
00000000
,
00000000
00000000
00000000
00000000
,
00000000
00000000
00000000
00000000
,
00000000
00000000
00000000
00000000
,
00000000
00000000
00000000
00000000
,
00000000
00000000
00000000
00000000
,
00000000
00000000
00000000
00000000
,
00000000
00000000
00000000
00000000
,
00000000
00033000
00000000
00000000
;
