#TITLE:SABOTAGE;
#SUBTITLE:;
#ARTIST:iNFECTiON;
#TITLETRANSLIT:;
#SUBTITLETRANSLIT:;
#ARTISTTRANSLIT:;
#GENRE:;
#CREDIT:;
#MUSIC:SABOTAGE.ogg;
#BANNER:;
#BACKGROUND:;
#CDTITLE:;
#SAMPLESTART:83.455;
#SAMPLELENGTH:15.000;
#SELECTABLE:YES;
#OFFSET:-0.030;
#BPMS:0.000=210.000
,30.000=105.000
,31.000=420.000
,415.000=105.000
,417.000=210.000
,449.000=105.000
,449.250=210.000
,449.500=420.000
,451.000=105.000
,451.250=210.000
,451.500=420.000
,453.000=105.000
,453.250=210.000
,453.500=420.000
,454.000=105.000
,454.250=210.000
,454.500=420.000
,455.000=105.000
,455.250=210.000
,455.500=420.000
,456.000=105.000
,456.250=210.000
,456.500=420.000
,457.000=105.000
,457.250=210.000
,457.500=420.000
,458.000=105.000
,458.250=210.000
,458.500=420.000
,460.000=105.000
,460.250=210.000
,460.500=420.000
,462.000=105.000
,462.250=210.000
,462.500=420.000
,463.000=105.000
,463.250=210.000
,463.500=420.000
,464.000=105.000
,464.250=210.000
,464.500=420.000
,465.000=105.000
,465.250=210.000
,465.500=420.000
,466.000=105.000
,466.250=210.000
,466.500=420.000
,467.000=105.000
,467.250=210.000
,467.500=420.000
,469.000=105.000
,469.250=210.000
,469.500=420.000
,471.000=105.000
,471.250=210.000
,471.500=420.000
,472.000=105.000
,472.250=210.000
,472.500=420.000
,473.000=105.000
,473.250=210.000
,473.500=420.000
,474.000=105.000
,474.250=210.000
,474.500=420.000
,475.000=105.000
,475.250=210.000
,475.500=420.000
,476.000=105.000
,476.250=210.000
,476.500=420.000
,477.000=105.000
,477.250=210.000
,477.500=420.000
,478.000=105.000
,478.250=210.000
,478.500=420.000
,479.000=105.000
,479.250=210.000
,479.500=420.000
,744.000=210.000
;
#STOPS:;
#BGCHANGES:;
#FGCHANGES:;

//--------------- dance-single - ----------------
#NOTES:
     dance-single:
     :
     Beginner:
     10:
     0.367028,0.592649,0.32312,0.212786,0,326,285,41,27,0,0,0.367028,0.592649,0.32312,0.212786,0,326,285,41,27,0,0:
0000
0000
0000
0000
,
0000
0000
0000
0000
,
0000
0000
0000
0000
,
0000
0000
0000
0000
,
0000
0000
0000
0000
,
0000
0000
0000
0000
,
0000
0000
0000
0000
,
0000
0000
0000
1000
,
0000
0000
0000
1000
,
0000
0000
0000
0100
,
0000
0010
0000
0100
,
0000
0010
0000
0001
,
0000
0000
0000
0001
,
0000
0000
0000
0100
,
0000
0010
0000
0100
,
0000
0010
0000
1000
,
0000
0000
0000
1000
,
0000
0000
0000
0010
,
0000
0100
0000
0010
,
0000
0100
0000
0001
,
0000
0000
0000
0001
,
0000
0000
0000
1000
,
0000
0001
0000
2002
,
0000
3003
0000
0001
,
0000
0000
0000
0001
,
0000
0000
0000
0100
,
0000
0010
0000
1000
,
0000
0100
0000
0010
,
0000
0000
0000
0010
,
0000
0000
0000
0001
,
0000
0010
0000
0100
,
0000
1000
0000
0100
,
0000
0000
0000
0100
,
0000
0000
0000
1000
,
0000
0010
0000
0100
,
0000
0001
0000
0010
,
0000
0000
0000
0010
,
0000
0000
0000
0001
,
0000
1000
0000
2002
,
0000
3003
0000
1000
,
0000
0010
0000
1000
,
0000
0100
0000
1000
,
0000
0001
0000
1000
,
0000
0000
0000
0001
,
0000
0010
0000
0001
,
0000
0100
0000
0001
,
0000
0010
0000
0100
,
0000
0000
0000
1000
,
0000
0100
0000
1000
,
0000
0100
0000
0010
,
0000
0001
0000
0100
,
0000
0000
0000
0001
,
0000
0010
0000
0100
,
0000
1000
0000
0001
,
0000
1000
0000
2002
,
0000
3003
0000
1000
,
0000
0010
0000
0100
,
0000
0010
0000
1000
,
0000
0001
0000
0010
,
0000
0000
0000
0001
,
0000
0100
0000
0001
,
0000
0010
0000
0100
,
0000
1000
0000
0001
,
0000
0000
0000
0100
,
0000
0010
0000
1000
,
0000
0010
0000
0100
,
0000
0001
0000
0010
,
0000
0000
0000
0100
,
0000
1000
0000
0010
,
0000
0100
0000
0001
,
0000
1000
0000
2002
,
0000
3003
0000
1001
,
0000
0000
1010
0000
,
0000
1001
0000
1000
,
0000
0100
0000
1001
,
0000
0000
0000
1001
,
0000
0000
0011
0000
,
0000
1001
0000
1000
,
0000
0010
0000
0110
,
0000
0000
0000
1001
,
0000
0000
0011
0000
,
0000
1001
0000
1000
,
0000
0100
0000
1001
,
0000
0000
0000
1001
,
0000
0000
1010
0000
,
0000
1001
0000
1000
,
0000
0001
0000
2002
,
0000
3003
0000
1001
,
0000
0000
0011
0000
,
0000
1001
0000
1000
,
0000
0010
0000
1001
,
0000
0000
0000
1001
,
0000
0000
1010
0000
,
0000
1001
0000
0001
,
0000
0010
0000
0110
,
0000
0000
0000
1001
,
0000
0000
0011
0000
,
0000
1001
0000
1000
,
0000
0010
0000
1001
,
0000
0000
0000
1000
,
0000
1000
0000
0001
,
0000
0001
0000
0100
,
0010
0100
0000
0010
,
0100
0010
0000
1002
,
0000
2003
0000
0000
,
0000
3000
0000
0000
,
0000
0002
0000
0000
,
0000
0003
0000
0000
,
0000
2000
0000
0000
,
0000
3000
0000
0000
,
0000
0002
0000
0000
,
0000
1003
0000
1001
,
0000
1000
0000
1000
,
0000
1000
0010
0000
,
0010
0000
0100
0000
,
0100
0000
0100
0001
,
0000
0001
0000
0010
,
0000
0010
0000
0010
,
0100
0000
0100
0000
,
1000
1000
0001
0001
,
1000
0000
0100
0000
,
0010
0000
1001
0000
,
0001
0000
0000
0000
,
0001
0000
0000
0000
,
0100
0000
0010
0000
,
0100
0000
0010
0000
,
1000
0000
0000
0000
,
1000
0000
0000
0000
,
0100
0000
0010
0000
,
0100
0000
0010
0000
,
0001
0000
0000
0000
,
0001
0000
0000
0000
,
1000
0000
0010
0000
,
0100
0000
0001
0000
,
0010
0000
0000
0000
,
0010
0000
0000
0000
,
0001
0000
1000
0000
,
2002
0000
3003
0000
,
1000
0000
0000
0000
,
1000
0000
0000
0000
,
0100
0000
1000
0000
,
0100
0000
0010
0000
,
0001
0000
0000
0000
,
0001
0000
0000
0000
,
0100
0000
0001
0000
,
0100
0000
0010
0000
,
1000
0000
0000
0000
,
1000
0000
0000
0000
,
0100
0000
1000
0000
,
0100
0000
0010
0000
,
0001
0000
0000
0000
,
0001
0000
0000
0000
,
1000
0000
0001
0000
,
2002
0000
3003
0000
,
1000
0000
0010
0000
,
1000
0000
0100
0000
,
0010
0000
0001
0000
,
0100
0000
0000
0000
,
0001
0000
0010
0000
,
0001
0000
0100
0000
,
0010
0000
1000
0000
,
0100
0000
0000
0000
,
1000
0000
0010
0000
,
1000
0000
0001
0000
,
0100
0000
0001
0000
,
0010
0000
0000
0000
,
0100
0000
1000
0000
,
0010
0000
0100
0000
,
0001
0000
1000
0000
,
1001
0000
0000
0000
,
2000
0000
0000
0000
,
0000
0000
0000
0000
,
3001
0000
0010
0000
,
0100
0000
1000
0000
,
0002
0000
0000
0000
,
0000
0000
0000
0000
,
1003
0000
0010
0000
,
0100
0000
0001
0000
,
1000
0000
0001
0000
,
2002
0000
3003
0000
,
0001
0000
1000
0000
,
2002
0000
3003
0000
,
1000
0000
1000
0000
,
0001
0000
0001
0000
,
0100
0010
0100
0000
,
0010
0100
0010
0000
,
2002
0000
0000
0000
,
0000
0000
0000
0000
,
3003
0000
0000
0000
;

//--------------- dance-single - ----------------
#NOTES:
     dance-single:
     :
     Easy:
     13:
     0.564052,0.814892,0.496501,0.662001,0,501,438,63,84,0,0,0.564052,0.814892,0.496501,0.662001,0,501,438,63,84,0,0:
0000
0000
0000
0000
,
0000
0000
0000
0000
,
0000
0000
0000
0000
,
0000
0000
0000
0000
,
2002
0000
0000
0000
,
3003
0000
0000
0000
,
1000
1000
0001
0001
,
0100
0010
0100
0010
0100
0000
1000
0000
,
0010
0100
0000
0100
,
0001
1000
0000
1000
,
0100
0010
0002
0000
,
0020
0033
0000
0001
,
0100
0010
0000
0010
,
1000
0100
0000
0100
,
0010
0001
2000
0000
,
0200
3300
0000
1000
,
0001
0100
0000
0100
,
0001
0010
0000
0010
,
0001
1000
0200
0000
,
0020
0330
0000
0001
,
0100
0010
0000
0010
,
1000
0100
0000
2000
,
0000
3002
0000
2000
,
0000
3003
0000
0001
,
0100
0010
0000
0010
,
1000
0001
0000
0001
,
0010
0100
2000
0000
,
0200
3300
0000
1000
,
0010
0100
0000
0100
,
0001
1000
0000
1000
,
0100
0010
0002
0000
,
0020
0033
0000
0100
,
1000
0100
0000
0100
,
0010
0001
0000
0001
,
0100
0010
2000
0000
,
0200
3300
0000
1000
,
0100
0010
0000
0010
,
0001
0100
0000
0002
,
0000
2003
0000
0002
,
3003
0000
0000
1000
,
0100
1000
0000
0001
,
0100
0001
0000
0100
,
0010
0100
0000
0110
,
0000
1001
0000
1000
,
0010
1000
0000
0001
,
0010
0001
0000
0100
,
0010
0100
0000
1001
,
0000
0110
0000
0100
,
0010
0100
0000
0010
,
1000
0010
0000
1000
,
0001
1000
0000
0110
,
0000
1001
0000
1000
,
0100
0010
0000
0001
,
0010
0100
0000
2000
,
0000
3002
0000
2000
,
0000
3003
0000
0001
,
0100
0001
0000
1000
,
0100
1000
0000
0010
,
0100
0010
0000
0110
,
0000
1001
0000
0001
,
0010
0001
0000
1000
,
0100
1000
0000
0010
,
1000
0010
0000
0110
,
0000
1001
0000
1000
,
0010
1000
0000
0001
,
0100
0001
0000
0100
,
0010
0100
0000
0110
,
0000
1001
0000
0001
,
0010
0100
0000
1000
,
0100
0010
0000
0002
,
0000
2003
0000
0002
,
0000
3003
0000
0002
,
0000
0000
0203
0000
,
0000
0302
0000
1003
,
0100
1000
0000
0110
,
0000
1001
0000
2000
,
0000
0000
3200
0000
,
0000
2300
0000
3001
,
0010
0001
0000
0110
,
0000
1001
0000
0002
,
0000
0000
0023
0000
,
0000
0230
0000
1300
,
0010
1000
0000
0110
,
0000
1001
0000
2000
,
0000
0000
3200
0000
,
0000
0320
0000
0032
,
0000
2003
0000
0002
,
0000
3003
0000
2000
,
0000
0000
3020
0000
,
0000
0230
0000
0310
,
1000
0010
0000
0110
,
0000
1001
0000
0002
,
0000
0000
0023
0000
,
0000
0032
0000
0013
,
0001
0010
0000
0110
,
0000
1001
0000
2000
,
0000
0000
3200
0000
,
0000
2300
0000
3100
,
0010
0001
0000
0110
,
0000
1001
0000
1000
,
0001
1000
0000
0001
,
1000
0001
0000
0100
,
0010
0100
0010
0100
,
0010
0100
0000
1002
,
0000
2003
0000
0000
,
0000
3100
0000
0000
,
0000
0002
0000
0000
,
0000
0103
0000
0000
,
0000
0020
0000
0000
,
0000
1030
0000
1001
,
0000
0200
0000
0000
,
0000
0301
0000
1001
,
0000
1001
0000
0110
,
0000
1001
1000
0100
,
0011
0000
1001
0000
,
0110
0000
1001
0001
,
0010
1100
0000
1001
,
0000
0110
0000
1001
,
1000
0010
0101
0000
,
1000
1000
0001
0001
,
1000
0010
0100
0000
,
0110
0000
1001
0000
,
1000
0001
0010
0000
,
0010
0001
0100
0000
,
0010
1000
0100
0020
,
0000
0002
0033
0000
,
0010
0001
1000
0000
,
1000
0100
0010
0000
,
0010
0001
0100
0020
,
0000
2000
3030
0000
,
0010
1000
0100
0000
,
0100
1000
0010
0000
,
0010
0100
0001
0020
,
0000
0200
0330
0000
,
1000
0100
0010
0000
,
0010
0001
0100
0000
,
0020
0000
2030
0000
,
0002
0000
3003
0000
,
1000
0010
0100
0000
,
0100
0010
1000
0000
,
1000
0010
0100
0002
,
0000
0200
0303
0000
,
0100
0001
0010
0000
,
0010
0001
1000
0000
,
1000
0010
0100
0002
,
0000
2000
3003
0000
,
0001
0100
0010
0000
,
0010
1000
0100
0000
,
0100
1000
0001
0200
,
0000
0020
0330
0000
,
0010
1000
0100
0000
,
0100
1000
0001
0000
,
0200
0000
0302
0000
,
2000
0000
3003
0000
,
1000
0100
0010
0000
,
0001
0010
0100
0000
,
1000
0001
0010
0000
,
0110
0000
1001
0000
,
0001
0010
0100
0000
,
1000
0010
0100
0000
,
0001
1000
0010
0000
,
0110
0000
1001
0000
,
1000
0010
0100
0000
,
0001
0010
0100
0000
,
0010
0001
1000
0000
,
0110
0000
1001
0000
,
1000
0010
0100
0000
,
0001
0100
0010
0000
,
2000
0000
3002
0000
,
2000
0000
3003
0000
,
2000
0000
0000
0000
,
0000
0000
0000
0000
,
3001
0010
0100
0000
,
1100
0000
1001
0000
,
0002
0000
0000
0000
,
0000
0000
0000
0000
,
1003
0010
0100
0000
,
0101
0000
1001
0000
,
1001
0000
0110
0000
,
2002
0000
3003
0000
,
0110
0000
1001
0000
,
0220
0000
0330
0000
,
1100
0000
1100
0000
,
0011
0000
0011
0000
,
1000
0000
0001
0000
,
1000
0001
1000
0001
,
2002
0000
0000
0000
,
0000
0000
0000
0000
,
3003
0000
0000
0000
;

//--------------- dance-single - ----------------
#NOTES:
     dance-single:
     :
     Medium:
     16:
     0.770083,1.185297,0.551668,0.756573,0,684,614,70,96,0,0,0.770083,1.185297,0.551668,0.756573,0,684,614,70,96,0,0:
0000
0000
0000
0000
,
0000
0000
0000
0000
,
0000
0000
0000
0000
,
0000
0000
0000
0000
,
2002
0000
0000
0000
,
3003
0000
0000
0000
,
1010
0010
0110
0100
,
0001
0010
0100
1000
1001
0000
1000
0000
,
0010
0100
0001
0000
,
0001
0000
1000
0000
0010
0100
0010
0000
,
0100
0001
2000
0000
,
0020
0000
3000
1030
,
0010
0100
0001
0000
,
0001
0000
1000
0000
0010
0100
0010
0000
,
0100
0001
0020
0000
,
0002
0000
0030
1003
,
0010
0100
0001
0000
,
0001
0000
1000
0000
0010
0100
0010
0000
,
0100
0001
2000
0000
,
0020
0000
3000
1030
,
0010
0100
0001
0000
,
0001
0000
1000
0000
0001
0000
1000
0001
,
1000
0000
0010
0100
0010
0000
2002
0000
,
0000
3003
0000
1000
,
0010
0100
0010
0000
,
0010
0000
1000
0000
0001
1000
0001
0000
,
1000
0010
0200
0000
,
0020
0000
0300
1030
,
0100
0010
0100
0000
,
0100
0000
1000
0000
0001
1000
0001
0000
,
0010
0100
0020
0000
,
0200
0000
0030
1300
,
0010
0100
0010
0000
,
0010
0000
1000
0000
0001
1000
0001
0000
,
0100
0010
0200
0000
,
0020
0000
0300
1030
,
0100
0010
0100
0000
,
0100
0000
1000
0000
0100
0000
1000
0001
,
1000
0000
0100
0010
0100
0000
2002
0000
,
0000
3003
0000
1000
,
0010
0100
0001
0100
,
0010
0000
1000
0000
0001
0010
0001
0000
,
1000
0100
2100
0000
,
0000
0001
0001
3001
,
0100
0010
1000
0100
,
0010
0000
0001
0000
0100
0010
0100
0000
,
0001
0100
0102
0000
,
0000
1000
1000
1003
,
0010
0100
0001
0010
,
0100
0000
1000
0000
0001
0010
0001
0000
,
1000
0010
2010
0000
,
0000
0001
0001
3001
,
0100
0010
1000
0100
,
0010
0000
0001
0000
0100
0000
0001
1000
,
0001
0000
0100
0010
0100
0000
2002
0000
,
0000
3003
0000
0001
,
0100
0010
1000
0100
,
0010
0000
0001
0000
1000
0100
1000
0000
,
0001
0010
0012
0000
,
0000
1000
1000
1003
,
0010
0100
0001
0010
,
0100
0000
1000
0000
0001
0010
0001
0000
,
0100
0010
2010
0000
,
0000
0001
0001
3001
,
0010
0100
0010
0001
,
1000
0000
0100
0000
1000
0010
1000
0000
,
0001
0100
0102
0000
,
0000
1000
1000
1003
,
0010
0100
0001
0010
,
0100
0000
1000
0000
0001
0000
1000
0001
,
1000
0000
0010
0100
0010
0000
2002
0000
,
0000
3003
0000
2010
,
0000
3001
0102
0000
,
1003
2010
0000
3001
,
0010
0100
1000
2001
,
0000
3010
0000
0102
,
0000
1003
2100
0000
,
3001
0102
0000
1003
,
0010
0100
0001
1002
,
0000
0103
0000
2010
,
0000
3001
0012
0000
,
1003
2010
0000
3001
,
0100
0010
1000
2001
,
0000
3010
0000
0102
,
0000
1003
2010
0000
,
3001
0000
0202
0000
0303
0000
1000
0001
,
1000
0000
0010
0100
0010
0000
2002
0000
,
0000
3003
0000
2100
,
0000
3010
0102
0000
,
1003
2010
0000
3001
,
0010
0100
1000
2001
,
0000
3010
0000
0012
,
0000
1003
2100
0000
,
3001
0012
0000
1003
,
0010
0100
0001
1002
,
0000
0103
0000
2010
,
0000
3001
0012
0000
,
1003
2100
0000
3010
,
0100
0001
0010
0012
,
0000
0000
1003
0000
0000
0000
1000
0100
,
1000
0000
0001
0000
1000
0000
0001
0010
,
0001
0000
1000
0000
0001
0000
1000
0100
,
1000
0000
0100
0010
0100
0000
0010
0001
,
0010
0000
0001
1000
0001
0000
1000
1010
,
0001
0011
2000
0000
0000
0000
0000
0000
,
0000
3100
0000
0000
,
0000
0002
0000
0000
,
0000
0103
0000
0000
,
0000
0000
0020
0000
0000
1000
0000
0000
,
1000
1030
0000
1001
,
0000
0000
0200
0000
0000
0001
0000
0000
,
0001
0000
0301
0000
0000
0011
0000
0000
,
1001
1000
0010
0100
,
0001
0010
0101
1010
,
1001
0110
0001
1000
,
0100
0010
0001
1100
,
1010
1001
0101
1000
,
0010
0100
0001
0010
,
1100
0110
0011
1001
,
0001
0010
0100
1000
,
0001
0100
0010
1000
,
0010
0100
0002
0000
,
1003
0001
0010
0100
,
0000
0000
0100
0000
1000
0000
0001
0010
,
0001
0100
0010
2000
,
0000
0020
0000
3000
,
1030
0001
0100
0010
,
0000
0000
0010
0000
1000
0000
0001
0010
,
0001
0100
0010
2000
,
0000
0020
0000
3000
,
1030
0100
0010
0001
,
0000
0000
0001
0000
1000
0000
0100
1000
,
0100
0010
0001
0200
,
0000
0020
0000
0300
,
1030
0010
0100
0001
,
0000
0001
0010
0100
,
1000
0001
1000
0000
0010
0100
0010
0000
,
2002
0000
3003
0000
,
1000
0001
0010
0100
,
0000
0000
0100
0000
0010
0000
0001
0010
,
0001
0010
0100
0020
,
0000
0002
0000
0030
,
1003
0010
0100
0001
,
0000
0000
0001
0000
1000
0000
0010
0100
,
0010
1000
0100
0020
,
0000
0200
0000
0030
,
1300
0010
0100
0010
,
0000
0000
0010
0000
1000
0000
0010
1000
,
0010
1000
0100
2000
,
0000
0020
0000
3000
,
1030
0010
0100
0001
,
0000
0001
0010
0100
,
1000
0001
1000
0000
0100
0010
0100
0000
,
2002
0000
3003
0000
,
1000
0010
0100
0001
,
0010
0000
0100
0000
0010
0000
0001
0010
,
0001
0100
0010
2100
,
0000
0000
0001
0001
,
3001
0100
0010
1000
,
0100
0000
0010
0000
0001
0000
1000
0100
,
1000
0010
0100
0102
,
0000
0000
1000
1000
,
1003
0010
0100
0001
,
0010
0000
0100
0000
1000
0000
0010
0100
,
0010
0100
0001
2100
,
0000
0000
0001
0001
,
3001
0100
0010
1000
,
0100
0010
0001
1000
,
0001
1000
0001
0000
0100
0010
0100
0000
,
2002
0000
3003
0000
,
0002
0000
0000
0000
,
0000
0000
0000
0000
,
1003
0100
0010
0001
,
0100
0010
1000
0001
,
2000
0000
0000
0000
,
0000
0000
0000
0000
,
3001
0010
0100
1000
,
0010
0100
0001
1000
,
0100
1000
0100
0000
1000
0000
0001
0000
,
2002
3003
0220
0330
,
0010
0001
0010
0000
0001
0000
1000
0000
,
2002
3003
0220
0330
,
1000
0001
1000
0000
0010
0000
0100
0000
,
0001
1000
0001
0000
0010
0000
0100
0000
,
1000
0010
1000
0000
0010
0100
0010
0000
,
0100
0001
0100
0000
0001
1000
0001
0000
,
2002
0000
0000
0000
,
0000
0000
0000
0000
,
3003
0000
0000
0000
;

//--------------- dance-single - ----------------
#NOTES:
     dance-single:
     :
     Hard:
     18:
     0.989624,1.333459,0.709287,0.464977,0.110334,879,789,90,59,0,0,0.989624,1.333459,0.709287,0.464977,0.110334,879,789,90,59,0,0:
0000
0000
0000
0000
,
0000
0000
0000
0000
,
0000
0000
0000
0000
,
0000
0000
0000
0000
,
2002
0000
0000
0000
,
3003
0000
0000
0000
,
1020
0001
0100
1030
,
0001
0010
1000
0010
1001
0000
1000
0000
,
0010
0100
0001
0010
,
0100
0000
1000
0000
0001
0010
0001
0000
,
0100
0010
2020
3030
,
2020
0000
3030
1000
,
0001
0010
0100
0010
,
0001
0000
0100
0000
0010
1000
0010
0000
,
0100
0001
0022
0033
,
0022
0000
0033
0001
,
0100
0010
1000
0100
,
1000
0000
0010
0000
0100
0001
0100
0000
,
0001
1000
2200
3300
,
2200
0000
3300
1000
,
0010
0100
0001
0010
,
0100
0000
1000
0000
0001
0000
1000
0100
,
1000
0000
0100
0010
0100
0000
0010
0001
,
0010
0000
0001
1000
0001
0000
1000
0000
,
0010
0100
0001
0010
,
0100
0000
1000
0000
0010
1000
0010
0000
,
0100
0001
0022
0033
,
2200
0000
3300
1000
,
0010
0100
0001
0010
,
0100
0000
1000
0000
0001
0010
0001
0000
,
0100
0010
2020
3030
,
0202
0000
0303
0001
,
0100
0010
1000
0100
,
0010
0000
0001
0000
0100
0001
0100
0000
,
0010
1000
2200
3300
,
0022
0000
0033
0001
,
0100
0010
1000
0100
,
0010
0000
0001
0000
1000
0000
0001
0100
,
0001
0000
0100
0010
0100
0000
0010
1000
,
0010
0000
1000
0001
1000
0000
0001
0000
,
0100
1000
0100
0001
,
0010
0000
0100
0000
1000
0100
0010
0000
,
0001
0000
0000
0000
0010
0000
0000
0000
0001
0010
0001
0000
0000
0000
0000
0000
,
0000
0000
1000
0100
1000
0100
1000
0000
,
0010
0001
0010
1000
,
0100
0000
0010
0000
0001
0010
0100
0000
,
1000
0000
0000
0000
0100
0000
0000
0000
1000
0100
1000
0000
0000
0000
0000
0000
,
0000
0000
0001
0010
0001
0010
0001
0000
,
0100
1000
0100
0001
,
0010
0000
0100
0000
1000
0100
0010
0000
,
0001
0000
0000
0000
0010
0000
0000
0000
0001
0010
0001
0000
0000
0000
0000
0000
,
0000
0000
1000
0100
1000
0100
1000
0000
,
0010
0001
0010
1000
,
0100
0000
0010
0000
0001
0000
1000
0010
,
1000
0000
0010
0100
0010
0000
0100
0010
,
0100
0000
0001
0100
0001
0000
1000
0000
,
0010
0001
0010
1000
,
0100
0000
0001
0000
0100
1000
0010
0000
,
0100
0000
0000
0000
0001
0000
0000
0000
1000
0001
1000
0000
0000
0000
0000
0000
,
0000
0000
0001
0010
0001
0010
0001
0000
,
0100
1000
0100
0001
,
0010
0000
1000
0000
0010
0001
0100
0000
,
0010
0000
0000
0000
1000
0000
0000
0000
0001
1000
0001
0000
0000
0000
0000
0000
,
0000
0000
1000
0100
1000
0100
1000
0000
,
0010
0001
0010
1000
,
0100
0000
0001
0000
0100
1000
0010
0000
,
0100
0000
0000
0000
0001
0000
0000
0000
1000
0001
1000
0000
0000
0000
0000
0000
,
0000
0000
0001
0010
0001
0010
0001
0000
,
0100
1000
0100
0001
,
0010
0000
0100
0000
1000
0000
0001
0010
,
0001
0000
0010
0100
0010
0000
0100
0010
,
0100
0000
1000
0100
1000
0000
0011
0000
,
0000
1001
1100
0000
,
1001
1010
0000
1000
,
1000
0000
1000
0000
1000
0000
1000
0001
,
1000
0001
0100
0101
,
0000
1010
1001
0000
,
1100
0011
0000
0001
,
0001
0000
0001
0000
0001
0000
0001
1000
,
0001
0100
0010
1010
,
0000
1001
1100
0000
,
0011
1001
0000
1000
,
1000
0000
1000
0000
1000
0000
1000
0001
,
1000
0001
0100
1010
,
0000
1100
0011
0000
,
0101
0000
1001
0000
0000
0000
0001
0010
,
0001
0000
1000
0001
1000
0000
0001
1000
,
0001
0000
1000
0100
1000
0000
1100
0000
,
0000
0011
1001
0000
,
0101
1010
0000
1000
,
1000
0000
1000
0000
1000
0000
1000
0001
,
1000
0001
0100
1010
,
0000
0101
1001
0000
,
0011
1001
0000
0001
,
0001
0000
0001
0000
0001
0000
0001
1000
,
0001
0100
0010
1010
,
0000
1001
0011
0000
,
1100
1001
0000
1000
,
1000
0000
1000
0000
1000
0000
1000
0001
,
1000
0000
0001
0000
0100
0000
0010
1000
,
0010
0000
0100
0000
0010
0000
0100
0001
,
0100
0000
0001
0000
1000
0000
0100
1000
,
0100
0000
0010
0001
0010
0000
0001
1000
,
0001
1000
0001
1000
0001
0000
1000
1100
,
0010
0011
2000
0000
0000
0000
0000
0000
,
0000
3100
0000
0000
,
0000
0002
0000
0000
,
0000
0103
0000
0000
,
0000
0000
0020
0000
0000
1000
0000
0000
,
1000
1030
0000
1001
,
0000
0000
0200
0000
0000
0001
0000
0000
,
0001
0000
0301
0010
0100
1000
0001
0000
,
1001
0000
0000
0000
1000
0010
0000
0000
0100
0000
0000
0000
0001
0100
0000
0000
,
0010
0000
0000
0000
1000
0100
0000
0000
0010
0001
0000
0000
1000
0010
0000
0000
,
1001
0000
0000
0000
0110
0000
0000
0000
0001
0010
0000
0000
0100
0000
0000
0000
,
1000
0010
0000
0000
0100
0000
0000
0000
0001
0100
0000
0000
0010
1000
0000
0000
,
0001
0100
0000
0000
1001
0000
0000
0000
0110
0000
0000
0000
0001
0100
0000
0000
,
1000
0000
0000
0000
0100
0001
0000
0000
0010
0000
0000
0000
1000
0010
0000
0000
,
0001
0100
0000
0000
1000
0100
0000
0000
1001
0000
0000
0000
0110
0000
0000
0000
,
1000
0100
0000
0000
0010
0001
0000
0000
1000
0100
0000
0000
0010
0001
0000
0000
,
1000
1000
0100
0100
,
0010
0010
2002
3003
,
1000
0001
0010
1100
,
0000
0000
1000
0000
1100
0000
1000
0010
,
0100
0001
0010
2200
,
3300
0022
0000
0033
,
0001
0100
0010
1010
,
0000
0000
0001
0000
0011
0000
0001
0100
,
0010
1000
0100
0022
,
0033
2200
0000
3300
,
1000
0010
0100
0101
,
0000
0000
1000
0000
1100
0000
1000
0010
,
0100
0001
0010
2200
,
3300
0022
0000
0033
,
0001
0100
0010
1010
,
0000
1000
1100
0001
,
1000
0100
1000
0000
0100
0010
0100
0000
,
0010
0001
0010
0000
0001
1000
0001
0000
,
1000
0010
0100
0101
,
0000
0000
0001
0000
0011
0000
0001
0010
,
0100
1000
0100
0022
,
0033
2200
0000
3300
,
1000
0010
0100
0101
,
0000
0000
1000
0000
1100
0000
1000
0100
,
0010
0001
0010
2200
,
3300
0022
0000
0033
,
1000
0010
0100
0101
,
0000
0000
0001
0000
0011
0000
0001
0010
,
0100
1000
0001
2020
,
3030
0202
0000
0303
,
0001
0100
0010
1010
,
0000
1000
1100
0001
,
1000
0010
1000
0000
0100
0010
0100
0000
,
0001
0100
0001
0000
1000
0001
1000
0000
,
0001
0010
1000
0010
,
0001
0000
0100
0000
1000
0000
0100
0001
,
0010
0000
0000
0000
0100
0000
0000
0000
1000
0000
0000
0000
0001
0010
0001
0000
,
0000
0000
0000
0000
1000
0100
1000
0100
,
1000
0100
0001
0100
,
1000
0000
0010
0000
0001
0000
0010
1000
,
0100
0000
0000
0000
0010
0000
0000
0000
0001
0000
0000
0000
1000
0100
1000
0000
,
0000
0000
0000
0000
0001
0010
0001
0010
,
0001
0100
1000
0100
,
0001
0000
0010
0000
1000
0000
0010
0001
,
0100
0000
0000
0000
0010
0000
0000
0000
1000
0000
0000
0000
0001
0010
0001
0000
,
0000
0000
0000
0000
1000
0100
1000
0100
,
1000
0010
0001
0010
,
0100
0001
0010
0100
,
1000
0010
1000
0000
0010
0100
0010
0000
,
0100
0010
0100
0000
0001
1000
0001
0000
,
1000
0100
1000
0100
1000
0100
1000
0100
,
1000
0100
1000
0100
1000
0100
1000
0100
,
1000
0000
0010
0000
0100
0000
0001
0010
,
0001
1000
0010
1000
,
0001
0100
0001
0100
0001
0100
0001
0100
,
0001
0100
0001
0100
0001
0100
0001
0100
,
0001
0000
0100
0000
0010
0000
1000
0010
,
1000
0100
1000
0010
,
1000
0100
1000
0100
1000
0010
1000
0010
,
1000
0010
0100
0001
,
0010
0001
0010
0001
0010
0100
0010
0100
,
0010
0001
0100
0010
,
1000
0100
1000
0010
1000
0100
1000
0000
,
0001
0100
0001
0010
0001
0100
0001
0000
,
1000
0010
0100
0001
0010
0100
1000
0010
,
0100
0001
0010
0100
1000
0010
0100
0001
,
2002
0000
0000
0000
,
0000
0000
0000
0000
,
3003
0000
0000
0000
;

//--------------- dance-single - ----------------
#NOTES:
     dance-single:
     :
     Challenge:
     18:
     1.062805,1.407541,0.662001,0.748692,0,944,860,84,95,0,0,1.062805,1.407541,0.662001,0.748692,0,944,860,84,95,0,0:
0000
0000
0000
0000
,
0000
0000
0000
0000
,
0000
0000
0000
0000
,
0000
0000
0000
0000
,
2002
0000
0000
0000
,
3003
0000
0000
0000
,
0011
1010
1100
0101
,
1000
0100
0001
1000
1001
0000
1000
0000
,
0010
1000
0100
0010
,
0001
0000
0100
0000
0010
1000
0010
0000
,
0100
0001
0022
0033
,
1100
0000
1000
0010
0001
0010
1000
0000
,
0100
0010
0001
0100
,
0010
0000
1000
0000
0100
1000
0100
0000
,
1000
0001
0022
0033
,
1100
0000
1000
0010
0100
0001
0010
0000
,
0001
0100
0010
1000
,
0100
0000
0010
0000
0001
0010
0001
0000
,
0100
0010
2020
3030
,
0101
0000
0001
0010
1000
0010
0001
0000
,
0100
0010
1000
0100
,
0010
0000
0001
0000
0100
0000
0010
1000
,
0010
0100
0001
1000
0001
0010
0100
0010
,
0100
0010
0001
0100
0001
0000
1000
0000
,
0001
0100
0010
1000
,
0100
0000
0010
0000
0001
0100
0001
0000
,
1000
0010
0202
0303
,
1010
0000
1000
0100
0001
0100
1000
0000
,
0010
0100
0001
0010
,
0100
0000
1000
0000
0010
0100
0010
0000
,
0100
0001
0022
0033
,
1100
0000
1000
0010
0100
0001
0010
0000
,
0001
0100
0010
1000
,
0100
0000
0010
0000
0100
1000
0100
0000
,
1000
0010
0202
0303
,
1010
0000
1000
0010
0001
0010
1000
0000
,
0100
0010
0001
0100
,
0010
0000
1000
0000
0001
0000
1000
0100
,
1000
0100
0010
0001
0010
0001
0100
0010
,
0100
0001
1000
0100
1000
0000
0010
0000
,
1000
0001
0100
0000
0001
0000
1000
0001
,
0010
0000
0100
0000
1000
0001
0010
0000
,
0100
0000
1000
0001
0100
0000
0010
0000
,
1000
0001
0100
0001
,
1000
0100
0010
0000
0001
0000
0100
0010
,
1000
0000
0010
0000
0100
0001
1000
0000
,
0100
0000
0010
0001
1000
0000
0010
0000
,
0100
0001
0010
0001
,
0100
0001
0010
0000
0100
0000
1000
0010
,
0100
0000
0001
0000
0010
0100
1000
0000
,
0010
0000
1000
0001
0100
0000
0010
0000
,
1000
0010
0100
0001
,
0010
0100
1000
0000
0100
0000
0010
0001
,
1000
0000
0010
0000
0100
0000
0001
0010
,
0001
0010
0100
1000
0100
1000
0010
0100
,
0010
0100
0001
0010
0001
0000
1000
0000
,
0001
0100
0010
0000
0001
0000
0010
1000
,
0100
0000
0010
0000
0001
0100
0010
0000
,
0001
0000
0010
1000
0100
0000
0010
0000
,
0001
0100
0001
1000
,
0001
0100
0010
0000
0001
0000
0010
1000
,
0100
0000
0010
0000
0001
0100
0010
0000
,
0001
0000
0010
1000
0100
0000
0010
0000
,
0001
0100
0010
1000
,
0100
0001
0100
0000
1000
0000
0010
0001
,
0010
0000
1000
0000
0100
0001
0100
0000
,
1000
0000
0010
0001
0010
0000
1000
0000
,
0010
0100
0001
1000
,
0010
0001
0010
0000
1000
0000
0100
0001
,
0100
0000
1000
0000
0001
0000
1000
0100
,
1000
0100
1000
0100
0010
0001
0010
0001
,
0100
0010
1000
0100
0010
0000
0021
0000
,
0000
0100
0100
0000
,
1000
1000
0000
0031
,
0110
0000
0110
0000
1000
0000
0001
0010
,
1000
0010
0001
1200
,
0000
0010
0010
0000
,
0001
0001
0000
1300
,
0110
0000
0110
0000
0001
0000
1000
0010
,
0001
0010
1000
0201
,
0000
0010
0010
0000
,
1000
1000
0000
0301
,
0110
0000
0110
0000
1000
0000
0001
0100
,
1000
0100
0001
1020
,
0000
0100
0100
0000
,
0001
0000
0001
0000
0000
0000
1030
0100
,
1000
0100
0010
0001
0010
0001
0100
0010
,
0100
0010
1000
0100
1000
0000
1200
0000
,
0000
0010
0010
0000
,
0001
0001
0000
1300
,
0110
0000
0110
0000
0001
0000
1000
0010
,
0001
0010
1000
0021
,
0000
0100
0100
0000
,
1000
1000
0000
0031
,
0110
0000
0110
0000
1000
0000
0001
0010
,
1000
0010
0001
0201
,
0000
0010
0010
0000
,
1000
1000
0000
0301
,
0110
0000
0110
0000
1000
0000
0001
0010
,
1000
0000
0010
0000
0001
0000
1000
0100
,
0001
0100
1000
0000
1001
0000
1000
0010
,
0001
0010
1000
0000
1001
0000
1000
0100
,
0001
0100
1000
0010
0001
0010
1000
0100
,
0001
0100
1000
0010
0001
0010
1000
1010
,
0001
0101
2000
0000
0000
0000
0000
0000
,
0000
3100
0000
0000
,
0000
0002
0000
0000
,
0000
0103
0000
0000
,
0000
0000
1020
0000
0000
0001
0000
0000
,
0100
1030
0000
2002
,
3003
0000
0201
0000
0000
0010
0000
0000
,
1000
0310
0000
2002
,
3003
0000
0022
0000
0000
0033
2200
0000
,
0000
3300
2020
3030
0022
0033
2200
3300
,
0220
0330
2002
3003
0022
0000
0000
0033
,
2020
0000
0000
3030
2200
3300
0022
0033
,
0220
0330
2200
3300
0022
0033
0202
0000
,
0000
0303
2200
0000
0000
3300
0022
0033
,
2200
3300
2020
3030
0220
0330
2002
3003
,
2200
3300
0202
0303
0022
0033
2020
3030
,
1000
0100
0001
1000
,
0010
0001
2002
3003
,
1000
0010
0001
0010
,
0100
0000
0001
0000
0010
0000
0100
1000
,
0010
0100
0001
0022
,
0033
0000
1100
0000
1000
0010
0100
0001
,
0010
1000
0010
0001
,
0100
0000
0010
0000
1000
0000
0100
0010
,
0001
0100
0010
2020
,
3030
0000
0101
0000
0001
0010
1000
0010
,
0001
0100
1000
0100
,
0010
0000
1000
0000
0100
0000
0010
0001
,
0100
0010
1000
2020
,
3030
0000
0101
0000
0001
0100
0010
1000
,
0100
0010
0001
0100
,
0010
1000
0100
0010
,
0001
0100
0001
0100
0010
1000
0010
1000
,
0100
0010
0100
0010
0001
0100
0001
0000
,
0100
0001
0100
1000
,
0100
0000
0001
0000
0010
0000
0100
1000
,
0010
0100
0001
0022
,
0033
0000
1100
0000
1000
0010
0100
0001
,
0010
0001
0010
1000
,
0010
0000
0001
0000
0100
0000
0010
1000
,
0100
0010
0001
2020
,
3030
0000
0101
0000
0001
0100
1000
0100
,
0001
0010
1000
0010
,
0001
0000
0100
0000
0010
0000
1000
0100
,
0010
0001
1000
0202
,
0303
0000
1010
0000
0001
0100
0010
1000
,
0001
0100
1000
0100
,
0001
0010
0100
1000
,
0001
0100
0001
0100
0010
1000
0010
1000
,
0100
0010
0001
0100
0010
1000
0100
0000
,
1000
0000
0001
0100
0010
0000
1000
0000
,
0100
0010
0001
0000
0100
0000
0010
1000
,
0001
0000
0010
0000
0001
0100
0010
0000
,
1000
0100
0010
0001
,
1000
0000
0010
0100
0001
0000
0010
0000
,
0100
0010
0001
0000
1000
0000
0010
0100
,
0001
0000
0010
0000
0100
1000
0010
0000
,
0100
0001
0010
0100
,
0001
0000
1000
0010
0001
0000
0010
0000
,
1000
0100
0001
0000
0100
0000
1000
0010
,
0001
0000
0010
0000
1000
0100
0001
0000
,
0100
1000
0010
0100
,
0001
0000
0010
1000
0010
0000
0001
0000
,
0100
1000
0100
0000
0001
0000
0010
0000
,
0001
0100
0001
0100
0010
1000
0010
1000
,
0100
0010
0001
0100
0010
1000
0001
0000
,
0100
0001
0100
0010
0100
0001
0100
0010
,
0100
0001
0100
0010
0100
0001
0100
0010
,
0100
0000
0001
0000
0010
0000
0100
1000
,
0010
0100
0001
1000
,
0100
0010
0100
1000
0100
0010
0100
1000
,
0100
0010
0100
1000
0100
0010
0100
1000
,
0100
0000
0010
0000
0001
0000
0100
0010
,
1000
0100
0010
0001
,
1000
0010
0100
0001
0010
0100
1000
0010
,
0100
0001
0010
0100
,
1000
0001
0010
0100
1000
0010
0100
0001
,
0010
0001
1000
0100
,
1000
0100
0001
0100
1000
0010
0100
0000
,
0001
0010
1000
0010
0001
0100
0010
0000
,
1000
0010
0001
0010
1000
0100
0001
0100
,
1000
0010
0001
0010
1000
0100
0001
0100
,
2002
0000
0000
0000
,
0000
0000
0000
0000
,
3003
0000
0000
0000
;
