#TITLE:PULVERiZER;
#SUBTITLE:;
#ARTIST:iNFECTiON;
#TITLETRANSLIT:;
#SUBTITLETRANSLIT:;
#ARTISTTRANSLIT:;
#GENRE:;
#CREDIT:;
#BANNER:PULVERiZER.png;
#BACKGROUND:PULVERiZER-bg.png;
#LYRICSPATH:;
#CDTITLE:;
#MUSIC:PULVERiZER.ogg;
#OFFSET:-0.815214;
#SAMPLESTART:33.812820;
#SAMPLELENGTH:14.999999;
#SELECTABLE:YES;
#BPMS:0.000000=80.000000
,8.000000=160.000000
,46.000000=80.000000
,47.000000=320.000000
,235.000000=80.000000
,236.000000=160.000000
,300.000000=80.000000
,302.000000=320.000000
,430.000000=160.000000
;
#STOPS:
;
#BGCHANGES:;
#KEYSOUNDS:;
#ATTACKS:;

//---------------dance-single - ----------------
#NOTES:
     dance-single:
     :
     Challenge:
     18:
     0.963077,1.387025,0.223614,0.496919,0.703969,814.000000,787.000000,27.000000,60.000000,0.000000,0.000000,0.963077,1.387025,0.223614,0.496919,0.703969,814.000000,787.000000,27.000000,60.000000,0.000000,0.000000:
0000
0000
0000
0000
,
0000
0000
0000
0000
,
2010
0000
0000
0000
3001
0010
0100
1000
0002
0000
0000
0000
1003
0000
2100
0000
,
0000
0000
0000
0000
0000
0000
3001
0000
0000
0010
0000
0000
0100
0000
0000
0000
0000
0000
0000
0000
0000
0000
0000
0000
1000
0000
0000
0000
0000
0000
0001
0000
0010
0000
0100
0000
1000
0000
0000
0000
0000
0000
0100
0000
0000
0010
0000
0000
,
0002
0000
0000
0000
1003
0010
0100
0001
0200
0000
0000
0000
0310
0000
1020
0000
,
0000
0000
0000
0000
0000
0000
1030
0000
0000
0100
0000
0000
0010
0000
0000
0000
0000
0000
0000
0000
0000
0000
0000
0000
0001
0000
0000
0000
0000
0000
1000
0000
0100
0000
0010
0000
0001
0000
0000
0000
0000
0000
0010
0000
0000
0100
0000
0000
,
2000
0000
0000
0000
3010
0100
0001
0010
0200
0000
0000
0000
1300
0000
0012
0000
,
0000
0000
0000
0000
0000
0000
0013
0000
0000
0100
0000
0000
2000
0000
0000
0000
0000
0000
0000
0000
0000
0000
0000
0000
3001
0000
0000
0000
0000
0000
1000
0000
0100
0000
0010
0000
0001
0000
0000
0000
0000
0000
0010
0000
0000
0100
0000
0000
,
2000
0000
0000
0000
3010
1000
0100
0010
0002
0000
0000
0000
0103
0000
0120
0000
,
0000
0000
0000
0000
0000
0000
1030
0000
0000
0100
0000
0000
0020
0000
0000
0000
0000
0000
0000
0000
0000
0000
0000
0000
0031
0000
0000
0000
0000
0000
1000
0000
0100
0000
0010
0000
0001
0000
0000
0000
0000
0000
0010
0000
0000
0100
0000
0000
,
2000
0000
0000
0000
3001
0010
0100
1000
0002
0000
0000
0000
1003
0000
1020
0000
,
0000
0000
1030
0010
0200
0000
0000
0000
0301
0011
1000
1100
1000
0000
0000
0000
,
0001
0010
0100
0000
0010
0000
0001
0000
,
1000
0010
1000
0010
0000
0000
1000
0000
0000
0001
0000
0000
,
1000
0100
0010
0000
0100
0000
1000
0000
,
0001
0010
0001
0010
0000
0000
0001
0000
0000
1000
0000
0000
,
0100
0010
0001
0000
0100
0000
0010
0000
,
1000
0010
1000
0010
0000
0000
1000
0000
0000
0001
0000
0000
,
0100
0010
1000
0000
0100
0000
0010
0000
,
0001
0010
0001
0010
0000
0000
0100
1000
0100
1000
0000
0000
,
0001
0100
0010
0000
0100
0000
0001
0000
,
1000
0100
1000
0100
0000
0000
1000
0000
0000
0010
0000
0000
,
0100
0001
0010
0000
0100
0000
0010
0000
,
0001
0010
0001
0010
0000
0000
0001
0000
0000
1000
0000
0000
,
0001
0100
0010
0000
0100
0000
0001
0000
,
1000
0100
1000
0100
0000
0000
1000
0000
0000
0100
0000
0000
,
0010
0001
0100
0000
0010
0000
1000
0000
,
0001
0000
0010
0000
0001
0000
0010
0000
0000
0000
0000
0000
0100
0000
1000
0000
0100
0000
1000
0000
0000
0100
0000
0000
,
0010
0000
0010
0001
1000
0000
1000
0000
,
0100
0000
0000
1000
0000
0000
0001
0000
0000
0000
0000
0000
0100
0000
0010
0000
0100
0000
0010
0000
0000
1000
0000
0000
,
0100
0000
0100
1000
0010
0000
0010
0000
,
1000
0000
0100
0000
1000
0000
0100
0000
0000
0000
0000
0000
0010
0000
0001
0000
0010
0000
0001
0000
0000
0010
0000
0000
,
0100
0000
0100
1000
0001
0000
0010
0000
,
0010
0000
0000
0001
0000
0000
0100
0000
0000
0000
0000
0000
0010
0000
1000
0000
0010
0000
1000
0000
0000
0001
0000
0000
,
0100
0000
0100
0010
1000
0000
1000
0000
,
0001
0000
0010
0000
0001
0000
0010
0000
0000
0000
0000
0000
0100
0000
1000
0000
0100
0000
1000
0000
0000
0001
0000
0000
,
0100
0000
0100
0010
1000
0000
1000
0000
,
0001
0000
0000
0010
0000
0000
0100
0000
0000
0000
0000
0000
1000
0000
0100
0000
1000
0000
0100
0000
0000
0010
0000
0000
,
0001
0000
0001
1000
0010
0000
0010
0000
,
1000
0000
0100
0000
1000
0000
0100
0000
0000
0000
0000
0000
0010
0000
0001
0000
0010
0000
0001
0000
0000
1000
0000
0000
,
0100
0000
0100
0010
0001
0000
0001
0000
,
1000
0000
0000
0010
0000
0000
0100
0000
0000
0000
0000
0000
0001
0000
0010
0000
0001
0000
0010
0000
0000
0100
0000
0000
,
1000
0000
1000
0010
0100
0000
0100
0000
,
0001
0000
0010
0000
0001
0000
0010
0000
0000
0000
0000
0000
0100
0000
1000
0000
0100
0000
1000
0000
0000
0020
0000
0000
,
0100
0030
0100
0002
0010
0003
0010
0000
,
0001
0000
0000
1000
0000
0000
0100
0000
0000
0000
0000
0000
1000
0000
0100
0000
1000
0000
0100
0000
0000
2000
0000
0000
,
0001
3000
0001
0200
0010
0300
0010
0000
,
1000
0000
0100
0000
1000
0000
0100
0000
0000
0000
0000
0000
0010
0000
0001
0000
0010
0000
0001
0000
0000
2000
0000
0000
,
0100
3000
0100
0020
0001
0030
0001
0000
,
1000
0000
0000
0001
0000
0000
0100
0000
0000
0000
0000
0000
0001
0000
0010
0000
0001
0000
0010
0000
0000
0002
0000
0000
,
1000
0003
1000
0200
0010
0300
0010
0000
,
0001
0000
0010
0000
0001
0000
0010
0000
0000
0000
0000
0000
0100
0000
1000
0000
0100
0000
1000
0000
0000
0002
0000
0000
,
0100
0003
0100
0020
1000
0030
1000
0000
,
0001
0000
0000
0010
0000
0000
0100
0000
0000
0000
0000
0000
1000
0000
0100
0000
1000
0000
0100
0000
0000
2000
0000
0000
,
0001
3000
0001
0200
0010
0300
0010
0000
,
1000
0000
0100
0000
1000
0000
0100
0000
0000
0000
0000
0000
0010
0000
0001
0000
0010
0000
0001
0000
0000
2000
0000
0000
,
0100
3000
0100
0020
0001
0030
0001
0000
,
1000
0000
0000
0010
0000
0000
0100
0000
0000
0000
0000
0000
0001
0000
0010
0000
0001
0000
0010
0000
0000
0000
0000
0000
,
0100
0000
0000
0000
0000
0000
0000
0000
1000
0000
0000
0000
0001
0000
0000
0000
1000
0000
0000
0000
0000
0000
0000
0000
0001
0010
0100
1000
0001
0010
0100
1000
,
0001
0000
0000
0000
1000
0100
0010
0001
2000
0000
0000
0000
3001
0000
0021
0000
,
0000
0000
0031
0100
0020
0000
0000
0000
1030
0000
0100
0010
0001
0000
1000
0000
,
0001
0000
1000
0100
1000
0000
0001
0000
1000
0000
0001
0010
0001
0000
1000
0000
,
0001
0000
1000
0010
1000
0000
0001
0100
0101
0000
0000
0000
1010
0000
0000
0000
,
1000
0000
0000
0000
0010
1000
0100
0010
0002
0000
0000
0000
1003
0000
1020
0000
,
0000
0000
1030
0001
0200
0000
0000
0000
0310
0000
1000
0001
0100
0000
0010
0000
,
0100
0000
0001
0000
0010
0100
0010
0000
0001
0000
1000
0000
0100
0000
1000
0010
,
1000
0000
0001
0000
1000
0100
1000
0000
1100
0000
0000
0000
0011
0000
0000
0000
,
0001
0000
0000
0000
1000
0100
0010
0001
2000
0000
0000
0000
3001
0000
0021
0000
,
0000
0000
0031
0100
0020
0000
0000
0000
1030
0000
0001
0100
0010
0000
1000
0000
,
0001
0000
1000
0010
1000
0000
0001
0000
1000
0000
0001
0100
0001
0000
1000
0000
,
0001
0000
1000
0100
1000
0000
0001
0100
0101
0000
0000
0000
1010
0000
0000
0000
,
0001
0000
0000
0000
0100
0001
0010
0100
2000
0000
0000
0000
3001
0000
0201
0000
,
0000
0000
0301
1000
0020
0000
0000
0000
0130
0000
0001
1000
0010
0000
0100
0000
,
0010
0000
1000
0000
0100
0010
0100
0000
1000
0000
0001
0010
0001
0000
1000
0100
,
1000
0000
0000
0000
0000
0000
0001
0000
0000
0000
0000
0000
0100
0000
0000
0001
0000
0000
0100
0000
0000
0000
0000
0000
0001
0000
0010
0000
0100
0000
1000
0000
0000
0001
0000
0000
1000
0000
0100
0000
0010
0000
0001
0000
0000
1000
0000
0000
,
0001
1010
0101
1001
1000
0001
0010
0000
,
0010
0001
1000
0001
0100
0000
0001
0000
,
1000
0100
0010
0001
1000
0001
0100
0000
,
0100
0010
0100
0010
0100
0000
0010
0000
,
1000
0000
0100
0000
1000
0000
0100
0000
0000
1000
0000
0000
0001
0000
0000
1000
0000
0000
0100
0000
0000
0000
0000
0000
,
0100
0000
1000
0001
0100
0000
0100
0000
,
0001
0010
0100
0000
1100
0000
0011
0000
,
1000
0000
0000
0100
0000
0000
0010
0000
0000
0001
0000
0000
1000
0000
0100
0000
0010
0000
0001
0000
0000
1000
0000
0000
,
0001
0000
0010
0000
0100
0000
1000
0000
0000
0001
0000
0000
1000
0000
0000
0010
0000
0000
0100
0000
0000
0000
0000
0000
,
0100
0010
1000
0100
0010
0000
0001
0000
,
1000
0010
0100
0001
0010
0100
0010
0000
,
0010
0100
0010
0100
0010
0000
0001
0000
,
1000
0000
0100
0000
1000
0000
0100
0000
0000
1000
0000
0000
0001
0000
0000
0100
0000
0000
0010
0000
0000
0000
0000
0000
,
0010
0000
1000
0100
0010
0000
0010
0000
,
0001
1000
0100
0000
1100
0000
0011
0000
,
1000
0000
0000
0100
0000
0000
0010
0000
0000
0001
0000
0000
1000
0000
0010
0000
0100
0000
0001
0000
0000
1000
0000
0000
,
0001
0000
0100
0000
0010
0000
1000
0000
0000
0001
0000
0000
1000
0000
0000
0020
0000
0000
0100
0000
0000
0030
0000
0000
,
0100
0010
1000
0200
0010
0300
0010
0000
,
0001
0100
0010
1000
0100
0010
0001
0000
,
0001
0100
0001
0100
0001
0000
1000
0000
,
0001
0000
0010
0000
0001
0000
0010
0000
0000
0001
0000
0000
1000
0000
0000
0020
0000
0000
0100
0000
0000
0000
0000
0000
,
0130
0000
0001
0020
0100
0000
0130
0000
,
0010
0001
1000
0000
1100
0000
0011
0000
,
1000
0000
0000
0010
0000
0000
0100
0000
0000
0001
0000
0000
1000
0000
0100
0000
0010
0000
0001
0000
0000
1000
0000
0000
,
0001
0000
0010
0000
0100
0000
1000
0000
0000
0001
0000
0000
0010
0000
0000
1000
0000
0000
0010
0000
0000
0001
0000
0000
,
1000
0001
0100
1000
0100
0001
0010
0100
,
1000
0010
0001
0010
1000
0001
0100
1000
,
0100
0001
0010
1000
0010
0001
1000
0001
,
0100
0010
0001
0010
0100
0001
0010
0100
,
1000
0100
0010
1000
0010
0001
0100
0010
,
0001
0000
0000
0010
0000
0000
0100
0000
0000
0001
0000
0000
1000
0000
0100
0000
1000
0000
0100
0000
1000
0000
0100
0000
,
0010
0001
0010
0001
0010
0100
1000
0010
1000
0100
1000
0010
,
0100
0001
0010
0001
0100
0001
2000
0000
0000
0000
0000
0000
,
0000
0000
3020
0000
,
0230
0000
0302
0000
,
0000
0000
0023
0000
,
0230
0000
2300
0000
,
0000
0000
3020
0000
,
2030
0000
3002
0000
,
0000
0000
0023
0000
,
0200
0000
0330
0000
;

//---------------dance-single - ----------------
#NOTES:
     dance-single:
     :
     Hard:
     16:
     0.764309,0.860912,0.182204,0.886172,0.082820,646.000000,624.000000,22.000000,107.000000,0.000000,0.000000,0.764309,0.860912,0.182204,0.886172,0.082820,646.000000,624.000000,22.000000,107.000000,0.000000,0.000000:
// measure 0
0000
0000
0000
0000
,  // measure 1
0000
0000
0000
0000
,  // measure 2
2010
0000
0000
0000
3001
0000
1000
0010
0200
0000
0000
0000
0301
0000
0012
0000
,  // measure 3
0000
0000
1003
0100
0020
0000
0000
0000
0031
0000
0010
0000
0100
0000
1000
0000
,  // measure 4
0002
0000
0000
0000
1003
0000
0001
0100
0020
0000
0000
0000
1030
0000
2100
0000
,  // measure 5
0000
0000
3010
0100
0002
0000
0000
0000
1003
0000
0100
0000
0010
0000
0001
0000
,  // measure 6
2000
0000
0000
0000
3010
0000
0100
0001
0020
0000
0000
0000
0130
0000
1200
0000
,  // measure 7
0000
0000
1300
0010
0200
0000
0000
0000
0301
0000
0100
0000
0010
0000
1000
0000
,  // measure 8
0002
0000
0000
0000
0013
0000
0100
1000
0020
0000
0000
0000
0130
0000
0201
0000
,  // measure 9
0000
0000
0301
0010
0200
0000
0000
0000
1300
0000
0010
0000
0100
0000
0001
0000
,  // measure 10
2000
0000
0000
0000
3010
0000
0100
0001
2000
0000
0000
0000
3001
0000
2001
0000
,  // measure 11
0000
0000
3001
0010
0200
0000
0000
0000
1300
0010
0100
0001
1000
0000
0000
0000
,  // measure 12
0000
1000
0100
0000
0100
0000
0010
0000
,  // measure 13
0001
0100
0001
0000
0010
0000
0001
0000
,  // measure 14
0000
0001
0100
0000
0100
0000
0010
0000
,  // measure 15
1000
0100
1000
0000
0001
0000
1000
0000
,  // measure 16
0000
1000
0010
0000
0010
0000
0100
0000
,  // measure 17
0001
0010
0001
0000
0100
0000
0001
0000
,  // measure 18
0000
0001
0010
0000
0100
0000
1000
0000
,  // measure 19
0001
0010
0001
0000
1000
0100
1000
0000
,  // measure 20
0000
1000
0100
0000
0100
0000
0010
0000
,  // measure 21
0001
0010
0100
0000
0010
0000
0001
0000
,  // measure 22
0000
0001
0100
0000
0100
0000
0010
0000
,  // measure 23
1000
0100
0010
0000
0100
0000
1000
0000
,  // measure 24
0000
1000
0010
0000
0010
0000
0100
0000
,  // measure 25
0001
0010
0100
0000
0010
0000
0001
0000
,  // measure 26
0000
0001
0100
0000
0100
0000
0010
0000
,  // measure 27
1000
0001
1000
0000
0001
0000
1000
0000
,  // measure 28
0100
0000
1000
0001
0100
0000
0001
0000
,  // measure 29
0010
0000
0100
0000
1000
0010
0100
0000
,  // measure 30
0010
0000
1000
0001
0100
0000
0010
0000
,  // measure 31
1000
0100
1000
0000
0001
0010
0001
0000
,  // measure 32
1000
0000
0001
0100
0010
0000
1000
0000
,  // measure 33
0100
0000
0010
0000
0001
1000
0100
0000
,  // measure 34
1000
0000
0010
1000
0001
0000
0100
0000
,  // measure 35
0001
0010
0001
0000
1000
0100
1000
0000
,  // measure 36
0001
0000
0100
0010
1000
0000
0001
0000
,  // measure 37
0010
0000
0100
0000
0010
0001
1000
0000
,  // measure 38
0001
0000
0100
0001
0010
0000
0100
0000
,  // measure 39
1000
0100
1000
0000
0001
0010
0001
0000
,  // measure 40
1000
0000
0100
1000
0001
0000
0100
0000
,  // measure 41
0001
0000
0010
0000
0100
1000
0010
0000
,  // measure 42
0100
0000
0001
0100
0010
0000
1000
0000
,  // measure 43
0001
0010
0001
0000
1000
0100
2000
0000
,  // measure 44
3020
0000
0130
0001
0020
0000
0230
0000
,  // measure 45
2300
0000
3020
0000
0130
0001
0020
0000
,  // measure 46
0230
0000
0310
0001
0200
0000
0320
0000
,  // measure 47
1030
0100
1000
0000
0001
0010
0002
0000
,  // measure 48
0203
0000
0310
1000
0200
0000
0320
0000
,  // measure 49
0032
0000
0203
0000
0301
0010
0200
0000
,  // measure 50
2300
0000
3010
0100
0002
0000
0023
0000
,  // measure 51
0031
0010
0001
0000
1000
0100
2000
0000
,  // measure 52
3020
0000
0130
0001
2000
0000
3200
0000
,  // measure 53
0320
0000
0032
0000
1003
0010
0200
0000
,  // measure 54
0302
0000
0013
0100
2000
0000
3200
0000
,  // measure 55
1300
0010
1000
0000
0001
0100
0002
0000
,  // measure 56
0023
0000
0130
0010
0002
0000
0203
0000
,  // measure 57
0320
0000
2030
0000
3100
0010
0002
0000
,  // measure 58
0203
0000
0310
1000
0002
0000
1003
0000
,  // measure 59
0102
0000
0000
0000
1003
0000
0010
0100
0002
0000
0000
0000
1003
0000
1200
0000
,  // measure 60
0000
0000
1300
0010
0200
0000
0000
0000
0301
0000
0010
0000
0001
0000
1000
0000
,  // measure 61
0001
0100
0001
1000
0001
0010
0001
1000
,  // measure 62
0001
0100
0001
1000
0001
0000
1001
0000
,  // measure 63
2100
0000
0000
0000
3010
0000
0100
0001
0020
0000
0000
0000
0130
0000
1200
0000
,  // measure 64
0000
0000
1300
0010
0200
0000
0000
0000
0301
0000
1000
0000
0001
0000
0010
0000
,  // measure 65
0001
0100
1000
0100
0001
0010
1000
0010
,  // measure 66
0001
0100
1000
0100
0001
0000
1001
0000
,  // measure 67
2010
0000
0000
0000
3001
0000
0100
0010
2000
0000
0000
0000
3001
0000
0021
0000
,  // measure 68
0000
0000
0031
0100
0020
0000
0000
0000
1030
0000
0100
0000
1000
0000
0001
0000
,  // measure 69
1000
0010
1000
0001
1000
0100
1000
0001
,  // measure 70
1000
0010
1000
0001
1000
0000
1001
0000
,  // measure 71
0012
0000
0000
0000
0103
0000
0010
1000
0200
0000
0000
0000
0310
0000
0021
0000
,  // measure 72
0000
0000
0031
0100
0020
0000
0000
0000
1030
0000
0001
0000
1000
0000
0100
0000
,  // measure 73
1000
0010
0001
0010
1000
0100
0001
0100
,  // measure 74
1000
0010
0001
0010
1000
0000
1001
0000
,  // measure 75
1002
0100
0010
0100
1003
0000
0001
0000
,  // measure 76
1000
0010
0100
0000
0010
0000
1000
0000
,  // measure 77
0001
0010
0100
0000
0010
0000
0001
0000
,  // measure 78
0100
0010
1000
0000
0100
0000
0010
0000
,  // measure 79
0001
0010
0100
1000
0001
0000
0100
0000
,  // measure 80
0010
1000
0100
0000
0010
0000
0001
0000
,  // measure 81
0100
0001
1000
0000
0100
0000
1000
0000
,  // measure 82
0010
0100
0001
0000
1000
0100
0010
0001
,  // measure 83
1000
1001
1000
0010
,  // measure 84
0100
0001
1000
0000
0100
0000
0010
0000
,  // measure 85
0001
1000
0010
0000
1000
0000
0001
0000
,  // measure 86
0100
0010
1000
0000
0100
0000
0010
0000
,  // measure 87
0001
0010
0100
1000
0001
0000
0100
0000
,  // measure 88
0010
1000
0100
0000
0010
0000
0001
0000
,  // measure 89
1000
0001
0100
0000
0010
0000
1000
0000
,  // measure 90
0100
0010
0001
0000
1000
0010
0100
0001
,  // measure 91
1000
1001
0002
0203
,  // measure 92
0310
1000
0200
0000
0320
0000
0032
0000
,  // measure 93
0103
0001
0020
0000
0230
0000
2300
0000
,  // measure 94
3010
0100
0002
0000
2003
0000
3200
0000
,  // measure 95
1300
0010
0100
0001
2000
0000
3020
0000
,  // measure 96
0130
0001
0020
0000
0032
0000
0203
0000
,  // measure 97
0310
1000
0200
0000
0320
0000
0032
0000
,  // measure 98
1003
0010
0100
0000
0001
0010
0100
1000
,  // measure 99
0001
0000
1001
0000
1000
0100
1000
0100
,  // measure 100
0010
0001
0010
0001
0100
0010
0100
0010
,  // measure 101
1000
0100
1000
0100
0010
0001
0100
0010
,  // measure 102
0100
0010
1000
0100
0010
0001
1000
0100
,  // measure 103
0010
0100
1000
0010
0100
0001
0010
0100
,  // measure 104
1000
0010
1000
0010
0100
0001
0010
0001
,  // measure 105
0100
0010
1000
0001
1000
0100
0010
0100
,  // measure 106
1000
0001
0100
0001
0010
0100
1000
0100
,  // measure 107
0010
0001
0100
0010
2000
0000
0000
0000
,  // measure 108
0000
0000
3020
0000
,  // measure 109
0230
0000
0302
0000
,  // measure 110
0000
0000
0023
0000
,  // measure 111
0230
0000
2300
0000
,  // measure 112
0000
0000
3020
0000
,  // measure 113
2030
0000
3002
0000
,  // measure 114
0000
0000
0023
0000
,  // measure 115
0200
0000
0330
0000
;

//---------------dance-single - ----------------
#NOTES:
     dance-single:
     :
     Medium:
     13:
     0.598669,0.765255,0.115948,0.339561,0.000000,506.000000,492.000000,14.000000,41.000000,0.000000,0.000000,0.598669,0.765255,0.115948,0.339561,0.000000,506.000000,492.000000,14.000000,41.000000,0.000000,0.000000:
0000
0000
0000
0000
,
0000
0000
0000
0000
,
2100
0000
3001
0010
0200
0000
1300
0020
,
0000
0130
0002
0000
1003
0100
0010
0001
,
2000
0000
3010
0100
0002
0000
0013
0200
,
0000
0310
0002
0000
0103
0010
1000
0001
,
0200
0000
0310
1000
0200
0000
1300
0020
,
0000
0130
0002
0000
0013
0100
0010
0001
,
2000
0000
3010
1000
0200
0000
0310
0002
,
0000
0103
0020
0000
0130
0001
0010
0100
,
2000
0000
3010
0001
0020
0000
0130
0002
,
0000
0013
0100
0000
1002
0000
1003
0000
,
0000
0001
0100
0000
0010
0000
1000
0000
,
0100
0010
0100
1000
,
0000
0010
1000
0000
0100
0000
0010
0000
,
0001
0100
0010
0100
,
0000
0001
0010
0000
0100
0000
0010
0000
,
0001
0100
0010
1000
,
0000
0100
1000
0000
0010
0000
0100
0000
,
0001
0010
0100
0010
,
0000
0001
0010
0000
0100
0000
0010
0000
,
0001
0100
0010
1000
,
0000
0100
1000
0000
0010
0000
0100
0000
,
0010
1000
0100
0010
,
0000
0100
0010
0000
0001
0000
0100
0000
,
0010
1000
0100
1000
,
0000
0010
1000
0000
0100
0000
0010
0000
,
0001
1000
0001
0000
1000
0000
0001
0000
,
1000
0100
0010
0001
,
0100
0000
0010
0000
0000
1000
0100
0000
,
0010
0100
1000
0010
,
0100
0001
0000
0000
1000
0100
1000
0000
,
0010
0100
0001
0010
,
0100
0000
0010
0000
0000
0001
0100
0000
,
0010
1000
0100
0010
,
0001
0100
0000
0000
0010
1000
0010
0000
,
1000
0100
0010
0100
,
1000
0000
0010
0000
0000
0100
0001
0000
,
0010
0100
0010
0001
,
1000
0100
0000
0000
1000
0010
1000
0000
,
0001
0010
0100
0010
,
0001
0000
0100
0000
0000
0010
1000
0000
,
0100
0010
0001
0100
,
0010
1000
0000
0000
0001
0010
0001
0000
,
1000
0100
0010
0001
,
1000
0000
0010
0000
0000
1000
0200
0000
,
0010
0010
0010
0310
,
0001
0010
0000
0000
0100
1000
0100
0000
,
1000
0010
0100
0001
,
0010
0000
0100
0000
0000
0010
0002
0000
,
1000
1000
1000
1000
,
1003
0100
0000
0000
0010
0001
0010
0000
,
0001
0100
0010
1000
,
0100
0000
0010
0000
0000
0001
2000
0000
,
0010
0010
0010
3010
,
1000
0100
0000
0000
1000
0010
1000
0000
,
0001
0010
0100
0010
,
0001
0000
1000
0000
0000
0001
0020
0000
,
0100
0100
0100
0130
,
1000
0000
0001
0001
0200
0000
0310
1000
,
0000
0100
0010
0000
0001
1000
0001
1000
,
0001
0100
0010
0000
1000
0100
0010
0000
,
0001
0001
0001
0000
1100
0000
0011
0000
,
0001
0000
1000
1000
0200
0000
0310
0001
,
0000
0100
0010
0000
1000
0100
0010
0001
,
1000
0100
0010
0000
0001
0100
0010
0000
,
1000
0001
1000
0000
1001
0000
1001
0000
,
0001
0000
1000
1000
0020
0000
0130
0001
,
0000
1000
0100
0000
1000
0001
1000
0001
,
1000
0010
0100
0000
0001
0010
0100
0000
,
1000
0001
0010
0000
0011
0000
1100
0000
,
1000
0000
0001
0001
0020
0000
0130
1000
,
0000
0010
0100
0000
0001
0010
0100
1000
,
0010
0100
0010
0000
1000
0100
0001
0000
,
1000
0010
0001
0000
1001
0000
0110
0000
,
1002
0100
0010
0100
1003
0000
0010
0000
,
0100
0001
0010
0100
,
1000
0000
0000
0010
1000
0000
0100
0000
,
0010
0000
0001
0000
0100
0000
0010
1000
,
0010
0100
0001
0001
,
0001
0000
1000
1000
,
1000
0000
0010
1000
,
0100
0010
0001
1000
,
1001
0000
0001
0010
,
0100
0010
0001
0100
,
0010
0000
0000
1000
0100
0000
0010
0000
,
0100
0000
1000
0000
0010
0000
0100
0001
,
0100
0010
1000
1000
,
1000
0000
0001
0001
,
0001
0000
0010
0001
,
0100
0010
1000
0100
,
1001
0000
1000
0010
,
0100
0001
0010
0100
,
1000
0000
0000
0010
1000
0000
0100
0000
,
0010
0000
0001
0000
0100
0000
0010
1000
,
0010
1000
0010
0010
,
0010
0000
0100
0100
,
0100
0000
0001
0010
,
0100
1000
0010
0100
,
1001
0000
1000
0100
,
0010
0001
0100
0010
,
1000
0000
0100
1000
0100
0000
1000
0000
,
0010
0000
0100
0000
0001
0000
0010
0001
,
0010
0000
0001
0000
0100
0010
0100
0000
,
0001
0000
0010
0000
0100
1000
0100
0000
,
1000
0010
0100
0100
,
0100
0000
0100
0000
0001
1000
0001
1000
,
0001
1000
0001
1000
0002
0000
0000
0000
,
0000
0000
0023
0000
,
0230
0000
2300
0000
,
0000
0000
3002
0000
,
0203
0000
0302
0000
,
0000
0000
0203
0000
,
0320
0000
2030
0000
,
0000
0000
3020
0000
,
0200
0000
0330
0000
;

//---------------dance-single - ----------------
#NOTES:
     dance-single:
     :
     Easy:
     11:
     0.483905,0.669598,0.314715,0.256742,0.000000,409.000000,371.000000,38.000000,31.000000,0.000000,0.000000,0.483905,0.669598,0.314715,0.256742,0.000000,409.000000,371.000000,38.000000,31.000000,0.000000,0.000000:
0000
0000
0000
0000
,
0000
0000
0000
0000
,
2100
0000
3001
0010
0200
0000
1300
0001
,
0000
1000
0001
0000
1000
0000
1010
0000
,
0102
0000
1003
0100
0020
0000
0031
1000
,
0000
0001
1000
0000
0001
0000
1100
0000
,
0012
0000
1003
0010
0200
0000
0301
1000
,
0000
0001
1000
0000
0001
0000
0011
0000
,
2100
0000
3001
0100
0020
0000
1030
0001
,
0000
1000
0001
0000
1000
0000
0101
0000
,
2010
0000
3001
0010
0200
0000
1300
0001
,
0000
1000
0001
0000
1002
0000
1003
0000
,
0000
0100
1000
0100
,
0000
1001
0000
1000
,
0000
0001
0010
0100
,
0000
1001
0000
1000
,
0000
0010
1000
0100
,
0000
1001
0000
1000
,
0000
0001
0010
0100
,
0000
1001
0000
1000
,
0000
0001
0100
0001
,
0000
0011
0000
0001
,
0000
1000
0100
1000
,
0000
1100
0000
1000
,
0000
0001
0100
0010
,
0000
1010
0000
1000
,
0000
0001
0010
0100
,
0000
1001
0000
1000
,
0000
0001
0010
0100
,
0000
0011
0000
0001
,
1000
0100
0000
1000
,
0001
0010
0000
0100
,
0000
1000
0010
0100
,
0000
0101
0000
0001
,
0010
0100
0000
0010
,
0001
1000
0000
0010
,
0000
1000
0100
0010
,
0000
0011
0000
0001
,
0100
0010
0000
1000
,
0010
0100
0000
0001
,
0000
1000
0010
1000
,
0000
1010
0000
1000
,
0010
0100
0000
0001
,
1000
0100
0000
1000
,
0000
0010
0100
0001
,
0000
0011
0000
0001
,
0010
0200
0000
1300
,
0010
0200
0000
0310
,
0000
1000
0100
0010
,
0000
0011
0000
0001
,
1000
0200
0000
0310
,
0001
0200
0000
0310
,
0000
1000
0100
0010
,
0000
0011
0000
0001
,
1000
0020
0000
0130
,
0001
0020
0000
0130
,
0000
1000
0010
0100
,
0000
0101
0000
0001
,
0010
0100
1000
0002
,
1003
0000
0001
0010
0100
0000
1000
0010
,
0000
0100
0001
0000
1000
0000
1000
0000
,
0001
0001
1000
1000
,
0010
0100
0101
1010
,
0001
0000
1000
0100
0010
0000
0001
0010
,
0000
0100
1000
0000
0010
0000
0010
0000
,
0100
0100
0001
0001
,
1000
0100
0011
1100
,
0001
0000
1000
0010
0100
0000
0001
0010
,
0000
0100
1000
0000
0001
0000
0001
0000
,
1000
1000
0001
0001
,
1000
0100
0011
1100
,
0001
0000
1000
0010
0100
0000
0010
1000
,
0000
0001
0010
0000
0100
0000
0100
0000
,
0010
0010
0001
0001
,
0100
0010
1010
0101
,
1002
0000
1003
0001
,
0010
0100
0010
0001
,
1000
0000
0010
1000
,
0100
0010
0001
0100
,
0010
0000
1000
0100
,
0001
0000
1000
0010
,
0001
0000
0100
0010
,
1000
0001
0010
0000
,
1001
0000
0001
1000
,
0010
0100
0010
1000
,
0100
0000
0010
0001
,
0100
0010
0100
0001
,
0010
0000
0001
0100
,
1000
0000
0001
0010
,
1000
0000
0100
0010
,
0001
0100
0010
0000
,
1001
0000
1000
0010
,
0100
0010
1000
0100
,
0010
0000
0001
0100
,
0010
0100
0001
0010
,
0100
0000
1000
0010
,
0001
0000
1000
0100
,
0001
0000
0010
0100
,
1000
0010
0100
0000
,
1001
0000
0001
1000
,
0001
1000
0001
1000
,
0001
1000
0100
0010
,
0100
0010
0100
0010
,
0001
0100
0010
1000
,
0100
0010
0100
1000
,
0010
0100
0001
0010
,
1000
0001
0100
1000
,
0010
0100
0002
0000
,
0000
0000
0023
0000
,
0230
0000
2300
0000
,
0000
0000
3002
0000
,
0203
0000
0302
0000
,
0000
0000
0203
0000
,
0320
0000
2030
0000
,
0000
0000
3020
0000
,
0200
0000
0330
0000
;

//---------------dance-single - ----------------
#NOTES:
     dance-single:
     :
     Beginner:
     6:
     0.248460,0.404368,0.049692,0.016564,0.000000,210.000000,204.000000,6.000000,2.000000,0.000000,0.000000,0.248460,0.404368,0.049692,0.016564,0.000000,210.000000,204.000000,6.000000,2.000000,0.000000,0.000000:
0000
0000
0000
0000
,
0000
0000
0000
0000
,
1000
0000
0010
0000
,
1000
0000
0001
0000
,
0010
0000
0100
0000
,
0010
0000
0001
0000
,
0100
0000
0010
0000
,
1000
0000
0100
0000
,
0010
0000
0001
0000
,
0100
0000
0010
0000
,
1000
0000
0001
0000
,
0010
0000
0000
1000
,
0000
0000
0000
0001
,
0000
0001
0000
0100
,
0000
0000
0000
0010
,
0000
0010
0000
1000
,
0000
0000
0000
0100
,
0000
0100
0000
1000
,
0000
0000
0000
0010
,
0000
0010
0000
0100
,
0000
0000
0000
0001
,
0000
0001
0000
0100
,
0000
0000
0000
0010
,
0000
0010
0000
0100
,
0000
0000
0000
0001
,
0000
0001
0000
0010
,
0000
0000
0000
0100
,
0000
0100
0000
1000
,
0000
0010
0000
0100
,
0000
0001
0000
0010
,
0000
0100
0000
1000
,
0000
0000
0000
0001
,
0000
0100
0000
0001
,
0000
0010
0000
0100
,
0000
0010
0000
0001
,
0000
0000
0000
1000
,
0000
0010
0000
1000
,
0000
0100
0000
0010
,
0000
0001
0000
0100
,
0000
0000
0000
0010
,
0000
1000
0000
0100
,
0000
0010
0000
0001
,
0000
0010
0000
0100
,
0000
0000
0000
1000
,
0000
0010
0000
0001
,
0000
0010
0000
1000
,
0000
0100
0000
0010
,
0000
0000
0000
0001
,
0000
0100
0000
1000
,
0000
0100
0000
0010
,
0000
1000
0000
0100
,
0000
0000
0000
1000
,
0000
0100
0000
0001
,
0000
0100
0000
0010
,
0000
0001
0000
0100
,
0000
0000
0000
0001
,
0000
0100
0000
1000
,
0000
0100
0000
0001
,
0000
0010
0000
0100
,
1000
0000
1000
0000
,
0001
0000
0001
0000
,
0010
0010
0010
0010
,
0010
0010
0010
0000
,
1000
0000
1000
0000
,
0001
0000
0001
0000
,
1000
1000
0001
0010
,
0100
1000
1000
0000
,
0001
0000
0001
0000
,
1000
0000
1000
0000
,
0100
0100
0100
0100
,
0100
0100
0100
0000
,
1000
0000
1000
0000
,
0001
0000
0001
0000
,
0100
0100
0001
0010
,
0100
0010
0001
0001
,
1000
0000
1000
0000
,
0010
0000
0100
0000
,
0001
0000
0010
0000
,
0100
0000
0010
0000
,
0000
0000
0001
0000
,
0001
0000
0001
0000
,
0001
0000
1000
0000
,
0100
0000
1001
0000
,
0000
0000
0001
0000
,
0100
0000
0010
0000
,
0100
0000
0001
0000
,
0010
0000
0100
0000
,
0000
0000
1000
0000
,
1000
0000
1000
0000
,
1000
0000
0001
0000
,
0100
0000
1001
0000
,
0000
0000
1000
0000
,
0010
0000
1000
0000
,
0100
0000
0010
0000
,
0001
0000
0100
0000
,
0000
0000
0010
0000
,
0010
0000
0010
0000
,
0010
0000
0010
0000
,
1000
0000
1001
0000
,
0000
0000
1000
0000
,
1000
0000
0001
0000
,
0001
0000
1000
0000
,
1000
0000
0001
0000
,
0001
0000
1000
0000
,
0100
0000
0010
0000
,
0001
0000
0100
0000
,
0010
0000
1001
0000
,
0110
0000
2002
0000
,
0000
0000
3003
0000
;
