#TITLE:PENTA-KOCiUS;
#SUBTITLE:;
#ARTIST:iNFECTiON;
#TITLETRANSLIT:;
#SUBTITLETRANSLIT:;
#ARTISTTRANSLIT:;
#GENRE:;
#CREDIT:;
#MUSIC:PENTA-KOCiUS.ogg;
#BANNER:PENTA-KOCiUS.png;
#BACKGROUND:PENTA-KOCiUS-bg.png;
#CDTITLE:;
#SAMPLESTART:86.399;
#SAMPLELENGTH:15.000;
#SELECTABLE:YES;
#OFFSET:-1.920;
#BPMS:0.000=250.000
,28.000=1000.000
,32.000=250.000
,60.000=125.000
,62.000=500.000
,86.000=125.000
,86.500=250.000
,87.500=500.000
,89.500=125.000
,90.000=500.000
,138.000=250.000
,140.000=500.000
,152.000=1000.000
,154.000=500.000
,168.000=125.000
,170.000=1000.000
,186.000=500.000
,202.000=1000.000
,218.000=500.000
,242.000=250.000
,243.000=500.000
,245.000=125.000
,246.000=500.000
,262.000=250.000
,264.000=500.000
,308.000=250.000
,332.000=31.250
,333.000=250.000
,453.000=125.000
,455.000=250.000
,457.000=125.000
,458.000=500.000
,584.000=1000.000
,586.000=500.000
,600.000=1000.000
,604.000=500.000
,618.000=1000.000
,622.000=500.000
,636.000=1000.000
,640.000=500.000
,654.000=1000.000
,656.000=500.000
,670.000=1000.000
,674.000=500.000
,688.000=1000.000
,754.000=1604.000
;
#STOPS:28.000=0.720
,152.000=0.120
,202.000=0.060
,203.000=0.060
,204.000=0.060
,205.000=0.060
,206.000=0.060
,207.000=0.060
,208.000=0.060
,209.000=0.060
,210.000=0.060
,211.000=0.060
,212.000=0.060
,213.000=0.060
,214.000=0.060
,215.000=0.060
,216.000=0.060
,217.000=0.060
,584.000=0.120
,654.000=0.120
,688.000=0.120
,754.000=0.450
;
#DISPLAYBPM:500.000;
#BGCHANGES:;
#FGCHANGES:;

//--------------- dance-single - ----------------
#NOTES:
     dance-single:
     :
     Beginner:
     11:
     0.412757,0.791165,0.111741,0.311278,0,362,348,14,39,0,0,0.412757,0.791165,0.111741,0.311278,0,362,348,14,39,0,0:
0000
0000
0000
0000
,
0000
0000
0000
0000
,
0000
0000
0000
0000
,
0000
0000
0000
0000
,
0000
0000
0000
0000
,
0000
0000
0000
0000
,
0000
0000
0000
0000
,
0000
0000
0000
0000
,
1000
0000
0001
0000
,
1000
0000
0001
1000
,
0001
0000
1000
0000
,
0001
0000
1000
0001
,
1000
0100
0010
0001
,
1000
0100
0010
0001
,
0100
0010
1000
0100
,
0020
0032
1003
0000
,
0100
0000
1000
0000
,
0010
0000
1000
0000
,
0001
0000
0100
0000
,
0001
0000
0010
0000
,
0100
0000
0010
0000
,
0001
0000
0000
0000
2000
0000
0000
3002
,
0000
0000
1003
0000
,
0010
0000
1000
0000
,
0010
0000
0100
0000
,
0001
0000
0010
0000
,
0100
0000
0010
0000
,
0001
0000
0100
0000
,
0010
0000
1001
0000
,
0000
0000
0110
0000
,
0000
0000
0001
0000
,
0010
0000
0001
0000
,
0100
0000
0010
0000
,
1000
0000
0100
0000
,
0010
0000
0001
0000
,
0100
0000
0100
0000
,
0001
0000
0010
0000
,
0001
0000
1000
0000
,
0000
0000
0001
0000
,
0100
0000
0010
0000
,
1000
0000
0100
0000
,
0010
0000
0001
0000
,
1001
0110
2002
0000
,
0000
0000
0000
0000
,
0000
0000
3003
0000
,
0000
0000
0000
0000
,
0000
0000
0001
0000
,
0100
0000
0001
0000
,
0100
0000
0010
0000
,
1000
0000
0100
0000
,
0010
0000
0001
0000
,
0000
0000
0001
0000
,
0000
0000
1000
0000
,
0000
0000
1000
0000
,
0000
0000
0001
0000
,
0100
0000
0010
0000
,
1000
0000
0100
0000
,
0010
0000
0100
0000
,
1000
0000
0001
0000
,
0000
0000
1001
0000
,
0000
0000
1001
0100
,
0000
0000
0010
1001
0001
0000
0000
0000
,
0010
0000
1000
0000
,
0010
0000
0001
0000
,
0100
0000
1000
0000
,
0100
0000
0002
0000
,
1003
0000
0100
0000
,
0001
0000
0100
0000
,
2000
0000
0000
0000
,
3001
0000
0100
0000
,
1000
0000
0100
0000
,
0001
0000
0010
0000
,
0002
0000
0000
0000
,
1003
0000
0010
0000
,
0001
0000
0010
0000
,
0100
0000
0001
0000
,
0010
0000
0100
0000
,
2002
0000
0000
0000
,
0000
0000
0000
0000
,
0000
0000
0000
0000
,
0000
0000
0000
0000
,
3003
0000
0000
0000
,
0000
0000
0000
0000
,
0000
1000
0010
1000
,
0001
0010
0100
0010
,
0001
0100
0010
1000
,
0100
0010
0001
2001
,
0000
3001
0010
0100
,
0010
0001
0100
0010
,
1000
0010
0100
0001
,
0010
0100
1000
1002
,
0000
1003
0010
0001
,
0010
1000
0100
0001
,
0100
1000
0010
0100
,
0001
0010
0100
2001
,
0000
3001
0010
1000
,
0010
0001
0100
1000
,
0100
0001
0010
0100
,
1000
0010
0100
1002
,
0000
2003
0000
0000
,
0000
0001
0000
0000
,
0000
3001
0010
0010
,
0001
1000
0010
0010
,
1000
0002
0000
0000
,
0000
1000
0000
0000
,
0000
1003
0100
0100
,
1000
0001
0100
0100
,
0001
2000
0000
0000
,
0000
0001
0000
0000
,
0000
3001
0100
0100
,
0001
0010
0010
0100
,
1000
1000
0010
0100
,
0100
0001
0010
1000
,
0010
0002
0000
1003
,
0010
0000
0100
0001
1000
0000
0000
0000
,
0010
0000
1000
0000
,
0100
0000
0010
0000
,
0100
0000
1000
0000
,
0010
0000
0100
0000
,
0001
0000
0010
0000
,
0100
0000
0010
0000
,
0001
0000
2000
0000
,
0000
0000
3001
0000
,
0010
0000
0100
0000
,
0010
0000
0001
0000
,
0100
0000
0010
0000
,
0100
0000
0001
0000
,
0010
0000
0100
0000
,
1000
0000
0010
0000
,
0100
0000
0002
0000
,
0000
0000
1003
0000
,
0100
0000
0001
0000
,
0100
0000
0010
0000
,
0001
0000
0100
0000
,
1000
0000
0100
0000
,
0010
0000
1000
0000
,
0100
0000
0010
0000
,
0001
0000
2000
0000
,
0000
0000
3001
0000
,
0010
0000
1000
0000
,
0010
0000
0001
0000
,
0100
0000
0010
0000
,
0001
0000
0010
0000
,
1000
0000
0100
0000
,
0010
0000
0001
0000
,
1000
0000
0002
0000
,
0000
0000
1003
0000
,
0100
0000
0001
0000
,
1000
0000
0010
0000
,
0001
0000
2000
0000
,
0000
0000
0000
0000
,
3001
0000
0010
0000
,
1000
0000
0001
0000
,
0100
0000
1000
0000
,
0002
0000
0000
0000
,
0000
0000
1003
0000
,
0010
0000
0001
0000
,
1000
0000
0100
0000
,
0001
0000
2000
0000
,
0000
0000
0000
0000
,
3001
0000
0010
0000
,
1000
0000
0001
0000
,
0100
0000
1000
0000
,
0002
0000
0000
0000
,
1003
0000
0100
0000
,
0001
0000
1000
0000
,
0010
0000
0001
0000
,
2000
0000
0000
0000
,
0000
0000
3001
0000
,
0100
0000
1000
0000
,
0001
0000
0010
0000
,
1000
0000
0002
0000
,
0000
0000
2003
0000
,
0000
0000
0000
0000
,
0000
0000
3200
0000
,
0000
0000
0000
0000
,
0000
0000
0320
0000
,
0000
0000
0000
0000
,
0000
0000
0032
0000
,
0000
0000
0000
0000
,
0000
0000
0203
0000
,
0000
0000
0000
0000
,
0000
0000
0320
0000
,
0000
0000
0000
0000
,
0000
0000
2030
0000
,
0000
0000
0000
0000
,
0000
0000
3002
0000
,
0000
0000
0000
0000
,
0000
0000
0103
0000
,
0000
0000
0000
0000
,
0000
2002
0000
0000
,
0000
0000
0000
0000
,
0000
0000
0000
0000
,
0000
0000
0000
0000
,
0000
0000
0000
0000
,
0000
0000
0000
0000
,
0000
0000
0000
0000
,
0000
0000
0000
0000
,
0000
3003
0000
0000
;

//--------------- dance-single - ----------------
#NOTES:
     dance-single:
     :
     Easy:
     15:
     0.638519,1.34498,0.303296,0.343204,0.011972,560,522,38,43,0,0,0.638519,1.34498,0.303296,0.343204,0.011972,560,522,38,43,0,0:
0000
0000
0000
0000
,
0000
0000
0000
0000
,
0000
0000
0000
0000
,
0000
0000
0000
0000
,
0000
0000
0000
0000
,
0000
0000
0000
0000
,
0000
0000
0000
0000
,
0000
0000
0000
0000
,
2000
0000
3020
0000
,
0230
0000
0301
0010
,
0200
0000
2300
0000
,
3020
0000
0130
0001
,
1000
0010
0100
0001
,
0010
0100
1000
0001
,
1000
0010
1000
0010
0100
0001
0100
0001
,
1000
0000
0010
1000
0001
0000
1001
0000
1000
0000
0000
0000
0010
0000
0000
0000
,
1000
0000
0001
0100
,
0001
0000
0100
0010
,
0100
0010
0100
0000
,
0110
0000
1000
0010
,
1000
0000
0001
0010
,
0001
0000
0000
0000
1000
0001
0010
0002
,
0000
0000
0000
1003
0001
0000
0100
0000
,
0001
0000
1000
0010
,
1000
0000
0010
0100
,
0010
0100
0010
0000
,
0110
0000
0010
1000
,
0010
0000
0100
0001
,
0100
0000
0001
0010
,
0100
1000
0001
0000
,
1001
0000
0001
0010
,
0001
0000
1000
0100
,
1000
0000
0010
0100
,
0010
0100
0010
0000
,
0110
0000
0000
0000
0010
0000
1000
0001
,
1000
0000
1001
0000
,
1000
0001
1000
0001
,
1000
0000
1001
0000
,
0001
0000
1000
0100
,
1000
0000
0001
0000
,
0100
0010
0100
0010
,
0100
0000
0110
0000
,
1001
0000
1000
0001
1000
0000
0001
0000
2002
0000
0000
0000
0000
0000
0000
0000
,
0000
0000
0000
0000
,
0000
0000
3003
0000
,
0000
0000
0000
0000
,
0000
0000
0001
0010
,
0001
0000
1000
0100
,
1000
0000
0010
1000
,
0010
0100
0001
0000
,
1001
0000
1000
0000
,
0100
0000
0010
0000
,
0001
0000
1000
0000
,
0100
0000
0010
0000
,
0001
0000
1000
0100
,
1000
0000
0001
0100
,
0001
0000
0010
0001
,
0010
0100
1000
0000
,
1001
0000
1000
0000
,
0010
0100
0010
0000
,
0100
0000
0001
0020
,
0000
0000
0130
1000
0001
0000
0010
0000
,
0001
0000
0010
0100
,
0010
0000
0100
1000
,
0100
0000
1000
0000
,
1001
0000
0002
0203
,
0320
0000
0130
0000
,
0010
1000
0010
0000
,
0100
0000
0101
0000
,
1000
0100
1000
0000
,
0001
0010
0001
0000
,
0010
0100
0010
0000
,
0001
0000
1001
0000
,
1000
0010
1000
0010
,
1000
0000
1001
0000
,
0001
0010
0001
0010
,
0001
0000
0110
0000
,
2002
0000
0000
0000
,
0000
0000
0000
0000
,
0000
0000
0000
0000
,
0000
0000
0000
0000
,
3003
0000
0000
0000
,
0000
0000
0000
0000
,
0000
0000
1000
0100
0000
1000
0100
0000
,
1000
0000
0001
0100
0010
0000
0100
0000
,
0001
0000
0100
0001
0000
0100
0001
0000
,
0100
0000
0010
1000
0100
0000
1000
0000
,
0100
0000
1000
0010
0000
1000
0010
0000
,
1000
0000
0010
0100
0001
0000
0010
0000
,
0100
0000
0010
0001
0000
0010
0001
0000
,
0100
0000
0010
1000
0100
0000
1000
0000
,
0010
0000
1000
0001
0000
1000
0001
0000
,
1000
0000
0010
0100
0001
0000
0010
0000
,
0001
0000
0100
0010
0000
0100
0010
0000
,
0100
0000
0010
1000
0001
0000
0010
0000
,
0100
1000
0010
0100
,
0001
0010
0100
1000
,
0001
0000
1000
0010
1000
0000
0001
0010
,
0001
0000
0100
0010
0100
0010
0100
0000
,
0010
2000
0000
0000
,
0000
0001
0000
0000
,
0000
0000
3001
0000
0010
0100
1000
0000
,
0001
0000
1000
0000
0100
0010
0001
0000
,
1000
0002
0000
0000
,
0000
1000
0000
0000
,
0000
0000
1003
0000
0010
0100
0001
0000
,
1000
0000
0001
0000
0100
0010
1000
0000
,
0001
2000
0000
0000
,
0000
0001
0000
0000
,
0000
0000
3001
0000
1000
0010
0100
0000
,
0001
0000
0010
0000
0100
1000
0010
0000
,
0100
0000
0001
0010
0001
0000
1000
0010
,
1000
0000
0010
0100
0001
0010
0100
0000
,
1000
0000
0000
0000
0001
0000
0000
0100
0000
0000
0010
0000
2000
0000
0000
0000
,
3020
0000
0130
0001
1000
0000
0100
0000
,
1000
0000
0001
0100
,
0001
0000
0010
0100
,
0010
0100
0010
0000
,
0011
0000
0001
0010
,
0001
0000
1000
0100
,
1000
0000
0010
0100
,
0010
0100
0010
0000
,
1010
0000
1000
0100
,
1000
0000
0001
0100
,
0001
0000
0010
0001
,
0010
0001
0010
0000
,
0101
0000
1000
0100
,
1000
0000
0001
0100
,
0001
0000
1000
0100
,
1000
0100
1000
0000
,
1100
0000
1000
0010
,
1000
0000
0001
0100
,
0001
0000
0010
0001
,
0100
0010
1000
0000
,
1100
0000
0001
0010
,
0001
0000
1000
0010
,
1000
0000
0001
0100
,
0010
1000
0001
0000
,
0011
0000
0001
0010
,
0001
0000
1000
0010
,
1000
0000
0010
1000
,
0100
0010
0001
0000
,
0011
0000
0001
1000
,
0001
0000
1000
0001
,
1000
0000
0001
1000
,
0001
1000
0010
0100
,
0010
0000
1000
0100
,
1000
0000
0100
0010
,
0100
0000
0010
0001
,
0010
0000
0011
0000
,
2100
0000
0000
0000
,
3001
0010
0001
0000
,
0100
0010
0100
0000
,
0010
1000
0010
0000
,
1010
0000
0102
0000
,
0000
0000
1003
0010
,
1000
0000
0010
0100
,
0010
0000
0100
0001
,
0100
0000
0101
0000
,
2010
0000
0000
0000
,
3001
0010
0001
0010
,
0001
0000
1001
0000
,
1000
0100
1000
0100
,
1000
0000
1002
0000
,
1003
0100
0010
0001
,
1000
0000
1001
0000
,
0001
0010
0100
1000
,
0001
0000
1002
0000
,
0000
0000
1003
0010
,
0100
0001
1000
0000
,
1001
0000
0001
0100
,
0010
1000
0001
0000
,
1001
0000
2000
0000
,
0000
0000
3020
0000
,
0000
0000
0230
0000
,
0000
0000
0302
0000
,
0000
0000
0023
0000
,
0000
0000
0230
0000
,
0000
0000
0320
0000
,
0000
0000
0032
0000
,
0000
0000
0203
0000
,
0000
0000
0320
0000
,
0000
0000
2030
0000
,
0000
0000
3200
0000
,
0000
0000
0320
0000
,
0000
0000
0032
0000
,
0000
0000
0203
0000
,
0000
0000
0320
0000
,
0000
0000
0130
0000
,
0000
0000
0000
0000
,
0000
2002
0000
0000
,
0000
0000
0000
0000
,
0000
0000
0000
0000
,
0000
0000
0000
0000
,
0000
0000
0000
0000
,
0000
0000
0000
0000
,
0000
0000
0000
0000
,
0000
0000
0000
0000
,
0000
3003
0000
0000
;

//--------------- dance-single - ----------------
#NOTES:
     dance-single:
     :
     Medium:
     17:
     0.784466,1.503213,0.367148,0.223482,0.019954,688,642,46,28,0,0,0.784466,1.503213,0.367148,0.223482,0.019954,688,642,46,28,0,0:
0000
0000
0000
0000
,
0000
0000
0000
0000
,
0000
0000
0000
0000
,
0000
0000
0000
0000
,
0000
0000
0000
0000
,
0000
0000
0000
0000
,
0000
0000
0000
0000
,
0000
0000
0000
0000
,
2100
0000
3002
0000
,
0203
0000
0310
1010
,
0102
0000
2003
0000
,
3200
0000
0310
0011
,
1000
0010
0100
0001
,
0010
0100
1000
0001
,
1000
0010
0100
0001
0010
0100
1000
0001
,
0010
0000
0001
1000
0100
0000
1001
0000
1000
0000
0000
0000
0100
0000
0000
0000
,
1000
0001
1000
0010
,
1000
0001
0100
0010
,
0100
0001
0010
0100
,
1000
0000
0010
1000
,
0100
0010
0001
0100
,
0010
0000
1000
0000
0010
1000
0001
0200
,
0000
0000
0000
0310
1000
0000
0100
0000
,
0010
0001
0010
0100
,
0010
0001
0100
0010
,
1000
0100
0010
0100
,
1000
0000
0001
0100
,
0010
1000
0100
0010
,
0100
1000
0002
0000
,
0103
0000
1010
0000
,
1001
0000
1000
0100
,
0010
0100
1000
0010
,
0100
0010
1000
0100
,
0010
0001
0100
0010
,
1000
0000
0000
0000
0200
0000
1300
0010
,
0100
0000
1001
0000
,
0010
1000
0100
0010
,
0001
0010
0100
0000
,
1002
0000
1003
0010
,
0100
0010
1000
0100
,
0010
0001
0100
0010
,
1000
0100
0010
0000
,
1001
0000
1000
0001
1000
0000
1001
0000
2000
0000
0000
0000
0000
0000
0000
0000
,
0000
0000
0000
0000
,
0000
0000
3001
0000
,
0010
0000
0100
0000
,
1000
0000
0001
0100
,
0010
1000
0001
0100
,
1000
0100
0001
0010
,
1000
0010
0001
0100
,
0010
0000
1000
0000
,
0100
1000
1100
0000
,
1001
0000
0001
0000
,
0010
0001
0011
0000
,
1001
0000
1000
0010
,
0100
0001
1000
0010
,
0001
0010
1000
0100
,
0001
0100
1000
0010
,
0100
0000
0001
0000
,
0010
0100
0010
0000
,
1001
0000
2000
3010
,
0100
0000
0001
1001
1000
0000
0100
0000
,
0001
0100
0010
0001
,
0100
1000
0100
0010
,
1000
0100
0010
0001
,
0100
0000
0000
0000
0001
0000
0100
0010
,
1000
0000
1001
0000
,
0001
0010
0100
1000
,
0010
0100
0001
0000
,
1000
0010
0001
0010
,
0100
0001
0010
0100
,
0001
0100
0010
0001
,
0100
0010
1000
0000
,
0001
1000
0010
0001
,
0010
0100
0001
0010
,
1000
0010
0001
0100
,
0010
1000
0100
0000
,
2002
0000
0000
0000
,
0000
0000
0000
0000
,
0000
0000
0000
0000
,
0000
0000
0000
0000
,
3003
0000
0000
0000
,
0000
0000
0000
0000
,
0000
0000
1000
0100
0000
0010
0001
0000
,
1001
0000
0001
0100
1000
0100
0001
0000
,
1001
0000
0001
0010
0000
0100
1000
0000
,
1001
0000
0001
0010
1000
0010
0001
0000
,
1001
0000
1000
0010
0000
0100
0001
0000
,
1001
0000
0010
0001
0100
1000
0100
0000
,
1001
0000
0001
0100
0000
0010
1000
0000
,
1001
0000
0010
1000
0100
0001
0100
0000
,
1001
0000
0010
1000
0000
0001
0100
0000
,
1001
0000
0100
1000
0100
0001
0100
0000
,
1001
0000
0100
0001
0000
1000
0100
0000
,
1001
0000
0010
1000
0010
0001
0010
0000
,
1001
1000
0010
0100
,
0001
0011
0001
1000
,
1100
0000
1000
0010
0100
0001
0010
0100
,
1000
0001
1000
0010
0001
0010
1000
0100
,
0001
0100
2000
0000
0000
0000
0000
0000
,
0000
0001
0000
0000
,
0000
0000
3001
0010
0100
1000
0001
0000
,
1001
0000
1000
0100
0010
0001
1000
0000
,
1001
0002
0000
0000
,
0000
1000
0000
0000
,
0000
0000
1003
0010
0100
0001
1000
0000
,
1001
0000
0001
0100
0010
1000
0001
0000
,
1001
2000
0000
0000
,
0000
0001
0000
0000
,
0000
0000
3001
0010
1000
0010
0001
0000
,
1001
0000
1000
0010
0001
0010
1000
0000
,
1001
0000
1000
0010
0100
0001
0010
1000
,
0010
0001
0100
0010
0001
0010
0100
0001
,
0010
0000
0100
0000
1000
0100
0000
0010
0001
0000
0100
0010
2000
0000
0000
0000
,
3001
0010
0100
1001
1000
0000
0100
0000
,
0010
0100
1000
0100
,
0010
0100
1000
0100
,
0010
0001
0010
0100
,
0010
0000
0001
0100
,
0010
0100
0001
0100
,
0010
0100
0001
0100
,
0010
1000
0100
0010
,
0001
0000
1000
0010
,
0100
0010
1000
0010
,
0100
0010
1000
0100
,
0010
0001
0100
0010
,
1000
0000
0001
0010
,
1000
0010
0001
0100
,
1000
0100
0002
0000
,
0013
0000
1100
0000
,
1001
0000
1000
0010
,
0100
1000
0100
0010
,
1000
0100
0010
0001
,
0100
0010
0001
0010
,
0100
0000
0001
0010
,
0100
0001
0100
0010
,
0001
0100
0010
1000
,
0100
0010
1000
0010
,
0100
0000
0010
1000
,
0010
0001
0100
1000
,
0100
0001
0010
1000
,
0010
0001
0100
0010
,
1000
0000
0001
1000
,
0100
0001
0100
1000
,
0010
0001
0010
1000
,
0100
0010
0001
1000
,
0100
0000
1000
0100
,
0010
0001
0100
0010
,
1000
0100
0001
0100
,
1000
0010
0100
0000
,
2010
0000
0000
0000
,
3001
0010
0100
1000
,
0010
0100
0001
0010
,
1000
0010
0001
1000
,
0010
0000
0102
0000
,
0000
0000
1003
0100
,
0010
0001
0100
0010
,
1000
0100
0001
0100
,
1000
0010
0100
0000
,
2001
0000
0000
0000
,
3001
0010
1000
0010
,
0100
1000
0010
0001
,
0010
0100
0001
0010
,
0100
1000
0002
0000
,
1003
0100
0001
0100
,
1000
0010
0001
0010
,
1000
0100
0010
0001
,
1000
0100
2000
0000
,
0000
0000
3001
0010
,
1000
0010
0001
0100
,
1000
0100
0001
0010
,
0100
1000
0001
0010
,
0002
0000
1003
0000
,
1000
0000
0010
0000
,
0100
0000
0001
0000
,
0010
0000
0100
0000
,
1000
0000
0001
0000
,
0001
0000
0100
0000
,
0010
0000
0100
0000
,
0001
0000
0010
0000
,
0100
0000
1000
0000
,
0010
0000
0001
0000
,
0010
0000
0100
0000
,
0001
0000
0010
0000
,
0100
0000
1000
0000
,
0100
0000
0001
0000
,
0100
0000
0010
0000
,
0001
0000
0100
0000
,
0001
0000
0000
0000
0000
0000
0000
0000
0020
0030
0000
0000
0000
0000
0000
0000
,
0000
0000
0000
0000
,
0000
2002
0000
0000
,
0000
0000
0000
0000
,
0000
0000
0000
0000
,
0000
0000
0000
0000
,
0000
0000
0000
0000
,
0000
0000
0000
0000
,
0000
0000
0000
0000
,
0000
0000
0000
0000
,
0000
3003
0000
0000
;

//--------------- dance-single - ----------------
#NOTES:
     dance-single:
     :
     Hard:
     20:
     0.988564,2.136144,0.534759,0.263389,0.347194,867,800,67,33,0,0,0.988564,2.136144,0.534759,0.263389,0.347194,867,800,67,33,0,0:
0000
0000
0000
0000
,
0000
0000
0000
0000
,
0000
0000
0000
0000
,
0000
0000
0000
0000
,
0000
0000
0000
0000
,
0000
0000
0000
0000
,
0000
0000
0000
0000
,
0000
0000
0000
0000
,
2010
0000
3002
0000
,
0023
0030
1100
0011
,
0102
0000
2003
0000
,
3020
0030
1010
0101
,
0001
0010
0100
1000
,
1010
0011
1100
1001
,
1000
0100
0010
0001
0100
0010
1000
0001
,
0010
0000
0001
1000
0100
0000
1001
0000
1000
0000
0000
0000
0010
0000
0000
0000
,
0100
0010
1000
0001
,
0010
0000
0100
1000
0100
0000
1000
0000
,
0010
0100
0001
0010
,
0001
0010
0001
0010
0001
0000
0100
0000
,
0010
1000
0100
0010
,
0001
0000
1000
0000
0010
1000
0001
0200
,
0000
0000
0000
0310
1000
0000
0010
0000
,
0100
0001
0010
0100
,
0010
0000
0001
0010
0001
0000
0100
0000
,
0010
1000
0100
0010
,
0001
0010
0001
0010
0001
0000
1000
0000
,
0010
0100
0010
1000
,
0100
0000
0010
0000
0001
0100
0001
0000
,
1000
0100
1000
0000
0010
0100
0010
0100
,
0010
0100
0010
0000
1000
0000
0010
0000
,
0100
0010
1000
0100
,
0010
0000
0001
0100
0001
0000
0100
0000
,
0010
1000
0100
0010
,
0100
0010
0100
0010
0200
0000
1300
0010
,
0100
0000
1001
0000
,
1000
0001
0010
0100
,
0010
0000
0001
0000
0100
0000
0010
0100
,
0010
0000
1000
0100
,
1000
0000
0100
0000
0010
0000
0100
0010
,
0100
1000
0010
0100
,
0001
0000
1000
0000
0001
0100
0001
0000
,
1001
0000
1000
0001
1000
0000
0110
0000
2001
0000
0000
0000
0000
0000
0000
0000
,
0000
0000
0000
0000
,
0000
0000
3001
1000
,
0001
1000
0001
1000
,
0001
1000
0001
0100
,
0010
0001
0010
0100
,
0001
0000
0010
0100
0010
0000
0001
0000
,
0100
1000
0100
0010
,
1000
0001
1000
0001
1000
0000
0010
0000
,
0100
0001
0010
1000
,
0010
0001
0100
0010
,
1000
0001
0010
1000
,
0010
0001
1000
0100
,
0001
0100
0010
0001
,
0100
0000
0010
1000
0010
0000
1000
0000
,
0100
0001
0100
0010
,
0001
0100
0001
0100
0001
0000
0000
0000
,
0101
1010
1001
0000
,
0110
0000
0000
0000
1000
0000
0010
0100
,
0010
0100
0010
1001
1000
0000
0100
0000
,
0001
0100
1000
0010
,
0100
0000
0001
0010
0100
0000
0010
0000
,
0001
0000
0100
0000
0010
1000
0100
0000
,
0010
0001
0100
0000
0001
0000
0100
0010
,
1001
0000
0110
0000
,
1000
0100
0001
0100
,
1000
0010
0100
0000
0001
0100
0010
0000
,
1000
0100
0001
0100
,
0010
0000
0001
0000
0100
0000
0010
1000
,
0001
1000
0100
0010
,
0001
1000
0010
0000
1000
0001
0100
0000
,
0001
0100
0001
0000
1000
0000
0010
0000
,
1000
0100
1000
0000
0001
0000
0010
0000
,
0100
1000
0100
1000
0001
1000
0001
0100
,
0010
0100
0010
1000
0001
1000
0001
0000
,
2002
0000
0000
0000
,
0000
0000
0000
0000
,
0000
0000
0000
0000
,
0000
0000
0000
0000
,
3003
0000
0000
0000
,
0000
0000
0000
0000
,
0000
0000
1000
0001
0000
0001
0100
0000
,
0110
0000
0010
1000
0100
0001
0100
0000
,
0011
0000
0001
1000
0000
1000
0010
0000
,
1010
0000
1000
0001
0010
1000
0010
0000
,
0011
0000
0001
0010
0000
0010
0100
0000
,
1100
0000
0010
0001
0100
1000
0100
0000
,
1010
0000
0010
1000
0000
1000
0001
0000
,
0011
0000
0001
1000
0010
0100
0001
0000
,
0011
0000
0001
0100
0000
0100
1000
0000
,
0110
0000
0010
1000
0100
0001
0100
0000
,
0110
0000
0010
0001
0000
0001
1000
0000
,
1010
0000
0010
0001
0010
1000
0100
0000
,
1100
1001
1001
1010
,
0101
0110
0110
0011
,
1100
0000
1000
0100
0001
0100
1000
0010
,
0001
0000
0010
0000
1000
0100
1000
0100
1000
0001
1000
0001
0100
0001
0100
0001
,
0010
0100
0010
0100
2000
0000
0000
0000
0000
0000
0000
0000
0000
0000
0000
0000
,
0000
0001
0000
0000
,
0000
0000
0000
0000
3001
0000
0000
0000
0101
0000
0000
0100
0010
0000
1000
0000
,
0100
0000
0010
0000
0001
0000
0000
0000
0101
0000
0000
0100
0010
0000
1000
0000
,
0100
0010
0002
0000
0000
0000
0000
0000
,
0000
1000
0000
0000
,
0000
0000
0000
0000
1003
0000
0000
0000
1010
0000
0000
0010
0100
0000
0001
0000
,
0010
0000
0100
0000
1000
0000
0000
0000
1010
0000
0000
0010
0100
0000
0001
0000
,
0010
0100
2000
0000
0000
0000
0000
0000
,
0000
0001
0000
0000
,
0000
0000
0000
0000
3001
0000
0000
0000
0011
0000
0000
0010
0001
0000
0100
0000
,
0010
0000
1000
0000
0100
0000
0000
0000
1100
0000
0000
0100
1000
0000
0010
0000
,
0100
0001
0010
0001
0100
1000
0100
0001
,
0010
0000
0100
0000
1000
0010
1000
0010
0100
0001
0100
0001
0010
0100
0010
0100
,
1000
0001
1000
0001
1000
1000
0000
0001
0001
0000
0100
0100
0020
0000
0000
0000
,
1030
0100
0011
1001
1000
0001
0100
0000
,
0010
0000
1000
0001
0100
0000
0010
0000
,
2000
0000
3001
0010
,
0100
1000
1100
0000
,
0012
0000
0000
0000
1003
0010
0100
0000
,
0001
0000
1000
0010
0100
0000
0001
0000
,
2000
0000
3001
0100
,
0010
1000
0101
0000
,
2010
0000
0000
0000
3001
1000
0100
0000
,
1000
0000
0001
1000
0100
0000
1000
0000
,
0002
0000
1003
0010
,
0100
0001
0011
0000
,
2100
0000
0000
0000
3001
0100
0010
0000
,
1000
0000
0001
0100
0010
0000
1000
0000
,
0001
0100
0010
0000
1000
0001
1000
0001
,
1000
0001
1000
0001
1000
0001
1000
0001
,
1000
0000
0000
0000
0001
1000
0010
0000
,
1000
0000
0001
1000
0010
0000
1000
0000
,
0002
0000
1003
0100
,
0010
0001
0011
0000
,
2010
0000
0000
0000
3001
0010
0100
0000
,
1000
0000
0001
0010
0100
0000
1000
0000
,
0002
0000
1003
0010
,
0100
0001
1010
0000
,
0102
0000
0000
0000
1003
0001
0010
0000
,
0001
0000
1000
0001
0010
0000
0001
0000
,
2000
0000
3001
0100
,
0010
1000
1010
0000
,
0101
0000
0000
0000
1000
0001
0100
0000
,
0001
0000
1000
0001
0010
0000
0001
0000
,
1000
0010
0100
0000
0001
1000
0001
1000
,
0001
1000
0001
1000
0001
1000
0001
1000
,
0001
0000
1000
0001
,
0100
0010
0100
0000
0001
0000
1000
0000
,
0100
0010
0100
0000
1000
0000
0001
0000
,
0100
0010
0100
0000
0001
0000
0000
0000
,
2100
0000
0000
0000
,
3001
0000
1000
0000
0010
0100
0001
0000
,
1000
0000
0001
0000
0010
0100
1000
0000
,
0001
0000
0100
0000
0010
1000
0001
0000
,
0100
0000
0102
0000
,
0000
0000
1003
0001
,
0010
0100
1000
0000
0010
0000
1000
0000
,
0001
0010
0100
0000
0010
0000
0001
0000
,
0100
0010
1000
0000
0001
0000
0000
0000
,
2010
0000
0000
0000
,
3001
0010
0100
0000
1000
0000
0100
0010
,
0001
0000
0010
0000
0100
1000
0100
0000
,
1000
0001
1000
0001
1000
0001
1000
0001
,
1000
0001
1000
0001
1000
0000
0000
0000
,
0001
0000
0100
0000
0001
0000
0100
0000
0010
0000
1000
0000
,
0010
0000
1000
0000
0100
0000
0010
0000
0001
0000
0010
0000
,
0001
0000
0100
0000
0010
0000
0100
0000
0010
0000
1000
0000
,
0100
0000
0010
0000
0100
0000
2000
0000
0000
0000
0000
0000
,
0000
0000
0000
0000
0000
0000
3001
0000
0010
0000
0001
0000
,
0010
0000
0100
0000
0010
0000
0001
0000
0100
0000
0010
0000
,
1000
0000
0010
0000
0100
0000
0001
0000
0010
0000
0100
0000
,
0010
0000
0001
0000
0100
0000
0001
0000
1000
0000
0010
0000
,
1000
0000
0000
0000
0000
0000
0001
0000
0000
0000
0010
0000
,
0000
0000
0100
0000
0000
0000
1000
0000
0000
0000
0100
0000
,
0000
0000
1000
0000
0000
0000
0010
0000
0000
0000
1000
0000
,
0000
0000
0010
0000
0000
0000
0100
0000
0000
0000
0010
0000
,
0000
0000
0100
0000
0000
0000
0001
0000
0000
0000
0100
0000
,
0000
0000
0001
0000
0000
0000
0010
0000
0000
0000
0100
0000
,
0000
0000
0010
0000
0000
0000
0100
0000
0000
0000
1000
0000
,
0000
0000
0010
0000
0000
0000
0100
0000
0000
0000
0010
0000
,
0000
0000
0100
0000
0000
0000
0001
0000
0000
0000
0010
0000
,
0000
0000
0100
0000
0000
0000
0010
0000
0000
0000
0001
0000
,
0000
0000
0100
0000
0000
0000
0010
0000
0000
0000
0100
0000
,
0000
0000
0001
0000
0000
0000
0010
0000
0000
0000
0100
0000
,
0000
0000
1000
0000
0000
0000
0010
0000
0000
0000
1000
0000
,
0000
0000
0010
0000
0000
0000
0100
0000
0000
0000
0001
0000
,
0000
0000
0010
0000
0000
0000
0100
0000
0000
0000
1000
0000
,
0000
0000
0010
0000
0000
0000
0100
0000
0000
0000
0001
0000
,
0000
0000
0000
0000
0000
0000
0000
0000
1000
0000
0000
0000
0000
0000
0000
0000
0000
0000
0000
0000
0000
0000
0000
0000
0020
0000
0000
0030
0000
0000
0000
0000
0000
0000
0000
0000
0000
0000
0000
0000
0000
0000
0000
0000
0000
0000
0000
0000
,
0000
0000
0000
0000
,
0000
2002
0000
0000
,
0000
0000
0000
0000
,
0000
0000
0000
0000
,
0000
0000
0000
0000
,
0000
0000
0000
0000
,
0000
0000
0000
0000
,
0000
0000
0000
0000
,
0000
0000
0000
0000
,
0000
3003
0000
0000
;

//--------------- dance-single - ----------------
#NOTES:
     dance-single:
     :
     Challenge:
     20:
     1.231429,2.294377,0.638519,0.438982,0.415037,1080,1000,80,55,0,0,1.231429,2.294377,0.638519,0.438982,0.415037,1080,1000,80,55,0,0:
0000
0000
0000
0000
,
0000
0000
0000
0000
,
0000
0000
0000
0000
,
0000
0000
0000
0000
,
0000
0000
0000
0000
,
0000
0000
0000
0000
,
0000
0000
0000
0000
,
0000
0000
0000
0000
,
2100
0000
0000
3001
0012
0000
0000
0103
,
0201
0000
0000
0310
1010
0000
0011
0000
,
0102
0000
0000
1003
1200
0000
0000
0310
,
0012
0000
0000
0103
0101
0000
1100
0000
,
0011
1010
1100
0101
,
1100
1010
0011
1010
,
1000
1000
0010
0010
0100
0100
0001
0001
,
1000
0000
0001
0000
0010
0000
0100
0000
1000
0000
0000
0000
1000
0100
0010
0001
1000
0000
0000
0000
0000
0000
0000
0000
0100
0000
0000
0000
0000
0000
0000
0000
,
0001
0100
1100
0010
,
0001
0000
0010
1000
0100
0000
0010
0000
,
0001
0100
0101
0001
,
1000
0010
0100
0001
1000
0000
0100
0000
,
0010
0001
0101
0100
,
0010
0000
0000
0000
1000
0000
0000
0000
0011
0000
1000
0010
0100
0001
2000
0000
,
0000
0000
0000
0000
0000
0000
0000
0000
0000
0000
0000
0000
3001
0010
0100
1000
0001
0000
0000
0000
0000
0000
0000
0000
0100
0000
0000
0000
0000
0000
0000
0000
,
1000
0100
0110
0010
,
1000
0000
0001
0010
0100
0000
1000
0000
,
0100
0010
0011
0010
,
0001
1000
0010
0100
0001
0000
0010
0000
,
0100
1000
1010
1000
,
0010
0000
0100
0000
0001
0010
0001
0010
,
0100
0010
0100
1000
0010
1000
0010
0100
,
0001
0100
0001
1000
0010
0000
1000
0000
,
0010
0100
0101
0001
,
0010
0000
0100
1000
0010
0000
0100
0000
,
0001
0010
0110
1000
,
0100
0000
1000
0000
0010
0000
0100
0000
0001
0010
0100
1000
0001
0010
0100
1000
,
0002
0000
0003
0000
0110
0000
0100
1000
,
0010
0100
0001
0010
,
1100
0000
1000
0000
0001
0010
0100
1000
,
0002
0000
1003
0100
,
0010
0000
0101
0000
0100
0000
0010
1000
,
0100
0010
0001
1100
,
1000
0000
0001
0000
0100
0001
1000
0010
,
1000
0000
1000
0001
1000
0000
1001
0000
1000
0000
0000
0000
0010
0000
0000
0000
,
0100
0001
0010
0100
,
0010
0001
0100
0010
,
0100
0010
1000
0100
,
0010
0001
1000
0100
,
0010
0001
0101
0100
,
0010
0000
1000
0001
0010
0000
0100
0000
,
0010
0001
0101
0100
,
0010
0000
1000
0000
0100
0000
0010
0000
0001
0000
0000
0000
1000
0001
0000
0000
,
0010
0100
1000
1100
,
0001
0000
0000
0000
0011
0000
0000
0000
0001
0000
0000
0000
1000
0001
0000
0000
,
0100
0010
1000
1010
,
0001
0011
1000
0001
,
0010
0100
1100
1000
,
0010
0000
0100
0001
0010
0000
0100
0000
,
0010
0001
1010
1000
,
0010
1000
0001
0010
0100
1000
0100
0000
,
1000
0000
0001
0000
1000
0010
0100
0000
,
0001
0100
0010
0000
2000
0000
3001
0100
,
0010
0000
0000
0000
1000
0000
0000
0000
0001
0000
0000
0000
1000
0100
0010
0001
2000
0000
0000
0000
0000
0000
0000
0000
3020
0000
0000
0000
0000
0000
0000
0000
,
0001
0100
1030
0100
,
0010
0000
0001
0100
0020
0000
0230
0000
,
1000
0000
0010
0000
0301
0010
0100
0000
,
1000
0000
0100
0000
0010
0000
0000
0000
0001
0100
0010
0000
1000
0100
0010
0001
,
2000
0000
0000
0000
3010
0000
0100
0001
,
0020
0230
0001
0010
,
1300
0010
0100
0000
0001
0100
0010
0000
,
1000
0020
0230
1000
,
0010
0000
0301
0000
0010
0000
0100
1000
,
0020
0230
1000
0010
,
0301
0010
0100
0000
1000
0010
0100
0000
,
0001
0010
0100
0010
0001
0100
0010
1000
,
0100
0010
0001
0010
0100
1000
0010
0100
,
0001
1000
0010
0100
0001
0010
0100
1000
,
0010
1000
0010
0100
0001
1000
0010
1000
,
2002
0000
0000
0000
,
0000
0000
0000
0000
,
0000
0000
0000
0000
,
0000
0000
0000
0000
,
3003
0000
0000
0000
,
0000
0000
0000
0000
,
0000
0000
0001
0010
0000
0010
1100
0000
,
0011
0000
0000
1000
0100
0010
0001
0010
0100
1000
0000
0000
,
0001
0100
0010
0000
1000
0000
0010
0000
0000
0000
0010
0000
0101
0000
0000
0000
,
1010
0000
0000
0000
0000
0000
0000
0000
0000
0000
0000
0000
1000
0000
0000
0000
0010
0000
0000
0000
0100
0000
0000
0000
0001
0000
0000
0000
0100
0000
0000
0000
0010
0000
0000
0000
1000
0000
0000
0100
0000
0000
0010
0000
0000
0000
0000
0000
,
0001
0010
0100
0000
1000
0000
0010
0000
0000
0000
0010
0000
1010
0000
0000
0000
,
0101
0000
0000
1000
0010
0100
0001
0010
0100
1000
0000
0000
,
0001
0100
0010
0000
1000
0000
0100
0000
0000
0000
0100
0000
0011
0000
0000
0000
,
1100
0000
0000
0000
0000
0000
0000
0000
0000
0000
0000
0000
0001
0000
0000
0000
0010
0000
0000
0000
0100
0000
0000
0000
1000
0000
0000
0000
0010
0000
0000
0000
0100
0000
0000
0000
0010
0000
0000
0100
0000
0000
0001
0000
0000
0000
0000
0000
,
0010
0100
1000
0000
0001
0000
0100
0000
0000
0000
0100
0000
0101
0000
0000
0000
,
1100
0000
0000
1000
0010
0100
0001
0010
0100
1000
0000
0000
,
0001
1000
0100
0000
1000
0000
0100
0000
0000
0000
0100
0000
1100
0000
0000
0000
,
0011
0000
0000
0000
0000
0000
0000
0000
0000
0000
0000
0000
1000
0000
0000
0000
0100
0000
0000
0000
1000
0000
0000
0000
0100
0000
0000
0000
0010
0000
0000
0000
0001
0000
0000
0000
0010
0000
0000
0001
0000
0000
0100
0000
0000
0000
0000
0000
,
0010
1000
0100
0000
2000
0000
0000
0000
3200
0000
0000
0000
0301
0000
0000
0000
,
0021
0032
0203
1300
,
1020
0000
1030
1000
0010
0010
0100
0100
,
0001
0000
0001
0000
1000
0010
1000
0100
0010
0001
0100
0010
1000
0010
0100
0001
,
1000
0100
0010
0001
2000
0000
0000
0000
0000
0000
0200
0000
0300
0000
0000
0000
,
0002
0003
0020
0030
0000
0002
0003
0000
,
0100
0000
0000
0000
0000
0000
0000
0000
0000
0000
0000
0000
3001
0000
0000
0000
0000
0000
1000
0000
0000
0000
0000
0000
0010
0000
0000
0100
0000
0000
0000
0000
0000
0001
0000
0000
0010
0000
0000
0000
0000
0000
0000
0000
0100
0000
0000
0000
,
0000
0000
0000
0000
1100
0000
0000
0000
0000
0000
0000
0000
1000
0000
0000
0000
0000
0000
0001
0000
0000
0000
0000
0000
0100
0000
0000
0010
0000
0000
0000
0000
0000
1000
0000
0000
0100
0000
0000
0000
0000
0000
0000
0000
0010
0000
0000
0000
,
0000
0000
0011
0000
0000
0000
0002
0000
0000
0000
0000
0000
0000
0000
0000
0200
0000
0000
0300
0000
0000
0000
0000
0000
,
0020
0030
2000
3000
0000
0200
0300
0000
,
0010
0000
0000
0000
0000
0000
0000
0000
0000
0000
0000
0000
1003
0000
0000
0000
0000
0000
0010
0000
0000
0000
0000
0000
0100
0000
0000
0001
0000
0000
0000
0000
0000
0010
0000
0000
0100
0000
0000
0000
0000
0000
0000
0000
0010
0000
0000
0000
,
0000
0000
0000
0000
0011
0000
0000
0000
0000
0000
0000
0000
0001
0000
0000
0000
0000
0000
1000
0000
0000
0000
0000
0000
0010
0000
0000
0100
0000
0000
0000
0000
0000
0001
0000
0000
1000
0000
0000
0000
0000
0000
0000
0000
0100
0000
0000
0000
,
0000
0000
1100
0000
0000
0000
2000
0000
0000
0000
0000
0000
0000
0000
0000
0002
0000
0000
0003
0000
0000
0000
0000
0000
,
0200
0300
0020
0030
0000
0200
0300
0000
,
0010
0000
0000
0000
0000
0000
0000
0000
0000
0000
0000
0000
3001
0000
0000
0000
0000
0000
1000
0000
0000
0000
0000
0000
0010
0000
0000
0100
0000
0000
0000
0000
0000
0001
0000
0000
0010
0000
0000
0000
0000
0000
0000
0000
0100
0000
0000
0000
,
0000
0000
0000
0000
1100
0000
0000
0000
0000
0000
0000
0000
1000
0000
0000
0000
0000
0000
0010
0000
0000
0000
0000
0000
0100
0000
0000
0001
0000
0000
0000
0000
0000
1000
0000
0000
0100
0000
0000
0000
0000
0000
0000
0000
0010
0000
0000
0000
,
0000
0000
0011
0000
0000
0000
0001
0000
0000
0001
0000
0000
0100
0000
0000
0100
0000
0000
0010
0000
0000
0010
0000
0000
,
1000
0000
1000
0000
0001
0100
0010
1000
0100
0010
0100
1000
0001
0100
0010
1000
,
0001
0000
0010
0000
0100
0000
1000
0000
0010
0000
0010
0000
0000
0000
1000
0000
1000
0000
0000
0000
0001
0010
0100
1000
0002
0000
0000
0000
0000
0000
0000
0000
,
0013
0000
0000
0000
0100
0000
0000
0000
1000
0000
0000
0000
0001
0010
0100
1000
0001
0000
0000
0000
1000
0000
0000
0000
0100
0000
0000
0000
0000
0000
0000
0000
,
1000
0000
0010
1000
0100
0000
0010
0000
,
0001
0100
0010
1000
0100
0000
1000
0000
,
1010
0000
0100
0000
0001
0100
1000
0000
,
0001
0010
1000
0000
0001
1000
0100
0000
,
1000
0000
0010
0100
0001
0000
0010
0000
,
0001
1000
0100
1000
0001
0000
0100
0000
,
0101
0000
0010
0000
1000
0100
0001
0000
,
1000
0010
0001
0000
1000
0001
0010
0000
,
0100
0000
0010
0001
0100
0000
0010
0000
,
1000
0100
0010
0001
0100
0000
0010
0000
,
1010
0000
0100
0000
0001
0010
1000
0000
,
0001
0100
1000
0000
0010
1000
0100
0000
,
0010
0000
0001
0100
0010
0000
1000
0000
,
0001
1000
0100
1000
0001
0100
0010
0100
,
0010
1000
0010
1000
0100
0010
0100
1000
,
0010
0100
0001
1000
0100
1000
0010
0000
,
0100
0000
0001
0010
0100
0000
0010
0000
,
0001
1000
0100
0010
0001
0000
1000
0000
,
1010
0000
0010
0000
1000
0010
0001
0000
,
1000
0100
0001
0000
1000
0001
0010
0000
,
0100
0000
0010
0001
0100
0000
0010
0000
,
1000
0001
0010
0100
1000
0000
0010
0000
,
0101
0000
0100
0000
0001
0010
1000
0000
,
0001
0100
1000
0000
0001
1000
0100
0000
,
0010
0000
0100
1000
0010
0000
0100
0000
,
0001
1000
0100
0010
0100
0000
1000
0000
,
1010
0000
0010
0000
1000
0100
0001
0000
,
1000
0010
0001
0000
1000
0100
0010
0001
,
0010
0100
0010
0001
0100
0010
1000
0100
,
0010
0001
0100
0010
1000
0001
0100
0010
,
1000
0100
0010
0001
0100
0010
0100
0001
,
2000
0000
3001
0011
,
0010
0001
0100
0000
0010
0000
1010
0000
,
1000
0100
0010
0000
0001
0000
0101
0000
,
0100
0010
1000
0000
0100
0000
1000
0000
,
0012
0000
0000
0000
,
1003
0000
1010
0000
0010
1000
0100
0000
,
1000
0000
1010
0000
0010
0100
0001
0000
,
0010
0000
0011
0000
0010
0001
0100
0000
,
0010
1000
2100
0000
,
0000
0000
3001
1100
,
1000
0010
0100
0000
0001
0000
0011
0000
,
0010
0100
1000
0000
0010
0000
1010
0000
,
1000
0001
0010
0000
0100
0000
1000
0000
,
0012
0000
0000
0000
,
1003
0010
0100
0010
1000
0100
0010
0001
,
0010
0100
0010
0001
0100
0010
1000
0100
,
0010
0100
1000
0010
0100
0010
0100
0001
,
0010
0100
0010
0001
2000
0000
0000
0000
,
3001
0010
0100
0010
0001
0100
0010
0100
,
0001
0010
0100
1000
0010
0100
0010
1000
,
0100
0010
0001
1000
0010
1000
0001
0010
,
0100
0010
0001
1000
0002
0000
0000
0000
,
0000
0000
0000
0000
1003
0010
0100
0001
,
0010
0100
0010
0001
0100
0010
0100
0001
,
0010
0100
1000
0100
0010
0100
1000
0010
,
0100
0001
0010
0100
0010
0001
0100
0010
,
2000
0000
3001
0100
,
0010
0100
0001
0010
,
0100
1000
0100
1000
,
0010
0100
0010
0100
,
0001
0010
0100
1000
,
0100
0010
0001
0100
,
0010
0100
0001
0010
,
0100
1000
0100
0010
,
0100
1000
0010
0100
,
0001
0100
0010
1000
,
0100
0010
0100
1000
,
0010
0100
0001
0010
,
0100
0010
0001
0100
,
0010
1000
0100
0010
,
0100
1000
0010
0100
,
0001
0100
0010
1000
,
0001
1000
0020
0000
,
0000
0000
0030
0000
,
0000
2002
0000
0000
,
0000
0000
0000
0000
,
0000
0000
0000
0000
,
0000
0000
0000
0000
,
0000
0000
0000
0000
,
0000
0000
0000
0000
,
0000
0000
0000
0000
,
0000
0000
0000
0000
,
0000
3003
0000
0000
;
