#TITLE:MAXiMiZED OVERKiLL;
#SUBTITLE:;
#ARTIST:iNFECTiON underground;
#TITLETRANSLIT:;
#SUBTITLETRANSLIT:;
#ARTISTTRANSLIT:;
#GENRE:;
#CREDIT:DigiMindAxel+Damox;
#MUSIC:MAXiMiZED OVERKiLL.ogg;
#BANNER:MAXiMiZED OVERKiLL.png;
#BACKGROUND:MAXiMiZED OVERKiLL-bg.png;
#CDTITLE:;
#SAMPLESTART:103.455;
#SAMPLELENGTH:12.000;
#SELECTABLE:YES;
#OFFSET:-10.373;
#BPMS:0.000=210.000
,32.000=105.000
,40.000=210.000
,48.000=420.000
,60.000=840.000
,64.000=210.000
,128.000=105.000
,130.000=420.000
,258.000=210.000
,262.000=105.000
,294.000=210.000
,310.000=220.000
,350.000=440.000
,358.000=880.000
,374.000=440.000
,630.000=220.000
;
#STOPS:60.000=0.075
,61.000=0.075
,62.000=0.035
,62.500=0.035
,63.000=0.035
,63.500=0.035
;
#DISPLAYBPM:105.000:880.000;
#BGCHANGES:;
#FGCHANGES:;

//--------------- dance-single - ----------------
#NOTES:
     dance-single:
     :
     Beginner:
     10:
     0.391972,0.646036,0.181131,0.080503,0,409,382,27,12,0,0,0.391972,0.646036,0.181131,0.080503,0,409,382,27,12,0,0:
1000
0001
1000
0001
,
0100
0010
0100
0010
,
1000
0001
1000
0001
,
0010
0100
0010
0100
,
1000
0010
0100
0010
,
1000
0100
0010
0001
,
0100
0001
0010
0100
,
1000
0001
0010
0000
,
0220
0000
0330
0000
,
2002
0000
3003
0000
,
1000
0000
0001
0000
,
0010
0001
0100
0010
,
1000
0000
1000
0000
,
0001
0000
0001
0000
,
0100
0000
0010
0000
,
0110
0000
1001
0000
,
0010
1000
0100
1000
,
0010
0000
0100
0000
0001
0000
0010
0001
,
0100
0010
1000
0100
,
1000
0010
0010
0110
,
0100
0001
0010
0100
,
1000
0000
0010
0000
0100
0000
0010
1000
,
0100
1000
0001
0010
,
0001
0001
0100
0110
,
1000
0001
0010
0001
,
0100
0000
0010
0000
1000
0000
0100
1000
,
0010
0100
0010
1000
,
0001
0001
0010
0110
,
0010
0001
0001
1000
,
0010
1000
1000
0100
,
0010
0010
0100
0100
,
1000
0001
1000
0001
,
0010
1001
1000
0000
,
0001
0000
1000
0000
,
0001
0000
0100
0000
,
0010
0000
0100
0000
,
0010
0000
1000
0000
,
0001
0000
1000
0000
,
0001
0000
0010
0000
,
0100
0000
0010
0000
,
0100
0000
1000
0000
,
0010
0000
0100
0000
,
0010
0000
1000
0000
,
0100
0000
0010
0000
,
0001
0000
0100
0000
,
0001
0000
0010
0000
,
0001
0000
0100
0000
,
0010
0000
1000
0000
,
0100
0000
0010
0000
,
0000
1001
0000
0000
,
1001
0000
0100
0000
,
0000
1001
0000
0000
,
1001
0000
0010
0000
,
0000
1001
0000
0000
,
1001
0000
0100
0000
,
0010
0000
0100
0000
,
0010
0000
1000
0000
,
0000
0110
0000
0000
,
0110
0000
0001
0000
,
0000
0110
0000
0000
,
0110
0000
1000
0000
,
0010
0000
0100
0000
,
0001
0000
0010
0000
,
0001
0000
0100
0000
,
0010
0000
1000
0001
,
1001
0000
0010
1000
,
0100
1000
0010
0000
0100
0000
0001
0000
,
0010
0001
0100
0000
0001
0000
0010
0000
,
0100
1000
0010
0000
0100
0000
0010
0000
,
1000
0001
0100
0000
0010
0000
1000
0000
,
0100
0010
0001
0000
0010
0000
0001
0000
,
0100
0001
1000
0000
0100
0000
0010
0000
,
0001
1000
0010
0000
0100
0001
0010
0000
,
0100
1000
0001
0000
1000
0000
1000
0000
,
0000
0001
0000
0000
1000
0000
0000
0001
,
0000
1000
0001
0001
,
0000
1000
0000
0000
0001
0000
0000
1000
,
0000
0001
1000
1000
,
0000
0001
0000
0000
1000
0000
0000
0001
,
0000
1000
0001
0001
,
0000
1000
0000
0000
0001
0000
0000
1000
,
0000
0001
2002
0000
,
0000
0000
3003
0000
,
0000
0000
0220
0000
,
0000
0000
0330
0000
,
0000
0000
1000
0000
,
0001
0000
1000
0001
,
1000
0001
0100
0000
,
0010
0000
0100
0000
,
0010
0000
1000
0000
,
0000
0000
0001
0000
,
0000
0000
1001
0000
,
0000
0000
0000
0000
,
0000
0000
1000
0000
,
0010
0000
0100
0000
,
0010
0000
1000
0000
,
0100
0000
0010
0000
,
0001
0000
0100
0000
,
0000
0000
0010
0000
,
1000
0000
0010
0000
,
0100
0000
0010
0000
,
1000
0000
0100
0000
,
0010
0000
0001
0000
,
0100
0000
0001
0000
,
0010
0000
0001
0000
,
0100
0000
0001
0000
,
0000
0000
0010
0000
,
0001
0000
0100
0000
,
0010
0000
1000
0000
,
0100
0000
1000
0000
,
0010
0000
1000
0000
,
0100
0000
0010
0000
,
0001
0000
0010
0000
,
0001
0000
0100
0000
,
0000
0000
0010
0000
,
1000
0000
0010
0000
,
0100
0000
0001
0000
,
0010
0000
0001
0000
,
0100
0000
0010
0000
,
0100
0000
0001
0000
,
0010
0000
0100
0000
,
1000
0000
0010
0000
,
0000
0000
1000
0000
,
0010
0000
0100
0000
,
0001
0000
0010
0000
,
0100
0000
1000
0000
,
1000
0000
0001
0000
,
0001
0000
0100
0000
,
0100
0000
0010
0000
,
0010
0000
1000
0000
,
0000
0000
0001
0000
,
0000
0000
0100
0000
,
0100
0000
0010
0000
,
1001
0000
1000
0000
,
1000
0000
0010
0000
,
0010
0000
0100
0000
,
0100
0000
0001
0000
,
0001
0000
0010
0000
,
0000
0000
0001
0000
,
0000
0000
0100
0000
,
0100
0000
0010
0000
,
1001
0000
1000
0000
,
1000
0000
0010
0000
,
0010
0000
1000
0000
,
1000
0000
0001
0000
,
0001
0000
0010
0000
,
0000
0000
0001
0000
,
0000
0000
0100
0000
,
0100
0000
0010
0000
,
1001
0000
1000
0000
,
0010
0000
0100
0000
,
0010
0000
1000
0000
,
0100
0000
0010
0000
,
0001
0000
1000
0001
,
1000
0000
0001
1000
,
0001
0000
0100
0010
,
0100
0000
0010
0100
,
0010
0000
0220
0000
,
0330
0000
2002
0000
,
0000
0000
0000
0000
,
0000
0000
3003
0000
;

//--------------- dance-single - ----------------
#NOTES:
     dance-single:
     :
     Easy:
     14:
     0.61623,0.969053,0.288469,0.2348,0.026834,643,600,43,35,0,0,0.61623,0.969053,0.288469,0.2348,0.026834,643,600,43,35,0,0:
0010
1000
0100
0000
0010
0001
0100
0000
,
0010
1000
0100
0000
0010
0001
0100
0000
,
0001
1000
0100
0000
0010
0001
1000
0000
,
0100
1000
0001
0000
1000
0001
0010
0000
,
0001
0100
0010
0000
1000
0001
0010
0000
,
0100
1000
0010
0000
0100
0001
0010
0000
,
0100
1000
0001
0100
0010
1000
0001
0010
,
0100
1000
0010
0100
0001
0000
0000
0000
,
0220
0000
0330
0000
,
1000
0001
0000
0001
0000
0001
0000
0001
0100
0010
0000
0010
0000
0010
0000
0010
,
1000
0100
0000
0100
1000
0001
0000
0001
,
0010
0110
1000
1001
,
1000
0010
0100
0000
,
0001
0100
0010
0000
,
1000
0010
0100
0001
,
0010
0000
1001
0000
,
0001
1000
0010
0000
0100
0001
0010
0000
,
0100
0100
0010
1001
,
0010
0001
0100
0000
0010
1000
0001
0000
,
0100
0001
0100
0010
0100
0001
0100
0000
,
0010
1000
0001
0000
0010
0001
0100
0000
,
0010
0010
0100
1001
,
0100
1000
0001
0000
0010
0001
0100
0000
,
0010
1000
0010
0100
0010
0000
0110
0000
,
0100
0010
1000
0000
0100
0010
0001
0000
,
1000
0100
0100
0011
,
0001
1000
0010
0000
0100
0001
0010
0000
,
0100
1000
0100
0010
0100
1000
0100
0000
,
0010
0100
1000
0000
0010
0100
0001
0000
,
0010
0001
1000
0000
0010
0100
0001
0000
,
0010
0100
1000
0100
0010
0001
0100
0010
,
1000
0100
0010
0001
0100
0000
0110
0000
,
1001
0010
0100
1001
1000
0000
0001
0000
,
0100
0000
0010
1000
,
0100
0000
0010
0001
,
0100
0000
0001
1000
,
0100
0000
0010
0001
,
1000
0000
0010
1000
,
0100
0000
0010
0001
,
0010
0100
0010
0001
,
0010
0100
0010
0001
,
1000
0000
0010
1000
,
0100
0000
0010
0001
,
1000
0000
0010
1000
,
0100
0000
0010
0001
,
1000
0000
0010
1000
,
0100
0000
0010
0001
,
0010
0100
0010
0001
,
0010
0100
0020
0000
,
0031
0002
0000
0103
,
0200
0000
0320
0000
,
1030
2000
0000
3100
,
0200
0000
0320
0000
,
0130
0200
0000
1300
,
2000
0000
3010
0100
,
0010
1000
0010
0000
,
0110
0000
0002
0000
,
1003
2000
0000
3100
,
0200
0000
2300
0000
,
3010
0020
0000
0130
,
0200
0000
0301
0010
,
0100
1000
0001
0010
,
0100
1000
0010
0100
,
0010
1000
0100
0000
,
0110
0000
0000
0000
1000
0001
0100
0001
,
1000
0000
1001
0000
2000
0000
3010
1000
,
0100
0010
0001
0100
0002
0000
0013
0001
,
0100
0010
1000
0100
2000
0000
3001
0010
,
0001
0100
0010
1000
0002
0000
0013
0001
,
0100
0010
1000
0100
2000
0000
3001
0010
,
1000
0010
0001
0010
0200
0000
0310
0001
,
0100
1000
0100
0001
0020
0000
0031
1000
,
0010
0001
0010
1000
0100
0010
0001
0100
,
1000
0100
0010
1000
0001
0000
0011
0000
,
0000
0110
0000
0000
1100
0000
0000
0110
,
0000
1001
1000
1100
,
0000
0110
0000
0000
0011
0000
0000
0101
,
0000
0110
1001
0011
,
0000
0110
0000
0000
1100
0000
0000
0101
,
0000
1010
0011
1001
,
0000
1010
0000
0000
0011
0000
0000
1100
,
0000
0110
2002
0000
,
0000
0000
0000
0000
,
0000
3003
0120
0000
,
0000
0000
2030
0000
,
0000
0000
3002
0000
,
2003
0000
3010
0010
,
0100
0100
0001
1000
,
0010
1000
0001
0010
,
0001
1000
0010
0000
,
1000
0000
0001
0000
,
0010
0000
0002
0000
,
0000
0000
1003
0000
,
0000
0000
1000
0001
,
1000
0000
0100
0010
,
0001
0010
0100
1000
,
0010
0000
0100
0001
,
0010
0100
1000
0000
,
0010
0000
1000
0100
,
0010
0100
1000
0100
,
0010
0100
1000
0100
,
0010
0000
0001
1000
,
0001
0000
0010
0100
,
1000
0100
0010
0001
,
0100
0000
0010
1000
,
0100
0010
0001
0000
,
0100
0000
0001
0010
,
0100
0010
0001
0010
,
0100
0010
0001
0010
,
0100
0000
1000
0001
,
0010
0000
0001
0010
,
1000
0010
0001
1000
,
0100
0000
1000
0010
,
0100
0001
0010
0000
,
0100
0000
1000
0010
,
0100
1000
0100
0010
,
1000
0010
0100
1000
,
0100
0000
0001
1000
,
0100
0000
1000
0100
,
0001
0100
1000
0001
,
0010
0000
0001
0100
,
0010
1000
0100
0000
,
0010
0000
0001
0100
,
0010
0001
0010
0100
,
0001
0100
0010
0001
,
0010
0000
1000
0001
,
0010
0000
0100
1000
,
0001
0000
0100
0001
,
0010
0000
0100
1000
,
0010
0000
0100
0010
,
1000
0010
0100
0100
,
0010
0000
1000
0100
,
0010
0001
0100
0000
,
0110
0000
0001
1000
,
0100
0000
0010
0001
,
1000
0000
0010
1000
,
0100
0000
0010
0001
,
1000
0000
0010
0100
,
0001
0100
0010
0010
,
0100
0000
0001
0010
,
0100
1000
0010
0000
,
0110
0000
0010
1000
,
0100
0000
1000
0001
,
0100
0000
0001
0010
,
0100
0000
1000
0001
,
0010
0000
0001
0010
,
1000
0010
0001
0010
,
0100
0000
0010
0001
,
0100
0000
0010
0000
,
0110
0000
1000
0001
,
0010
0001
1000
0010
,
1000
0000
0100
1000
,
0010
0100
0010
1000
,
0100
0000
0010
0001
,
0100
0001
0010
0100
,
1000
0010
0100
0001
,
0010
0100
1000
0001
,
0100
0000
0220
0000
,
0330
0000
2002
0000
,
0000
0000
0000
0000
,
0000
0000
3003
0000
;

//--------------- dance-single - ----------------
#NOTES:
     dance-single:
     :
     Medium:
     17:
     0.813654,1.561253,0.288469,0.476309,0.191194,849,806,43,71,0,0,0.813654,1.561253,0.288469,0.476309,0.191194,849,806,43,71,0,0:
1000
0001
0100
0001
1000
0001
0010
0001
,
1000
0010
0100
0010
1000
0000
0110
0000
,
0001
1000
0010
1000
0001
1000
0100
1000
,
0001
0100
0010
0100
0001
0000
0110
0000
,
0010
0001
0100
0010
0100
0001
0010
0100
,
0010
0001
0100
0010
0100
0000
1001
0000
,
0010
1000
0100
0010
0100
1000
0010
1000
,
0001
1000
0001
0000
1000
0001
1000
0000
0001
0000
0000
0000
0000
0000
0000
0000
,
0220
0000
0330
0000
,
0010
1000
0000
1000
0000
1000
0000
1000
0100
0010
0000
0010
0000
0010
0000
0010
,
0001
1000
0000
1000
0100
0010
0000
0010
,
0001
1010
1000
0101
,
0010
1000
0100
0010
,
0001
0100
0010
1000
,
0010
0100
0010
0000
0100
0010
0100
0000
,
0010
0000
1000
0000
0001
1000
0001
0000
,
1000
0010
0100
0010
1000
0100
0010
0001
,
0100
0000
0010
0000
0100
0000
0001
0000
0010
0001
0010
0000
0001
0000
0000
0000
,
0100
0001
0010
0001
0100
0001
0010
0100
,
1000
0000
0010
0000
1000
0000
0100
0000
1000
0010
1000
0000
0100
0000
0000
0000
,
0010
0001
0100
0001
0010
0100
1000
0010
,
1000
0000
0001
0000
0100
0000
0010
0000
0100
0001
0100
0000
0010
0000
0000
0000
,
0100
0001
0010
0100
0010
0001
0100
0010
,
1000
0000
0100
0000
0010
0000
0100
0000
1000
0010
1000
0000
0001
0000
0000
0000
,
1000
0010
0100
0001
0010
0100
0010
0001
,
0100
0000
0010
0000
1000
0000
0001
0000
1000
0001
0010
0000
0001
0000
0000
0000
,
1000
0010
0100
0010
1000
0100
0010
0001
,
1000
0000
0001
0000
0100
0000
0010
0000
1000
0001
0010
0000
0001
0000
0000
0000
,
0010
0010
0001
0100
0010
1000
0100
0000
,
0010
0010
0100
1000
0010
0100
0001
0000
,
0100
0100
0010
0010
1000
1000
0001
0001
,
1000
0010
1000
0000
0001
0010
0001
0000
1000
0100
1000
0001
0100
0001
1000
0000
,
0001
0100
0010
1000
0100
0000
1001
0000
1000
0000
0000
0000
0010
0000
0000
0000
,
0010
1000
0100
0010
,
0001
0100
0001
0010
,
0010
0001
0100
0000
,
0001
1000
0100
1000
0001
0000
0100
0000
,
0100
0010
1000
0100
,
1000
0000
0010
0000
0100
0010
0100
0000
,
0010
0100
0010
0000
1000
0001
1000
0000
,
0001
1000
0001
0000
1000
0000
0010
0000
,
0010
1000
0100
1000
,
0010
0100
0001
0010
,
0010
0001
1000
0000
,
0001
1000
0010
1000
0001
0000
0100
0000
,
0100
0010
1000
0100
,
0010
0000
0001
0000
1000
0001
1000
0000
,
0001
1000
0001
0000
0100
0010
0100
0000
,
0010
0100
0010
0000
0200
0000
0000
0000
,
0301
0021
0000
0130
,
2100
0000
3020
0000
,
0130
0102
0000
0013
,
0210
0000
2300
0000
,
3010
0210
0000
0301
,
0102
0000
1003
0001
,
1000
0100
0001
1000
,
0010
0001
2000
0000
,
3010
0210
0000
0301
,
1200
0000
0320
0000
,
0031
1020
0000
0130
,
0201
0000
0310
1000
,
0100
0010
0001
0010
,
0100
0000
1000
0000
0001
0100
0001
0000
,
0100
0010
0100
0000
0010
1000
0010
1000
,
0001
0100
0001
0000
1000
0001
0100
0001
,
1000
0000
1001
0000
2000
0000
3001
0011
,
0010
0001
0100
0010
1000
0100
0010
0001
0200
0000
0000
0000
0310
0000
1010
0000
,
0001
1000
0010
0100
0001
0010
0100
1000
0002
0000
0203
0000
0320
0000
2030
0000
,
3010
1000
0001
0010
0100
1000
0010
0100
0020
0000
2030
0000
3200
0000
0320
0000
,
0031
0100
0010
1000
0100
0010
0001
0100
0020
0000
2030
0000
3002
0000
0203
0000
,
0310
0001
0010
1000
0100
0001
0100
1000
0020
0000
2030
0000
3200
0000
0302
0000
,
0103
1000
0010
0001
0010
0100
0001
0010
0200
0000
2300
0000
3020
0000
2030
0000
,
3001
0010
1000
0010
0001
0100
1000
0100
0001
0010
1000
0010
0100
1000
0010
0001
,
0010
0100
0001
0010
0100
0000
1001
0000
1000
0000
0010
0000
0101
0000
0000
0000
,
0001
0200
0000
0310
2000
0000
3100
0020
,
0000
0130
0110
0000
0010
0001
0101
0000
,
0100
0020
0000
1030
0200
0000
0310
0002
,
0000
1003
1001
0000
0001
0100
1010
0000
,
1000
0020
0000
0130
0002
0000
0013
0200
,
0000
0310
0110
0000
0100
1000
1010
0000
,
0010
0200
0000
0301
0020
0000
0130
2000
,
0000
3001
0110
0000
2002
0000
0000
0000
,
0000
0000
0000
0000
,
0000
3003
0120
0000
,
0000
0000
2030
0000
,
0000
0000
3002
0000
,
0203
0000
0301
0011
,
1000
1100
1000
0010
,
1000
0100
0001
0100
,
1000
0010
1000
0000
,
0100
0000
0001
0000
,
0100
0000
1000
0000
,
0000
0000
1001
0000
,
0000
0000
0010
0001
,
1000
0100
1000
0010
,
1000
0001
0010
0001
,
0100
0010
1000
0100
,
0010
0000
2001
0000
,
0010
0000
0000
0000
3001
0000
0100
0010
,
0100
0000
0010
0000
1000
0000
0100
0010
,
0100
0000
0010
0000
0001
0000
0100
0010
,
0100
0010
1000
0100
,
0010
0001
0010
0001
,
0100
0001
0010
0001
,
0100
0010
1000
0100
,
0010
0000
1002
0000
,
0100
0000
0000
0000
1003
0000
0010
0100
,
0010
0000
1000
0000
0100
0000
0010
0001
,
0010
0000
0001
0000
0100
0000
0010
1000
,
0010
1000
0010
1000
,
0001
0010
0001
0100
,
0010
0100
0001
0010
,
0100
1000
0010
0100
,
0001
0000
2001
0000
,
0100
0000
0000
0000
3001
0000
0100
0001
,
0100
0000
0010
0000
1000
0000
0100
1000
,
0100
0000
1000
0000
0010
0000
0100
0010
,
0100
0001
0010
0001
,
0100
0010
1000
0100
,
0010
0001
0100
0010
,
0100
0001
0010
0100
,
1000
0000
1002
0000
,
0010
0000
0000
0000
1003
0000
0001
0010
,
0001
0000
0100
0000
0010
0000
1000
0010
,
1000
0000
0100
0000
0010
0000
0001
0100
,
0001
0000
0010
0000
0001
1000
0001
0000
,
0100
0000
0010
0000
1000
0001
1000
0000
,
0100
0000
0010
0000
0001
1000
0001
0000
,
0100
0000
0010
0000
1000
0001
1000
0000
,
0100
0000
0010
0000
0001
1000
0001
0000
,
0100
0010
1000
0100
,
0010
0001
0100
0010
,
0010
0000
2010
0000
,
3002
0000
0000
0000
1003
0001
1000
0000
,
0010
0000
0100
0000
0001
1000
0001
0000
,
0010
0000
0100
0000
1000
0001
1000
0000
,
0100
0000
0010
0000
0001
1000
0001
0000
,
0100
0000
0010
0000
1000
0001
1000
0000
,
0010
0100
0001
0010
,
0100
1000
0010
0100
,
0100
0000
1002
0000
,
2003
0000
0000
0000
3010
0100
0001
0000
,
0010
0000
0100
0000
1000
0010
0100
0000
,
0010
0000
1000
0000
0001
0010
0100
0000
,
0010
0000
0001
0000
0100
0010
1000
0000
,
0100
0000
0010
0000
0001
0100
0010
0000
,
0100
0001
0010
0100
,
1000
0010
0100
0001
,
0001
0000
2001
0000
,
3002
0000
0000
0000
1003
0010
1000
0000
,
0010
1000
0010
0000
1000
0010
1000
0000
,
0010
0000
0000
0000
0100
0001
0100
0000
,
0001
0100
0001
0000
0100
0001
0100
0000
,
0001
0000
1000
0010
,
0100
0001
1000
0010
,
0100
0000
0001
0000
1000
0010
0100
0001
,
0010
0100
1000
0010
1000
0010
0100
0001
,
0100
0010
1000
0000
0220
0000
0000
0000
,
0330
0000
2002
0000
,
0000
0000
0000
0000
,
0000
0000
3003
0000
;

//--------------- dance-single - ----------------
#NOTES:
     dance-single:
     :
     Hard:
     19:
     1.012036,1.991943,0.241509,0.449474,0.382389,1056,1020,36,67,0,0,1.012036,1.991943,0.241509,0.449474,0.382389,1056,1020,36,67,0,0:
1000
0000
0001
0000
0100
0010
0000
1000
0100
0000
0010
0000
0001
0000
0010
0000
,
0100
0000
1000
0000
0010
0100
0000
0001
0010
0000
0100
0000
0010
0000
0001
0000
,
1000
0000
0010
0000
0100
0010
0000
1000
0100
0000
0010
0000
0001
0000
0100
0000
,
0010
0010
1000
1000
0001
0001
0100
0100
,
0001
0000
1000
0000
0100
0010
0000
0001
0010
0000
0100
0000
0010
0000
0001
0000
,
1000
0000
0010
0000
0100
0010
0000
1000
0100
0000
0010
0000
0001
0000
1000
0000
,
0010
0100
0110
0010
1000
0100
0110
0010
,
0001
1000
0001
1000
0001
1000
0001
1000
0001
0000
0000
0000
0000
0000
0000
0000
,
1000
0001
1000
0010
1000
0001
1000
0100
1000
0001
1000
0010
1000
0001
1000
0000
,
0100
0010
0100
0001
0100
0010
0100
1000
0100
0010
0100
0001
0100
0010
0100
0000
,
1100
2000
0000
3001
0011
0002
0000
1003
,
1010
0011
0110
1001
,
1000
0001
0100
0010
,
1000
0100
0010
0001
,
0100
0001
1000
0010
0100
0001
1000
0010
,
0100
0000
0110
0000
0010
1000
0001
0100
,
0010
0000
1000
0000
0100
0010
0001
0000
0010
0000
0100
0000
1000
0000
0010
0000
,
0100
0000
0010
0000
1000
0100
0010
0000
0001
0000
1000
0000
1001
0000
0000
0000
,
0001
0000
1000
0000
0100
0010
0001
0000
0010
0000
0100
0000
1000
0000
0010
0000
,
0100
0100
0001
0001
0010
0010
0100
0100
,
1000
0000
0001
0000
0010
0100
1000
0000
0010
0000
1000
0000
0001
0000
0100
0000
,
0001
0000
0010
0000
0100
0010
0001
0000
1000
0000
0001
0000
1001
0000
0000
0000
,
0100
0000
0010
0000
1000
0100
0010
0000
0100
0000
1000
0000
0010
0000
0100
0000
,
0010
0010
1000
1000
0001
0001
0010
0010
,
0001
0000
1000
0000
0001
0100
0010
0000
1000
0000
0100
0000
0001
0000
0100
0000
,
1000
0000
0001
0000
0100
0010
1000
0000
0001
0000
0010
0000
1001
0000
0000
0000
,
0010
0000
0001
0000
1000
0010
0100
0000
0001
0000
0010
0000
1000
0000
0010
0000
,
0001
0001
1000
1000
0010
0010
0100
0100
,
0010
0000
0100
0000
0010
0100
0010
0000
1000
0000
0001
0000
1001
0000
0000
0000
,
0001
0000
1000
0000
0001
1000
0001
0000
0100
0000
0010
0000
0110
0000
0000
0000
,
1010
1000
0100
0010
0011
0001
0100
0010
,
1000
0100
0010
0001
0100
0010
1000
0100
0010
0001
0100
0010
1000
0100
0010
0001
,
1000
1000
0001
0001
0100
0010
0110
0000
1000
0000
0000
0000
0001
0000
0000
0000
,
1000
0100
1000
0000
0001
0000
0100
0001
,
0100
0010
0100
0001
,
0010
0001
0010
0000
0001
0000
0000
0000
,
0001
1000
0010
1000
0001
0000
1000
0000
,
0001
0010
0001
0000
0100
0000
0010
1000
,
0010
0000
0100
0000
0001
0010
0001
0000
,
1000
0010
1000
0000
0001
0100
0001
0000
,
1000
0100
1000
0000
0001
0000
1000
0000
,
0001
0010
0001
0000
1000
0000
0010
1000
,
0010
0100
0010
1000
,
0100
1000
0100
0000
1000
0000
0000
0000
,
1000
0001
0100
0001
1000
0000
0001
0000
,
1000
0100
1000
0000
0010
0000
0100
0001
,
0100
0000
0010
0000
1000
0100
1000
0000
,
0001
0100
0001
0000
1000
0010
1000
0000
,
0001
0010
0001
0000
2000
0000
3002
0000
,
1003
0001
2000
0000
3002
0000
0103
0010
,
0200
0320
2030
3200
,
0310
0001
0020
0000
0032
0000
0103
0010
,
0200
0320
2030
3200
,
0310
0001
0020
0000
0032
0000
0103
0001
,
0200
0320
1030
1000
,
0001
0000
0010
0000
0100
0010
0100
0000
,
0010
0100
0010
0000
0002
0000
2003
0000
,
3001
1000
0002
0000
2003
0000
3010
0100
,
0020
0230
0302
0023
,
0130
1000
0200
0000
2300
0000
3010
0100
,
0020
0230
0301
0010
,
0110
0100
1000
0010
,
0110
0000
0010
0000
1000
0100
0010
0001
,
0100
0010
1000
0100
0010
0001
0100
0010
,
1000
0100
0010
0001
1000
1000
0001
0001
,
0100
0010
0110
0000
2000
0000
3010
0110
,
1000
0000
0001
0000
1000
0100
1000
0000
0001
0000
0100
0000
0001
0010
0001
0000
0200
0000
0000
0000
0000
0000
0000
0000
0310
0000
0000
0000
0110
0000
0000
0000
,
1000
0000
0010
0000
0100
0001
0100
0000
0010
0000
1000
0000
0100
1000
0100
0000
0020
0000
0000
0000
0032
0000
0000
0000
2003
0000
0000
0000
3020
0000
0000
0000
,
0130
0000
0001
0000
0010
0100
0010
0000
0100
0000
1000
0000
0010
0100
0010
0000
2000
0000
0000
0000
3020
0000
0000
0000
0230
0000
0000
0000
0302
0000
0000
0000
,
0013
0000
0001
0000
1000
0000
0100
0000
0010
0001
0100
0000
0010
1000
0100
0000
0020
0000
0000
0000
0032
0000
0000
0000
0023
0000
0000
0000
2030
0000
0000
0000
,
3010
0000
0001
0000
0100
0010
0100
0000
0010
0000
1000
0000
0001
1000
0001
0000
2000
0000
0000
0000
3200
0000
0000
0000
0302
0000
0000
0000
0203
0000
0000
0000
,
1300
0000
0010
0000
0100
0000
0001
0000
0010
0001
0100
0000
0010
1000
0100
0000
2000
0000
0000
0000
3020
0000
0000
0000
0032
0000
0000
0000
0023
0000
0000
0000
,
1030
0100
0010
0001
0100
0010
0001
0010
0100
0001
0010
0100
1000
0010
0100
1000
,
0100
0001
0010
0100
1000
0010
0100
0001
1000
0000
1001
0000
1000
0100
0010
0001
1000
0000
0000
0000
0001
0000
0000
0000
0100
0000
0010
0000
0000
0000
1000
0000
,
0100
0010
0001
0010
0100
0100
1000
1000
,
0001
0000
1000
0000
1001
0000
0000
0000
0001
0000
0010
0000
0100
1000
0000
0010
,
0100
0001
0010
0100
1000
1000
0001
0001
,
0010
0000
0100
0000
1001
0000
0000
0000
0001
0000
1000
0000
0010
0100
0000
0001
,
0010
0100
1000
0010
0100
0100
0010
0010
,
1000
0000
0001
0000
1001
0000
0000
0000
1000
0000
0100
0000
0010
0001
0000
0100
,
0010
1000
0100
0010
0001
0001
0100
0100
,
0010
1000
0001
0100
2002
0000
0000
0000
,
0000
0000
0000
0000
,
0000
3003
0220
0000
,
0000
0330
2002
0000
,
3003
0000
0000
0000
1000
0100
0010
0002
2000
0000
0000
0000
3003
0000
0000
0000
,
0220
0330
1010
0011
,
1100
0101
1000
0010
,
0100
0010
1000
0100
,
0010
0001
1000
0001
,
1000
0001
1000
0001
,
1000
0001
1000
0000
,
1001
0000
0001
0010
,
0100
0000
1000
0000
0001
1000
0100
0000
,
0010
0000
0001
0000
1000
0010
0000
0000
,
0010
0100
0000
0000
0100
0001
0000
0000
,
0001
0010
0000
0000
0010
0100
0000
0000
,
1000
0010
1000
0010
0100
0000
0001
0000
,
0010
0000
0100
0000
1000
0000
0001
1000
,
0001
0000
0010
0000
0100
0000
1000
0010
,
1000
0000
0100
0000
0010
0000
0001
0100
,
0001
0000
0100
0000
0010
1000
0100
0000
,
0010
0000
0001
0000
1000
0010
0000
0000
,
0010
0100
0000
0000
0100
0001
0000
0000
,
0001
0010
0000
0000
0010
0100
0000
0000
,
1000
0001
1000
0100
0010
0000
0001
0000
,
0100
0000
0010
0000
1000
0000
0010
0100
,
0010
0000
1000
0000
0100
0000
0010
0001
,
0010
0000
0001
0000
1000
0001
1000
0001
,
1000
0001
1000
0001
1000
0001
0010
0000
,
0100
0000
1000
0000
0001
0100
0000
0000
,
0100
0010
0000
0000
0010
1000
0000
0000
,
1000
0100
0000
0000
0100
0010
0000
0000
,
0001
0100
0001
0100
0010
0000
1000
0000
,
0100
0000
0010
0000
0001
0000
1000
0001
,
1000
0000
0100
0000
0010
0000
0001
0100
,
0001
0000
0010
0000
0100
0000
1000
0010
,
1000
0000
0010
0000
0100
0001
0010
0000
,
0100
0000
1000
0000
0001
0100
0000
0000
,
0100
0010
0000
0000
0010
1000
0000
0000
,
1000
0100
0000
0000
0100
0010
0000
0000
,
0001
1000
0001
0010
0100
0000
1000
0000
,
0010
0000
0100
0000
0001
0000
0100
0010
,
0100
0000
0001
0000
0010
0000
0100
1000
,
0100
0000
1000
0000
0001
1000
0001
1000
,
0001
1000
0001
1000
0001
0100
0010
0000
,
0100
0000
0010
0000
0100
0010
1000
0000
,
0100
0000
0010
0000
0100
0010
0001
0000
,
0100
0000
0010
0000
0100
0010
1000
0000
,
0100
0000
0010
0000
0100
0010
0001
0000
,
0010
0001
0100
1000
,
0100
0001
0100
1000
,
0100
0000
0001
0000
0010
0100
1000
0000
,
0010
0100
0001
0100
0010
0100
0001
0000
,
0010
0000
0100
0000
0010
0100
1000
0000
,
0010
0000
0100
0000
0010
0100
0001
0000
,
0010
0000
0100
0000
0010
0100
1000
0000
,
0010
0000
0100
0000
0010
0100
0001
0000
,
0010
0100
1000
0010
,
0001
0010
1000
0010
,
0001
0000
0010
0000
0100
0010
1000
0000
,
0100
1000
0100
0010
0001
1000
0010
0100
,
0010
1000
0001
1000
0010
0100
0010
1000
,
0001
1000
0010
0100
0010
1000
0001
0000
,
0010
0100
0010
0001
,
0100
0000
0010
0000
1000
0001
0100
0010
,
0100
0001
1000
0001
0010
0100
0010
0001
,
1000
0001
0100
0010
0100
0001
1000
0000
,
0100
0010
0001
0100
,
0010
0000
1000
0000
0100
1000
0100
0010
,
0100
1000
0100
0010
0100
1000
0100
0000
,
0010
0000
0001
0000
1000
0010
0100
0010
,
1000
0010
0100
0010
1000
0010
0100
0000
,
0001
0000
0010
0000
0001
1000
0001
1000
,
0001
1000
0001
0100
0010
0100
0010
0100
,
0010
0100
0010
0100
0001
0010
0100
1000
,
0010
0100
0001
0010
0100
1000
0010
0100
,
0001
0010
0100
1000
0002
0000
0000
0000
,
0003
0000
2002
0000
,
0000
0000
0000
0000
,
0000
0000
3003
0000
;

//--------------- dance-single - ----------------
#NOTES:
     dance-single:
     :
     Challenge:
     20:
     1.224794,2.207288,0.523269,0.301886,0.607126,1278,1200,78,45,0,0,1.224794,2.207288,0.523269,0.301886,0.607126,1278,1200,78,45,0,0:
0010
0000
1000
0000
0001
0100
0010
0000
0100
0000
0010
1000
0100
0000
0010
0000
,
0001
1000
0010
0000
0100
0000
0010
1000
0100
0000
0010
0000
0001
0100
0010
1000
,
0100
0000
1000
0000
0010
0100
0001
0000
0010
0000
0001
0100
0010
0000
1000
0000
,
0100
1100
1000
1010
0010
0110
0001
0011
,
0010
0000
0001
0000
1000
0010
0100
0000
0010
0000
1000
0100
0010
0000
0001
0000
,
0100
0010
1000
0000
0100
0000
0010
0001
1000
0000
0001
0000
1000
0010
0100
0001
,
1000
0101
0100
1010
1000
0011
0100
1100
,
1000
0010
0100
0001
0010
0100
1000
0010
0100
0000
0000
0000
0000
0000
0000
0000
,
0001
0000
1000
0001
0100
0000
0001
0000
1000
0000
0001
0010
0100
0000
0010
0000
0001
0000
1000
0001
0010
0000
0100
0000
1000
0000
0010
0100
0001
0000
0100
0000
,
0010
0000
1000
0100
0010
0000
0001
0000
0010
0000
0100
1000
0010
0000
0100
0000
0010
0000
1000
0001
0010
0000
0100
0000
0010
0000
0001
0100
0010
0000
1000
0000
,
0001
0100
0010
0001
0110
1000
0100
0010
,
0010
0001
0100
0000
0101
0000
0101
0000
0010
1000
0100
0000
1100
0000
1100
0000
,
0010
1000
1010
0100
,
0001
0010
0110
0100
,
1000
0010
0100
0010
1000
0001
0010
0100
,
1000
0000
1010
0000
1000
0100
0001
0100
,
1000
0000
0001
0100
0010
0000
0100
0000
0001
0000
1000
0100
0010
0000
0001
0000
,
0010
0000
0100
1000
0010
0000
0100
0000
0010
0000
1000
0001
0010
0000
1100
0000
,
1000
0000
0001
0100
0010
0000
1000
0000
0010
0000
1000
0001
0010
0000
0100
0000
,
1000
1010
0001
0101
0010
0110
1000
1100
,
0100
0000
0010
0001
0100
0000
0001
0000
1000
0000
0010
1000
0100
0000
0010
0000
,
0001
0000
0100
0001
0010
0000
0100
0000
1000
0000
0010
0100
0001
0000
0101
0000
,
0100
0000
0010
1000
0001
0000
0010
0000
0100
0000
0010
0001
0100
0000
0010
0000
,
1000
0101
0001
0011
1000
0101
0010
1010
,
1000
0000
0001
0010
1000
0000
0010
0000
0001
0000
0100
1000
0100
0000
0001
0000
,
1000
0000
0001
0100
1000
0000
0100
0000
0010
0000
0100
1000
0100
0000
0110
0000
,
1000
0000
0100
0001
0100
0000
0010
0000
0001
0000
1000
0010
0001
0000
0010
0000
,
1000
0011
0100
1100
0010
0101
0010
1001
,
1100
0000
1000
0001
0100
0000
0010
0000
0100
0000
0001
0010
0100
0000
1000
0000
,
0011
0000
0010
0001
0100
0000
0010
0000
1000
0000
0010
1000
0100
0000
0010
0000
,
0110
0100
1000
1000
0110
0100
0001
0001
,
1000
0100
0010
0001
0100
0001
0010
0100
0010
0001
0100
0010
1000
0100
1000
0010
,
1000
0000
1000
0000
0001
0000
0001
0000
0010
0000
0100
0000
1000
0100
0010
0001
1000
0000
0000
0000
0000
0000
0000
0000
0001
0000
0000
0000
0100
0000
0000
0000
,
1000
0000
0100
0000
0010
0000
0100
0001
,
0100
1000
0100
0000
0010
0000
1000
0001
,
0010
0000
0100
0000
0001
0000
0100
1000
,
0100
0001
0100
0010
0001
0000
1000
0100
,
0001
0000
0100
0000
0010
0000
0100
1000
,
0100
0001
0100
0000
1000
0100
0010
0100
,
0010
1000
0010
1000
0010
0001
0010
0001
,
0100
0010
0100
0010
1000
0000
0001
0100
,
1000
0000
0100
0000
0010
0000
0100
0001
,
0100
1000
0100
0000
0010
0000
1000
0001
,
0010
0000
0100
0000
1000
0000
0010
1000
,
0010
0001
0010
1000
0100
0000
0010
0001
,
1000
0000
0010
0000
0001
0000
0010
1000
,
0010
0001
0010
0000
1000
0001
0010
0001
,
0010
1000
0010
1000
0010
0100
0010
0001
,
0100
0010
1000
0100
2000
0000
0001
0000
,
3010
1000
0200
0000
0010
0000
1300
0001
,
0100
0110
0020
0100
,
1030
0001
0020
0000
0100
0000
0031
0100
,
0010
1010
0200
0010
,
0301
1000
0200
0000
0010
0000
1300
0010
,
0100
0101
0010
0110
,
0100
0000
0101
0000
1000
0010
0001
0000
,
1000
0100
0001
0010
0002
0000
0100
0000
,
1003
0010
0200
0000
0010
0000
0301
1000
,
0100
0011
0020
0001
,
0130
1000
0020
0000
0100
0000
1030
0001
,
0010
1100
1000
0001
,
0101
1010
0010
1000
,
0011
0000
1100
0000
0010
0001
0010
1000
,
0010
0100
0010
0001
0010
1000
0010
0100
,
1000
0000
0010
0000
0100
0000
0001
0000
0010
0000
0010
0000
0001
1000
0100
0000
,
0010
0000
1001
0000
1000
0100
0010
0001
2000
0000
0000
0000
3010
0000
0110
0000
,
0100
0001
0010
0000
0100
1000
0010
0000
0100
0001
1000
0000
0100
0010
0001
0100
0002
0000
0000
0000
0000
0000
0000
0000
1003
0000
0000
0000
0110
0000
0000
0000
,
0100
0001
0010
0000
0100
1000
0001
0000
0100
0010
1000
0100
0010
0001
0100
0010
2000
0000
0000
0000
3001
0000
0000
0000
0011
0000
0000
0000
1100
0000
0000
0000
,
0010
0001
1000
0000
0100
1000
0010
0000
0100
0001
0010
0000
0100
0010
0001
0100
0020
0000
0000
0000
1030
0000
0000
0000
1010
0000
0000
0000
0101
0000
0000
0000
,
0010
0000
0010
0000
0010
0000
0010
0000
1000
0001
0010
0100
0010
0001
0100
0010
2000
0000
0000
0000
3010
0000
0000
0000
0110
0000
0000
0000
0101
0000
0000
0000
,
0001
1000
0100
0000
0010
0001
0100
0000
0010
1000
0100
0010
0001
1000
0010
0100
0002
0000
0000
0000
0013
0000
0000
0000
1100
0000
0000
0000
0110
0000
0000
0000
,
0010
0000
0010
0000
0010
0000
0010
0000
0001
0100
0010
1000
0100
0010
0100
1000
0020
0000
0000
0000
0130
0000
0000
0000
0101
0000
0000
0000
1010
0000
0000
0000
,
1000
0010
0001
1000
0100
0001
0010
1000
0001
0100
1000
0010
0100
1000
0100
0010
,
1000
0100
0010
0001
1000
0100
0010
0001
0100
0000
0110
0000
0010
1000
0100
0010
0002
0000
0000
0000
1000
0000
0000
0000
1003
0000
0001
0000
0100
0000
0000
0000
,
0010
0000
0001
0010
2000
0000
0001
0000
3001
0010
0100
0000
0010
0000
1000
0010
,
0002
0000
0100
0000
0103
0010
1000
0100
2000
0000
0001
0000
3001
1000
0010
0000
,
0100
0000
1000
0100
0002
0000
1000
0000
1003
0100
0010
0000
0100
0000
0001
0100
,
2000
0000
0010
0000
3010
0100
0001
0010
0002
0000
1000
0000
1003
0001
0010
0000
,
0100
0000
0001
0100
2000
0000
0001
0000
3001
0100
0010
0000
0100
0000
1000
0100
,
0002
0000
0010
0000
0013
0100
1000
0010
2000
0000
0001
0000
3001
1000
0100
0000
,
0010
0000
1000
0010
0002
0000
1000
0000
1003
0010
0100
0000
0010
0000
0001
0010
,
2000
0000
0100
0000
3100
0010
0001
1000
2002
0000
0000
0000
0000
0000
0000
0000
,
0000
0000
0000
0000
,
0000
3003
0220
0000
,
0000
0330
2002
0000
,
3003
0000
0000
0000
0001
0100
1000
0010
0002
0000
0000
0000
0000
0000
0000
0000
,
2000
3003
1010
0011
,
1100
0101
1010
0100
,
0001
0010
1100
0010
,
0001
0100
0010
1000
,
0001
0010
0100
0010
,
0001
0100
0010
0000
,
1001
0000
1000
0100
,
0001
0000
0010
0000
1000
0001
0010
0000
,
0100
0000
0010
0000
0001
0100
0010
0000
,
0010
0100
0001
0000
0001
0010
0100
0000
,
0100
1000
0010
0000
0010
0100
0001
0000
,
0001
0010
0100
1000
0020
0000
0100
0000
,
0100
0000
0100
0000
1030
0001
1000
0100
,
1000
0001
1000
0010
1000
0100
0010
0001
,
0010
0001
0100
0001
1000
0010
0100
0010
,
1000
0010
0100
0010
1000
0001
0010
0000
,
0100
0000
0010
0000
0001
1000
0010
0000
,
0010
0100
0001
0000
0001
1000
0100
0000
,
0100
1000
0010
0000
0010
1000
0001
0000
,
1000
0010
0100
0001
0200
0000
0010
0000
,
0010
0000
0010
0000
0301
0010
0100
0010
,
0001
0100
0010
0100
0001
0010
0100
1000
,
0010
0100
0010
1000
0100
0010
0001
0100
,
0010
1000
0100
0010
0001
1000
0100
0000
,
0010
0000
0100
0000
1000
0010
0100
0000
,
0100
0010
1000
0000
1000
0100
0010
0000
,
0010
0001
0100
0000
0100
0010
1000
0000
,
1000
0100
0010
0001
0200
0000
0010
0000
,
0010
0000
0010
0000
0301
1000
0001
0010
,
0001
1000
0001
0100
0001
0010
0100
1000
,
0100
1000
0010
1000
0001
0100
0010
0100
,
0001
0100
0010
0100
0001
1000
0100
0000
,
0010
0000
0100
0000
1000
0001
0100
0000
,
0100
0010
1000
0000
1000
0001
0010
0000
,
0010
0001
0100
0000
0100
0001
1000
0000
,
0001
0100
0010
1000
0020
0000
0100
0000
,
0100
0000
0100
0000
1030
0100
0010
0100
,
1000
0010
0100
0010
1000
0100
0010
0001
,
0100
0010
0100
0001
0010
0100
1000
0010
,
0100
0001
0010
0100
1000
0001
0010
0000
,
0100
0000
0010
1000
0001
0000
0100
0000
,
1000
0010
0001
0000
0010
0000
0001
1000
,
0010
0000
0100
0000
0010
1000
0100
0000
,
0010
0001
0010
1000
0010
0001
0100
0000
,
0010
0000
1000
0001
0010
0000
0100
0000
,
0010
0001
0100
0000
0010
0000
1000
0001
,
0010
0000
0100
0000
0010
0001
0100
0000
,
0010
0001
0010
1000
0001
1000
0100
0000
,
0010
0000
0100
0001
1000
0000
0010
0000
,
0001
0100
1000
0000
0100
0000
1000
0001
,
0010
0000
1000
0000
0001
0010
0100
0000
,
0010
1000
0010
0001
0010
0100
1000
0000
,
0010
0000
0100
0001
0010
0000
0100
0000
,
1000
0001
0010
0000
0100
0010
0001
0100
,
0010
1000
0100
0010
0001
0010
0100
1000
,
0100
0010
0100
1000
0100
0001
0100
1000
,
0100
0001
0100
1000
0100
0001
0100
1000
,
0100
0001
0100
1000
0100
0001
0100
0000
,
0010
0101
0100
0110
,
1000
0000
1001
0000
0010
1000
0010
0001
,
0010
1000
0010
0001
0010
1000
0010
0001
,
0010
1000
0010
0001
0010
1000
0010
0000
,
1000
0101
0010
1100
,
0010
0000
1001
0000
0010
1000
0100
0010
,
0001
0100
0001
0010
0100
1000
0100
0010
,
0001
0100
0010
0100
0001
0010
0100
0010
,
0001
0100
0010
1000
0100
1000
0010
0100
,
0010
1000
0100
0010
0001
0010
1000
0010
,
0001
0100
1000
0100
0001
0100
0010
0001
,
0010
1000
0100
0001
1000
0010
0001
0100
,
1000
0001
0010
1000
0100
0001
1000
0010
,
0001
0100
1000
0010
0220
0000
0000
0000
,
0330
0000
2002
0000
,
0000
0000
0000
0000
,
0000
0000
3003
0000
;
