#TITLE:LOST FUNCTiON;
#SUBTITLE:;
#ARTIST:iNFECTiON;
#TITLETRANSLIT:;
#SUBTITLETRANSLIT:;
#ARTISTTRANSLIT:;
#GENRE:;
#CREDIT:;
#MUSIC:LOST FUNCTiON.ogg;
#BANNER:LOST FUNCTiON.png;
#BACKGROUND:LOST FUNCTiON-bg.png;
#CDTITLE:;
#SAMPLESTART:73.987;
#SAMPLELENGTH:15.000;
#SELECTABLE:YES;
#OFFSET:0.000;
#BPMS:0.000=150.000
,16.000=600.000
,17.000=150.000
,33.000=600.000
,35.000=300.000
,36.000=150.000
,37.000=75.000
,37.250=300.000
,38.000=150.000
,45.000=600.000
,46.000=150.000
,51.000=600.000
,55.500=150.000
,62.500=600.000
,63.500=150.000
,67.500=600.000
,74.000=150.000
,90.000=300.000
,91.000=75.000
,94.500=600.000
,97.000=300.000
,113.000=75.000
,116.500=600.000
,119.000=150.000
,127.000=75.000
,130.500=600.000
,133.000=300.000
,149.000=75.000
,152.500=600.000
,155.000=150.000
,161.000=300.000
,161.875=150.000
,169.000=600.000
,171.500=150.000
,178.500=600.000
,181.000=150.000
,197.000=300.000
,198.000=150.000
,213.000=600.000
,214.000=150.000
,228.000=300.000
,229.000=150.000
,244.000=600.000
,245.000=150.000
,259.000=300.000
,260.000=150.000
,274.000=300.000
,331.000=600.000
,333.000=300.000
,335.000=150.000
;
#STOPS:16.000=0.300
,37.250=0.175
,37.500=0.070
,37.625=0.070
,37.750=0.070
,37.875=0.070
,45.000=0.150
,45.500=0.150
,51.000=0.150
,51.500=0.150
,52.000=0.150
,52.500=0.150
,55.000=0.150
,62.500=0.150
,63.000=0.150
,67.500=0.150
,68.000=0.150
,68.500=0.150
,69.000=0.150
,73.500=0.360
,90.000=0.150
,90.250=0.150
,90.500=0.070
,90.625=0.070
,90.750=0.070
,90.875=0.070
,96.500=0.150
,118.500=0.150
,132.500=0.150
,154.500=0.150
,161.000=0.150
,161.250=0.150
,161.500=0.070
,161.625=0.070
,161.750=0.070
,161.875=0.070
,171.000=0.150
,180.500=0.150
,197.000=0.160
,197.250=0.160
,197.500=0.070
,197.625=0.070
,197.750=0.070
,197.875=0.070
,213.000=0.300
,228.000=0.160
,228.250=0.160
,228.500=0.070
,228.625=0.070
,228.750=0.070
,228.875=0.070
,244.000=0.300
,259.000=0.160
,259.250=0.160
,259.500=0.070
,259.625=0.070
,259.750=0.070
,259.875=0.070
,274.000=0.160
,274.250=0.160
,274.500=0.070
,274.625=0.070
,274.750=0.070
,274.875=0.070
,331.000=0.150
,331.500=0.150
,332.000=0.150
,332.500=0.150
,333.000=0.050
,333.250=0.050
,333.500=0.050
,333.750=0.050
,334.000=0.050
,334.250=0.050
,334.500=0.050
,334.750=0.050
;
#DISPLAYBPM:75.000:300.000;
#BGCHANGES:;
#FGCHANGES:;

//--------------- dance-single - ----------------
#NOTES:
     dance-single:
     :
     Beginner:
     5:
     0.234683,0.341597,0.132356,0.031143,0,211,194,17,4,0,0,0.234683,0.341597,0.132356,0.031143,0,211,194,17,4,0,0:
0000
0000
0000
0000
,
0000
0000
0000
0000
,
0000
0000
0000
0000
,
0000
0000
0000
0000
,
0000
1000
0000
1000
,
0000
0001
0000
0001
,
0000
0100
0100
0100
,
0000
0100
0100
0100
,
0100
0220
0000
0000
,
0330
0000
1000
0000
,
0001
0000
0100
0100
,
0001
0000
0001
0000
,
1000
0000
0010
0010
,
1000
0000
0000
0000
0000
0000
0000
0001
,
0000
0000
0000
1000
0000
0000
0000
0010
,
0000
0010
0000
1000
0000
0000
0000
1000
,
0000
0000
0000
0001
0000
0000
0000
0100
,
0000
0100
0000
0001
0000
0000
0000
0000
,
0000
0000
1000
0000
,
1000
0000
0001
0000
,
0001
0000
0100
0100
,
0100
0000
0010
0010
,
0010
0010
0010
1000
,
0001
1000
1001
0000
,
0000
0001
0000
0001
,
0000
0100
0000
0100
,
0000
0010
0000
0010
,
0000
1000
0000
1001
,
0000
1000
0001
1000
,
1001
0000
0000
0100
,
0000
0100
0000
0100
,
0100
0110
0000
0001
,
1000
0001
1001
0000
,
0000
1000
0000
1000
,
0000
0010
0000
0010
,
0000
0100
0000
0100
,
0000
0001
0000
1001
,
0000
0001
1000
0001
,
1001
0000
0000
0010
,
0010
0010
0000
0010
,
0010
0110
1000
0000
,
1000
0000
1000
1000
,
0100
0000
0000
0000
0000
0000
0000
0001
,
0000
0000
0000
0001
0000
0000
0000
0001
,
0000
0001
0000
0100
0000
0000
0000
0000
,
0000
0100
0000
0100
,
0000
0100
0100
0010
,
0000
1000
1000
1000
,
0000
0001
0001
1000
,
0001
1001
1000
0000
,
1000
1000
0010
0000
,
0001
0001
0001
0000
,
0100
0100
0001
0000
,
1001
1001
0100
0000
,
0001
0001
0010
0000
,
0100
0100
1000
0000
,
0001
0000
0100
0100
,
0110
0001
0000
0001
,
0001
0100
0000
1000
,
1000
1000
0000
0010
,
0010
1000
0000
1001
,
1001
0010
0000
1000
,
1000
0100
0000
0010
,
0010
0001
0000
1000
,
0000
0010
0010
0110
,
0001
0000
0001
0000
,
1000
0000
1000
0000
,
0010
0010
0010
0000
,
0010
0010
0010
1000
,
0000
0001
0000
1000
,
0000
0000
0000
0001
,
0000
1000
0000
0001
,
0000
0000
0000
0100
,
0000
0010
0000
0100
,
0000
0000
0000
0001
,
0000
1000
0000
0001
,
0000
1000
0000
0001
,
0000
0001
0000
0001
,
0000
0000
0000
1000
,
0000
1000
0000
1000
,
0000
0000
0000
0010
,
0000
0100
0000
0010
,
0000
0100
0000
0001
,
1000
0001
1000
2002
,
0000
0000
0000
0000
,
0000
0000
0000
0000
,
0000
0000
0000
0000
,
0000
0000
0000
3003
;

//--------------- dance-single - ----------------
#NOTES:
     dance-single:
     :
     Easy:
     11:
     0.434886,0.546554,0.443784,0.031143,0,391,334,57,4,0,0,0.434886,0.546554,0.443784,0.031143,0,391,334,57,4,0,0:
0000
0000
0000
0000
,
0000
0000
0000
0000
,
0000
0000
0000
0000
,
0000
0000
0000
0000
,
0000
1000
0100
1000
,
1100
0001
0010
0001
,
0101
0000
0100
0010
0100
0000
0010
0100
,
0010
0000
1000
0001
1000
0000
0001
1000
,
0001
2002
0000
0000
,
3003
0000
1000
1100
,
0001
0010
0010
0101
,
0100
0000
0010
0010
0010
0000
1100
0000
,
0100
0000
0010
0000
0010
0000
1000
0001
,
1000
0001
1000
0000
0000
0000
0000
0001
,
0000
0011
0000
1000
0000
0100
0000
0100
,
0000
1010
0000
0010
0000
0100
0100
0100
,
0000
0011
0000
0010
0000
0100
0000
0001
,
1000
0001
1000
0001
0000
0000
0000
0000
,
0000
0000
0000
0110
1000
0000
1000
0000
,
0100
0100
1000
1000
,
0001
0000
0001
0000
1000
0001
1000
0000
,
0001
1000
0001
0000
0100
0010
0100
0000
,
0010
0100
0010
0000
0010
1001
1000
0000
,
1001
0001
0001
0000
1001
1000
0000
0000
,
0000
0001
0010
0001
,
0010
0001
0100
0001
,
0100
0001
1000
0100
,
1000
0001
0000
1001
,
0000
0000
0001
0000
1001
1000
1000
0000
,
1001
0001
0000
0000
0000
0000
1000
0000
,
1100
0000
0001
0000
0101
0000
0100
0010
,
0100
0010
0100
0000
1001
0000
0001
0000
,
0011
0100
0100
0000
1100
1000
0000
0000
,
0000
0001
0010
0100
,
1000
0001
0010
0100
,
1000
0010
0100
0010
,
1000
0001
0000
1001
,
0000
0000
1000
0000
1100
0010
0010
0000
,
0101
0001
0000
0000
0000
0000
1000
0000
,
1100
0000
0001
0000
0011
0000
1000
0001
,
1000
0001
1000
1001
0001
0000
0001
0000
,
0001
0000
0001
0100
0001
0000
0001
0000
,
0001
0000
1001
0000
0000
0000
0000
1000
,
0000
1000
0000
1000
0000
1000
0001
1000
,
0000
1000
0000
1000
0000
1001
0000
0000
,
0000
1000
1010
0001
,
0011
1000
1100
0001
,
0101
0000
0100
0010
0100
0000
0010
0100
,
0010
0000
1000
0001
1000
0000
0001
1000
,
0001
0000
1000
1000
,
0100
1100
0001
0001
,
0010
0000
0001
0100
0001
0000
0100
0000
,
1010
0011
0100
0100
,
1000
0001
1000
0000
0100
0000
0100
0000
,
0011
1010
1000
1000
,
1010
0000
0100
0001
0100
0000
0100
0000
,
0010
0000
0010
0000
1000
0001
1000
0001
,
1000
1001
0001
0000
0001
0000
0010
0000
,
0011
1000
1000
0100
,
1000
0010
1000
0000
0010
0000
0101
0000
,
1100
0000
0010
0000
0010
0000
0001
1000
,
0001
0010
0010
1100
,
0101
0001
0001
0101
,
0010
1000
0010
0000
0010
0000
0100
0000
,
0100
0000
0001
1000
0001
1000
0001
1001
,
1000
0100
1000
1100
,
0001
0010
0001
0101
,
0100
0010
0100
0000
0010
0100
0010
0000
,
1000
0001
1000
0000
0001
1001
1000
0000
,
0100
1000
0100
1000
,
0100
1000
0000
0001
,
0100
0001
0100
0001
,
0100
0001
0000
1000
,
0010
1000
0010
1000
,
0010
1000
0000
0001
,
0010
0001
0010
0001
,
0000
1001
0000
1000
,
0000
1010
0000
0001
,
0000
0101
0000
0100
,
0000
0110
0000
0010
,
0000
1001
0000
1000
,
0100
0010
0001
1000
,
0100
0010
0001
1000
,
1001
0000
0001
0010
0100
1000
2002
0000
,
0000
0000
0000
0000
,
0000
0000
0000
0000
,
0000
0000
0000
0000
,
0000
0000
0000
3003
;

//--------------- dance-single - ----------------
#NOTES:
     dance-single:
     :
     Medium:
     14:
     0.612844,0.751512,0.365927,0.311427,0.128464,551,504,47,40,0,0,0.612844,0.751512,0.365927,0.311427,0.128464,551,504,47,40,0,0:
0000
0000
0000
0000
,
0000
0000
0000
0000
,
0000
0000
0000
0000
,
0000
0000
0000
0000
,
0000
0000
1010
1000
0100
0010
0001
0000
,
0001
0010
0100
0010
0001
1000
0010
0000
,
0010
1000
0100
0010
0001
0001
0010
0100
,
1000
1000
0010
0010
0010
0010
0010
0010
,
0010
0010
2002
0000
0000
0000
0000
0000
,
3003
0000
0000
0000
0000
0000
0000
0000
0000
0000
0010
0000
0010
0100
0010
0100
0010
0000
0000
0000
1000
0000
0000
0000
0100
0000
0000
0000
1000
0000
0000
0000
,
0010
0100
0010
0010
0000
0100
0001
0010
,
0100
1000
1010
0001
0101
0001
0010
0100
,
1000
0010
0100
0100
0000
0010
1000
0100
,
0010
0001
2002
0000
0000
0000
3003
0100
,
0001
0010
0001
0100
0010
0100
0100
0000
,
0010
1000
0100
0010
0001
0101
1000
1010
,
1000
0100
0010
0001
0100
0010
0000
1000
,
1000
0001
0001
0220
0000
0000
0000
0330
,
0000
0000
0000
1001
1000
0100
0001
0100
,
1000
0010
0001
0000
0001
0100
1000
0100
,
0001
0010
1000
0000
1000
1000
0100
0010
,
0001
0001
0010
0100
0010
0010
0010
0010
,
0010
0000
0010
0000
0010
0000
0010
0000
0010
0000
1001
0000
1000
0000
0001
0100
,
0001
0000
0010
0100
0010
0000
0100
1000
0100
1000
0002
0000
0000
0000
0000
0000
,
0000
0003
1000
0000
0001
0100
0000
0100
,
0001
0000
1000
0100
0000
0100
1000
0000
,
1001
0000
0001
0010
0001
0000
1000
0100
,
1000
0000
0001
1000
0001
1000
0001
0000
,
1001
0000
0000
0000
0001
0000
1000
0010
1000
0000
0100
0010
0100
0000
0010
0001
,
0010
0001
2000
0000
0000
0000
0000
0000
0000
0000
3000
0000
0001
0000
0010
0000
,
0100
0000
0100
1000
0010
0000
0010
1000
,
0001
0000
0010
0000
0100
0000
0000
0000
1001
0000
0000
0000
1000
0000
0010
1000
,
0010
0000
0100
0001
0010
0000
0100
1000
0010
0100
0002
0000
0000
0000
0000
0000
,
0000
0003
1000
0100
1000
0000
0100
1000
,
0100
0000
1000
0010
1000
0000
0001
0100
,
0001
0000
0100
0010
0100
0010
0100
0010
,
0100
0010
0100
0000
0010
0000
0010
0000
,
1001
0000
0000
0000
0001
0000
0100
0001
0100
0000
0010
1000
0100
0000
0010
0001
,
0100
0010
2000
0000
0000
0000
0000
0000
0000
0000
3000
0000
0001
0000
0010
0000
,
0100
0010
0001
1000
0010
0000
0100
0100
,
0100
0000
0100
0000
0100
0010
1000
0000
0001
0000
0010
0000
0011
0000
0000
0000
,
1100
0000
1000
0001
1000
0001
0011
0000
,
1100
0000
2002
0000
0000
0000
3003
1000
,
0100
1100
0000
0011
0000
0001
1000
0001
,
1000
1100
0000
0011
0000
2002
0000
0000
,
0000
3003
1000
0100
0010
0001
1000
0100
,
0010
0001
1000
0100
0010
0001
1000
0100
,
0010
0000
0010
0001
0100
0010
1000
0100
,
0010
0001
0100
1000
0100
0001
0100
1000
,
0100
0000
0010
0000
1000
0000
1001
0000
0001
0000
0000
1020
0000
0000
0130
0000
,
0001
0000
0010
0000
0200
0000
0000
0000
1300
0000
0000
0201
0000
0000
0310
0000
,
1000
0000
0100
0000
0020
0000
0000
0000
0031
0000
0000
0201
0000
0000
0310
0000
,
0100
0000
0001
0000
2000
0000
0000
0000
3100
0000
0000
2001
0000
0000
3020
0000
,
0100
0000
0100
0000
0130
0000
0000
0000
0001
0000
0000
1200
0000
0000
0301
0000
,
0100
0000
1000
0000
0002
0000
0000
0000
1003
0000
0000
0201
0000
0000
1300
0000
,
0100
0001
2000
0000
3001
0010
0001
0010
,
0100
1000
0100
1000
0010
0010
0010
0010
,
0100
0000
1001
0000
1000
0000
0000
0201
0000
0000
0310
0000
1000
0000
0100
0000
,
0020
0000
0000
0000
0031
0000
0000
1020
0000
0000
0130
0000
0001
0000
0010
0000
,
0200
0000
0000
0000
1300
0000
0000
1020
0000
0000
0130
0000
0010
0000
1000
0000
,
0002
0000
0000
0000
0013
0000
0000
1002
0000
0000
0203
0000
0010
0000
0010
0000
,
0310
0000
0000
0000
1000
0000
0000
0021
0000
0000
1030
0000
0010
0000
0001
0000
,
2000
0000
0000
0000
3001
0000
0000
1020
0000
0000
0031
0000
0010
0000
1000
0000
,
0002
0000
1003
0100
1000
0100
0010
0001
,
0010
0001
0100
0110
0010
0110
0010
1001
,
0101
0001
0010
0100
1000
0000
1000
0100
,
0010
0100
1000
0001
0100
0000
0100
0001
,
0010
0100
1000
1000
0100
0010
0001
0001
,
0100
0100
0100
0100
0100
1001
1000
0000
,
0100
0001
1000
0010
,
0001
1000
0100
0001
,
1000
0010
0001
1000
,
0100
0000
0010
0000
0001
1000
0001
0000
,
0100
1000
0001
0010
,
1000
0000
0001
0000
0100
0000
0010
0100
,
0010
0000
0100
0010
0100
0000
0001
1000
,
0001
1000
0001
0000
1001
0000
0001
0000
,
0001
0010
0010
0100
,
0100
1000
1000
0010
,
0010
0010
0100
0100
,
0100
0000
0001
0000
1001
0000
1000
0001
,
1000
0001
1000
0001
1000
0001
1000
0001
,
1000
0001
1000
0000
1001
0000
0001
0010
,
0100
1000
0010
0100
0001
1000
2002
0000
,
0000
0000
0000
0000
,
0000
0000
0000
0000
,
0000
0000
0000
0000
,
0000
0000
0000
3003
;

//--------------- dance-single - ----------------
#NOTES:
     dance-single:
     :
     Hard:
     16:
     0.816384,1.298067,0.599497,0.116785,0.57614,734,657,77,15,0,0,0.816384,1.298067,0.599497,0.116785,0.57614,734,657,77,15,0,0:
0000
0000
0000
0000
,
0000
0000
0000
0000
,
0000
0000
0000
0000
,
0000
0000
0000
0000
,
0000
0000
1010
1000
0100
0010
0001
1000
,
1001
0000
1001
0100
0010
1000
0100
0010
,
1001
0000
0010
0010
0001
0001
0100
0100
,
0010
0000
0010
0000
1000
0010
0100
0001
0010
0001
0100
0010
1000
0100
0010
0001
,
0100
0010
1000
0100
0020
0000
0000
0000
0000
0000
0000
0000
0000
0000
0000
0000
,
0000
0000
0000
0000
0000
0000
0000
0000
0000
0000
0031
0000
1000
0100
0010
0001
1000
0000
0000
0000
1000
0000
0000
0000
1100
0000
0000
0000
0000
0000
0000
0000
,
0001
0001
0011
0010
0001
0100
0110
0000
,
0010
1000
0100
0100
0100
1000
0010
0000
,
0010
0010
1010
1000
0110
0000
0011
0001
,
1000
0001
2001
0000
0000
0000
0000
3001
,
0001
0011
0000
1000
1000
1100
0100
1000
,
0010
0110
0000
0100
0001
0010
0010
0010
,
0001
0100
0000
0010
0010
0110
1000
1100
,
1000
0001
0010
2001
0000
0000
0000
0000
,
0000
0000
0000
3001
1001
1000
0100
0010
,
0100
0010
0001
0100
0001
0100
0010
1000
,
0010
1000
0010
0100
0001
0001
0100
0100
,
0010
0000
0010
0000
1000
0000
1000
0000
0001
0010
0100
1000
0010
0100
0010
1000
,
0100
0000
0010
0000
0001
0000
0100
0000
0010
0000
1000
0000
0100
0000
0010
0000
0001
0000
1000
0000
0001
0010
0100
1000
0001
0000
0000
0001
0010
0000
0100
0000
,
0110
0000
0000
0000
0100
0000
1000
0000
1001
0000
0000
0001
1000
0000
0001
0000
0101
0000
0100
0000
0120
0000
0000
0000
0000
0000
0000
0000
0000
0000
0000
0000
,
0000
0000
1030
0000
0001
0010
0000
0100
,
1000
0000
0010
0100
0000
0100
0010
0000
,
0110
0000
0100
0001
0010
0000
0100
1000
,
0010
0000
1000
0100
0001
0100
1000
0000
,
1001
0000
0000
0000
0000
0000
0000
0000
1000
0000
0000
1000
0100
0000
0010
0000
0110
0000
0000
0000
0010
0000
0001
0000
1001
0000
0000
1000
0001
0000
1000
0000
,
1010
0010
0210
0000
0000
0000
0000
0000
0000
0000
0000
0000
0301
0000
0000
0001
,
0010
0000
0100
0000
0010
0000
0000
0010
0001
0000
0100
0000
0010
1000
0100
0000
,
0010
0000
0001
0000
0100
0000
0000
0000
0010
0000
1000
0000
0100
0000
0001
0000
0100
0000
0000
0000
0110
0000
0000
0000
1000
0000
0000
1000
0010
0000
0100
0000
,
0110
0000
0000
0000
0001
0000
0001
0000
1001
0000
0000
0001
1000
0000
0100
0000
1100
0000
0100
0000
0120
0000
0000
0000
0000
0000
0000
0000
0000
0000
0000
0000
,
0000
0000
0031
0010
0001
1000
0100
1000
,
0001
0010
0001
1000
0100
1000
0001
0010
,
0001
1000
0010
0100
1000
0100
0001
0010
,
0001
0100
1000
0100
0001
0010
0001
0000
,
1001
0000
0000
0000
0000
0000
0000
0000
0001
0000
0000
0001
0100
0000
0010
0000
0110
0000
0000
0000
1000
0000
1000
0000
1001
0000
0000
1000
0001
0000
0010
0000
,
0011
0010
0210
0000
0000
0000
0000
0000
0000
0000
0000
0000
1300
0000
0010
0000
,
1010
0000
0100
0000
0001
0000
0010
0000
0011
0000
0100
0000
1000
0010
0001
0000
,
1000
0000
0100
0000
0001
0000
0000
0000
1000
0000
0001
0000
1000
0010
0100
0001
1000
0000
0000
0000
0010
0000
0000
0000
1000
0000
0000
0000
0010
0000
0000
0000
,
0100
0010
1000
0000
0001
0010
0100
0010
,
0001
1000
1002
0000
0000
0000
0000
1003
,
0010
0100
0010
1000
0100
1000
0000
0001
,
0010
0001
0100
0001
0010
2001
0000
0000
,
0000
0000
3001
0001
0010
0010
0010
0100
,
1000
1000
1000
0010
0100
0100
0100
0001
,
0010
0010
0010
0001
0010
0100
1000
0010
,
0100
0000
0010
0000
1000
0100
0010
0001
0100
0010
1000
0001
0100
0010
0100
0001
,
0010
0000
0100
0000
1000
0000
0100
0000
0010
0000
0001
0000
0100
0001
0010
0100
1000
0000
0000
0000
1000
0000
0001
0000
0000
0000
0001
0000
1000
0000
0000
0000
,
0010
1000
0000
1000
0100
0000
0110
0000
0010
0000
0010
0001
0000
0001
1000
0000
,
1000
0100
0000
0100
1000
0000
1001
0000
0001
0000
0001
0100
0000
0100
0001
0000
,
0001
0010
0000
0010
0100
0000
0110
0000
0010
0000
0010
0001
0000
0001
1000
0000
,
1000
0010
0000
0010
2002
3003
0000
0000
1000
0000
0001
0010
0000
0100
0010
0000
,
0001
1000
0000
1000
0001
0000
1001
0000
1000
0000
0010
0100
0000
0001
0010
0000
,
0001
1000
0000
1000
0001
0000
1001
0000
0010
0000
0001
0000
0101
0000
0100
0000
,
0010
0000
1000
0000
1100
0000
1000
0000
0010
1000
0100
0010
0001
0100
0010
1000
,
0001
0000
1000
0000
0001
0010
0100
1000
0001
0000
0000
0000
0001
0000
1000
0000
0000
0000
1000
0000
0001
0000
0000
0000
0100
0000
0001
0000
0000
0000
0001
0000
,
0010
0000
0110
0000
0100
0000
0100
1000
0000
1000
0001
0000
0001
0010
0000
0010
,
0001
0000
1001
0000
1000
0000
1000
0010
0000
0010
1000
0000
1000
0100
0000
0100
,
0010
0000
0110
0000
0100
0000
0100
1000
0000
1000
0001
0000
0001
0100
0000
0100
,
2002
3003
0000
0000
0001
0000
1000
0100
0000
0010
0100
0000
1000
0001
0000
0001
,
1000
0000
1001
0000
0001
0000
0100
0010
0000
1000
0100
0000
1000
0001
0000
0001
,
1000
1001
0100
0100
0110
0110
0010
0010
,
0110
0000
0000
0000
0110
0000
0000
0000
1000
0000
0100
0000
0001
0000
1000
0000
0010
0000
0001
0000
0100
0000
0001
0000
1000
0000
0001
0000
1000
0100
0010
0001
,
1000
0100
1100
0100
0010
0001
1001
0000
,
0100
0010
0110
0010
1000
0100
1001
0000
,
0010
0010
0001
0100
1000
1000
0010
1000
,
0010
0000
0001
0000
0100
0000
0010
0000
1000
0000
0100
0000
0010
0000
0001
0000
1000
0000
0001
0000
1000
0100
0010
0001
1000
0000
0000
0000
0000
0000
0000
0000
,
0001
0010
0000
0010
0001
0000
0100
0001
,
0000
0001
1000
0000
1001
0000
1000
0000
,
0010
1000
0000
1000
0100
0000
0010
0001
,
0000
0001
1000
0000
0001
0010
0100
0000
,
0010
0001
0000
0001
1000
0000
0010
1000
,
0000
1000
0100
0000
0110
0000
0010
0001
,
0100
0001
0010
0001
0100
0010
1000
0100
,
0010
0100
1000
0010
0100
0010
1000
0000
,
1010
0011
0001
0100
,
0101
1100
1000
0010
,
1010
0011
0001
0100
,
0101
0000
1100
0000
1000
0010
0100
0001
,
0100
0001
0100
0001
0100
0001
0100
0010
,
0100
0010
0100
0010
0100
0010
1000
1100
,
0011
0000
0001
0000
1000
0100
0001
0100
1000
0010
0001
0010
2002
0000
0000
0000
,
0000
0000
0000
0000
,
0000
0000
0000
0000
,
0000
0000
0000
0000
,
0000
0000
0000
3003
;

//--------------- dance-single - ----------------
#NOTES:
     dance-single:
     :
     Challenge:
     18:
     0.978771,1.434705,0.622854,0.435998,1.012138,880,800,80,56,0,0,0.978771,1.434705,0.622854,0.435998,1.012138,880,800,80,56,0,0:
0000
0000
0000
0000
,
0000
0000
0000
0000
,
0000
0000
0000
0000
,
0000
0000
0000
0000
,
0000
0000
0000
0000
1010
0000
0010
1000
0100
0000
0010
0001
0100
0000
0001
0000
,
0001
0000
1001
0000
0001
0000
1000
0010
0100
0000
0010
1000
0100
0000
1000
0000
,
1000
0000
1001
0000
0001
0000
0010
0100
1000
0000
0010
0100
0001
0000
0100
0001
,
0010
0000
0100
1000
0010
1000
0100
0001
0100
0010
0001
0100
1000
0100
0010
1000
,
0001
0010
0100
1000
0220
0000
0000
0000
0000
0000
0000
0000
0000
0000
0000
0000
,
0000
0000
0000
0000
0000
0000
0000
0000
0330
0000
1001
0000
1000
0100
0001
0100
1000
0000
0000
0000
1010
0000
0000
0000
0110
0000
0000
0000
0100
0000
0000
0000
,
0101
0011
0001
1000
0001
0011
0110
1000
,
1010
0000
0101
0000
0220
0330
2200
3300
0001
0000
0011
0000
0110
0000
1000
0000
,
0110
0000
0101
0000
0001
0000
1000
0000
0010
0000
1010
0000
0202
0303
2200
3300
,
2020
3030
0202
0303
0220
0000
0000
0000
0000
0000
0000
0000
0000
0330
0001
0000
,
0101
0110
0010
1010
1100
1000
0001
1000
,
1100
0000
0110
0000
0001
0000
0101
0000
1010
0000
0220
0330
0022
0033
1000
0000
,
1100
0000
0110
0000
0001
0000
0110
0000
1010
0000
1000
0000
0001
0000
0202
0303
,
2200
3300
0022
0033
2020
3030
0220
0000
0000
0000
0000
0000
0000
0000
0000
0000
,
0000
0000
0000
0000
0000
0330
1001
0000
0011
0000
0001
0100
0010
0000
1000
0100
,
0010
0000
0001
0000
0001
0000
1000
0000
1000
0000
0001
0100
0010
0000
0100
0001
,
0010
0000
0001
0000
0001
0000
1000
0000
1000
0000
0100
0010
0001
0000
0100
0001
,
0010
0000
0100
1000
0010
0000
0100
0001
1000
0010
0100
1000
0100
0001
0010
1000
,
0010
0000
0001
0000
0100
0000
0010
0000
1000
0000
0100
0000
0001
0000
0100
0000
1000
0000
1001
0000
0001
0010
1000
0010
0001
0000
0001
0000
1000
0100
0010
0100
,
1000
0000
0001
0000
0001
0000
1001
0000
1000
0000
1000
0000
0001
0010
0100
0010
0001
0000
1000
0010
0200
0000
0000
0000
0000
0000
0000
0000
0000
0000
0000
0000
,
0000
0000
0000
0300
0001
0000
0010
0000
0001
0000
0100
0000
1000
0000
0100
0000
,
0001
0010
0001
0100
1000
0100
0001
0010
,
0001
0100
0001
0010
1000
0010
0001
0100
,
1000
0100
0001
0010
1000
0010
0001
0000
,
0110
0000
0000
0000
0000
0000
0000
0000
1000
0000
1000
0000
0001
0100
0010
0100
0001
0000
1000
0000
1000
0000
1001
0000
0001
0000
0001
0000
1000
0010
0100
0010
,
1000
0000
0001
0010
0200
0000
0000
0000
0000
0000
0000
0000
0000
0000
0000
0000
0000
0000
0000
0000
0000
0000
0300
0000
1000
0000
0001
0000
0000
0000
0100
0000
,
1000
0000
1000
0000
0001
1000
0000
0100
0001
0000
0001
0000
0001
0010
1000
0000
,
1000
0000
0010
0000
0001
0000
0000
0000
1000
0000
0010
0000
0001
0000
0010
0000
1000
0000
0000
0000
0110
0000
0000
0000
1000
0000
1000
0000
0001
0010
0100
0010
,
0001
0000
1000
0000
1000
0000
1001
0000
0001
0000
0001
0000
1000
0100
0010
0100
1000
0000
0001
0100
0020
0000
0000
0000
0000
0000
0000
0000
0000
0000
0000
0000
,
0000
0000
0000
0030
1000
0000
0100
0000
1000
0000
0010
0000
0001
0000
0010
0000
,
0100
0001
0010
1000
0010
0100
1000
0010
,
0001
0010
1000
1000
0100
0100
0010
0010
,
0001
0001
0100
0100
0100
0100
0100
0000
,
0110
0000
0000
0000
0000
0000
0000
0000
0001
0000
0001
0000
1000
0010
0100
0010
1000
0000
0001
0000
0001
0000
1001
0000
1000
0000
1000
0000
0001
0100
0010
0100
,
0001
0000
1000
0100
0020
0000
0000
0000
0000
0000
0000
0000
0000
0000
0000
0000
0000
0000
0000
0000
0000
0000
0030
0000
0001
0000
1000
0000
0010
0000
0000
0000
,
0100
0001
1000
0000
0100
0010
0001
0000
0100
0010
1000
0000
1000
0010
0001
0010
,
1000
0000
0100
0000
0001
0000
0100
0000
0010
0000
0101
0000
1000
0100
0001
0100
1000
0000
0000
0000
1000
0000
0001
0000
0100
0000
0000
0000
0100
0000
0001
0000
,
1000
0000
1000
0001
0010
0000
0010
0001
1000
0000
1000
0001
0100
0000
0100
0001
,
0010
0000
1000
0000
0220
0000
0000
0000
0000
0000
0000
0000
0000
0330
0001
0000
,
0001
1000
0010
0000
0010
1000
0001
0000
0001
1000
0100
0000
0100
1000
0001
0000
,
0001
1000
0010
0000
0010
1000
0100
0000
0001
0000
0220
0000
0000
0000
0000
0000
,
0000
0000
0000
0330
1001
0000
1000
0100
0001
0000
0001
0100
1000
0000
1000
0010
,
0001
0000
0001
0010
1000
0000
1000
0100
0001
0000
0001
0100
1000
0000
1000
0010
,
0001
0000
0001
0010
1000
0000
0100
0010
1000
0000
0010
0001
0100
0000
1000
0100
,
0010
0000
0100
0001
1000
0100
0001
0100
1000
0010
0001
0010
1000
0010
0001
1000
,
0100
0000
0001
0000
0010
0000
0100
0000
1000
0000
0101
0000
1000
0100
0001
0100
2000
0000
0000
0000
0010
0000
0010
0000
0000
0000
0001
0000
0001
0000
0000
0000
,
0100
0100
0000
0001
3001
0000
1000
0000
0002
0000
1000
1000
0000
0010
0010
0000
,
0100
0100
0000
1000
1003
0000
0001
0000
2000
0000
0010
0010
0000
0100
0100
0000
,
0010
0010
0000
0001
3001
0000
1000
0000
0002
0000
0010
0010
0000
1000
1000
0000
,
0100
0100
0000
1000
1003
0000
0000
0000
0210
0000
0001
0001
0000
0010
0010
0000
,
1000
1000
0000
0010
0310
0000
0001
0000
0020
0000
0100
0100
0000
1000
1000
0000
,
0100
0100
0000
0001
0031
0000
1000
0000
0020
1000
0100
0000
0001
0100
0031
0000
,
0020
0001
0100
0000
1000
0100
1030
0000
0001
0010
1000
0010
0001
0100
1000
0100
,
0001
0000
1010
0000
0001
0010
1000
0010
0002
0000
0000
0000
0100
0000
0100
0000
0000
0000
1000
0000
1000
0000
0000
0000
0010
0000
0010
0000
0000
0000
1000
0000
,
1003
0000
0001
0000
2000
0000
0001
0001
0000
0100
0100
0000
0010
0010
0000
0001
,
3001
0000
1000
0000
0002
0000
0100
0100
0000
0010
0010
0000
0100
0100
0000
1000
,
1003
0000
0001
0000
2000
0000
0100
0100
0000
0001
0001
0000
0010
0010
0000
0001
,
3001
0000
0000
0000
0120
0000
1000
1000
0000
0100
0100
0000
0001
0001
0000
0100
,
0130
0000
1000
0000
0200
0000
0010
0010
0000
0001
0001
0000
0010
0010
0000
1000
,
1300
0000
0001
0000
0200
0001
0010
0000
1000
0010
1300
0000
0200
1000
0010
0000
,
0001
0000
0010
0000
0300
0000
0000
0000
1000
0000
0100
0000
0001
0000
0100
0000
1000
0000
0010
0000
0001
0000
0010
0000
1000
0000
0101
0000
1000
0100
0001
0100
,
1010
0000
0100
0001
0010
0000
0100
1000
0010
0000
1000
0000
0100
0000
1001
0000
,
1000
0000
0001
0100
0010
0000
0100
0001
0010
0000
0001
0000
1000
0000
1001
0000
,
1000
0000
0010
0100
0001
0000
0010
0100
1000
0000
0010
0100
0001
0000
1000
0100
,
0010
0000
0001
0000
0010
0000
1000
0000
0010
0000
0100
0000
1000
0000
0010
0000
0100
0000
0110
0000
1000
0100
0010
0001
1000
0000
0000
0000
0010
0000
0000
0000
,
1000
0010
0100
0010
0100
0010
0001
0010
,
0001
0010
0100
0010
0100
0010
1000
0100
,
1000
0100
0010
0100
0010
0100
1000
0100
,
1000
0100
0010
0100
0010
0100
0001
0010
,
0001
0010
1000
0010
1000
0010
0001
0100
,
0001
0100
1000
0100
1000
0100
0010
0010
,
1000
0000
0000
0010
0000
0000
0100
0000
0000
0100
0000
0000
0010
0000
0000
0100
0000
0000
0001
0000
0010
0000
0100
0000
,
1000
0010
0100
0001
1000
0010
0100
0001
1000
0001
0000
0000
,
1010
1000
0100
0000
0011
0001
0100
0000
,
0101
0001
0010
0000
0110
0100
1000
0000
,
1010
1000
0100
0000
0011
0001
0100
0000
,
0110
0000
0000
0010
0000
0000
0100
0000
0000
0000
0000
0000
1001
0000
0000
0000
0000
0000
0010
0000
0001
0000
0010
0000
,
0001
0100
0001
0100
0010
1000
0010
1000
0100
0010
0001
0010
,
0001
0000
0100
0000
0010
0000
0100
0000
0010
0000
1000
0000
0100
0000
0010
0000
0001
0000
1000
0000
0000
0011
0000
0000
,
1010
0000
0101
0000
1000
0100
0001
0100
1000
0010
1010
0010
2002
0000
0000
0000
,
0000
0000
0000
0000
,
0000
0000
0000
0000
,
0000
0000
0000
0000
,
0000
0000
0000
3003
;
