#TITLE:EYES OF DESPAiR;
#SUBTITLE:;
#ARTIST:iNFECTiON;
#TITLETRANSLIT:;
#SUBTITLETRANSLIT:;
#ARTISTTRANSLIT:;
#GENRE:;
#CREDIT:;
#MUSIC:EYES OF DESPAiR.ogg;
#BANNER:EYES OF DESPAiR.png;
#BACKGROUND:EYES OF DESPAiR-bg.png;
#CDTITLE:;
#SAMPLESTART:90.905;
#SAMPLELENGTH:15.000;
#SELECTABLE:YES;
#OFFSET:0.000;
#BPMS:0.000=200.000
,46.000=100.000
,46.500=200.000
,61.000=400.000
,63.000=200.000
,75.000=400.000
,79.000=200.000
,93.000=400.000
,95.000=200.000
,124.000=400.000
,126.000=200.000
,138.000=400.000
,142.000=200.000
,156.000=400.000
,158.000=200.000
,170.000=400.000
,174.500=200.000
,181.000=400.000
,184.000=200.000
,186.500=400.000
,187.000=200.000
,188.000=400.000
,192.000=200.000
,198.500=400.000
,201.500=200.000
,204.000=400.000
,204.500=200.000
,205.500=400.000
,209.500=200.000
,216.000=400.000
,219.000=200.000
,221.500=400.000
,222.000=200.000
,223.000=400.000
,227.000=200.000
,241.500=100.000
,242.000=200.000
,242.500=100.000
,244.500=200.000
,248.500=100.000
,250.500=200.000
,254.500=100.000
,256.500=200.000
,260.500=100.000
,262.500=200.000
,266.500=400.000
,294.500=200.000
,295.000=400.000
,483.000=800.000
,487.000=100.000
;
#STOPS:46.500=0.038
,46.625=0.038
,46.750=0.038
,46.875=0.038
,61.000=0.075
,61.500=0.075
,62.000=0.075
,62.500=0.075
,75.000=0.075
,75.500=0.075
,76.000=0.075
,76.500=0.075
,77.000=0.038
,77.250=0.038
,77.500=0.038
,77.750=0.038
,78.000=0.038
,78.250=0.038
,78.500=0.038
,78.750=0.038
,93.000=0.075
,93.500=0.075
,94.000=0.075
,94.500=0.075
,109.000=0.075
,109.250=0.075
,109.500=0.038
,109.625=0.038
,109.750=0.038
,109.875=0.038
,124.000=0.075
,124.500=0.075
,125.000=0.075
,125.500=0.075
,138.000=0.075
,138.500=0.075
,139.000=0.075
,139.500=0.075
,140.000=0.038
,140.250=0.038
,140.500=0.038
,140.750=0.038
,141.000=0.038
,141.250=0.038
,141.500=0.038
,141.750=0.038
,156.000=0.075
,156.500=0.075
,157.000=0.075
,157.500=0.075
,174.000=0.225
,174.500=0.038
,174.625=0.038
,174.750=0.038
,174.875=0.038
,181.000=0.075
,181.500=0.075
,186.500=0.038
,186.750=0.038
,188.000=0.075
,188.500=0.075
,189.000=0.075
,189.500=0.075
,192.000=0.038
,192.125=0.038
,192.250=0.038
,192.375=0.038
,198.500=0.075
,199.000=0.075
,204.000=0.038
,204.250=0.038
,205.500=0.075
,206.000=0.075
,206.500=0.075
,207.000=0.075
,209.500=0.038
,209.625=0.038
,209.750=0.038
,209.875=0.038
,216.000=0.075
,216.500=0.075
,221.500=0.038
,221.750=0.038
,223.000=0.075
,223.500=0.075
,224.000=0.075
,224.500=0.075
,227.000=0.038
,227.125=0.038
,227.250=0.038
,227.375=0.038
,242.000=0.038
,242.125=0.038
,242.250=0.038
,242.375=0.038
,266.500=0.450
,267.500=0.450
,268.500=0.150
,269.500=0.150
,270.500=0.150
,271.500=0.150
,272.500=0.450
,273.500=0.450
,274.500=0.150
,275.500=0.150
,276.500=0.150
,277.500=0.150
,278.500=0.150
,279.500=0.150
,280.500=0.150
,281.500=0.150
,282.500=0.150
,283.500=0.150
,284.500=0.150
,285.500=0.150
,286.500=0.075
,287.000=0.075
,287.500=0.075
,288.000=0.075
,288.500=0.075
,289.000=0.075
,289.500=0.075
,290.000=0.075
,292.500=0.150
,293.500=0.150
,294.500=0.038
,294.625=0.038
,294.750=0.038
,294.875=0.038
,483.000=0.038
,483.500=0.038
,484.000=0.038
,484.500=0.038
,485.000=0.038
,485.500=0.038
,486.000=0.038
,486.500=0.038
;
#DISPLAYBPM:100.000:400.000;
#BGCHANGES:;
#FGCHANGES:;

//--------------- dance-single - ----------------
#NOTES:
     dance-single:
     :
     Beginner:
     7:
     0.29548,0.456639,0.096722,0.119042,0,278,265,13,16,0,0,0.29548,0.456639,0.096722,0.119042,0,278,265,13,16,0,0:
0000
0000
0000
0000
,
0000
0000
0000
0000
,
0000
0000
0000
0000
,
0000
0000
0000
0000
,
0000
0000
0000
0000
,
0000
0000
0000
0000
,
0000
0000
0000
0000
,
0000
0000
0000
0000
,
0010
0000
0010
0000
,
0010
0010
0010
0000
,
1000
0001
1000
0001
,
2002
0000
3003
1000
,
0000
1000
0000
0001
,
0000
0001
0000
1000
,
1000
0001
0001
1000
,
1000
0001
0000
0001
,
0000
0001
0000
1000
,
0000
1000
0000
0001
,
0001
1000
1000
0100
,
0100
0010
0000
0001
,
0000
0001
0000
1000
,
0100
1000
0000
1000
,
0000
1000
0000
0001
,
0100
0001
0000
0010
,
0010
0010
0000
0100
,
0100
0100
0000
1000
,
0001
1000
0001
1000
,
0001
1001
1000
0000
,
1000
0000
0001
0001
,
0001
0000
0100
0000
,
0001
0000
0010
0010
,
0010
0000
0100
0000
,
1000
0000
0010
0010
,
0010
0000
1000
0000
,
0001
0000
0010
0010
,
0010
0000
0001
0001
,
0001
0000
1000
0100
,
1000
0000
0010
0010
,
0010
0000
0100
0001
,
0100
0000
0010
1000
,
0010
0000
0100
0001
,
0100
0000
0001
1000
,
0001
1000
2002
0000
,
3003
0000
0000
1000
,
1000
0001
0001
1000
,
1000
0001
0000
0000
,
1000
1000
0001
0001
,
1000
1000
1001
0000
,
0000
1000
0000
0001
0000
1000
0000
0100
,
0000
0010
0000
0100
0000
0010
0000
0000
,
0000
0000
0000
0001
0000
0100
0000
0001
,
0000
0100
0000
0010
0000
0100
0000
0110
,
0000
0000
1000
1000
,
0001
0001
0100
0100
,
0010
0000
0000
0100
,
0001
0100
0010
1000
,
0001
0000
1001
0000
0000
0000
0000
0010
,
0000
0010
0000
0010
0000
0000
0000
0010
,
0000
0010
0000
0010
0000
0000
0000
0010
,
0000
0010
0000
0010
0000
0100
0000
0010
,
0000
0100
0000
0110
0000
2002
0000
0000
,
0000
3003
0000
0000
0000
0000
0000
0000
,
0000
0220
0000
0000
0000
0330
0000
0000
,
0000
0000
0000
0000
0000
2002
0000
0000
,
0000
3003
0000
0000
0000
0000
0000
0000
,
0000
0220
0000
0000
0000
0330
0000
0000
,
0000
0000
0000
0000
0000
1000
0000
0001
,
0000
1000
0000
1000
0000
0001
0000
0000
,
0000
1000
0000
0001
0000
1000
0000
1000
,
0000
0001
0000
0000
0000
1000
0000
1000
,
0000
1000
0000
0000
0000
0001
0000
0001
,
0000
0001
0000
0000
0000
1000
0000
0100
,
0000
0010
0000
0001
0000
2002
0000
0000
,
0000
3003
0000
0000
0000
0000
1000
0000
,
0000
0100
0000
1000
,
0000
0010
0000
1000
,
0000
0100
0000
1000
,
0000
0000
0000
0001
,
0000
0100
0000
0001
,
0000
0010
0000
0001
,
0000
0100
0000
0001
,
0000
0000
0000
1000
,
0000
0010
0000
1000
,
0000
0100
0000
1000
,
0000
0010
0000
1000
,
0000
0000
0000
0001
,
0000
0010
0000
0001
,
0000
0100
0000
0001
,
0000
0010
0000
0001
,
0000
0000
0000
1000
,
0000
1000
0000
0001
,
0000
0001
0000
1000
,
0000
0100
0000
1000
,
0000
0000
0000
0001
,
0000
0001
0000
1000
,
0000
1000
0000
0001
,
0000
0100
0000
0001
,
0000
0000
0000
0100
,
0000
0100
0000
0010
,
0000
0010
0000
0100
,
0000
0010
0000
0100
,
0000
0000
0000
0010
,
0000
1000
0000
0001
,
0000
0010
0000
0100
,
0000
0100
0000
0100
,
0000
0000
0000
1000
,
0000
0001
0000
1000
,
0000
0001
0000
1000
,
0000
1000
0000
0001
,
0000
0000
0000
0001
,
0000
0001
0000
1000
,
0000
1000
0000
0001
,
0000
1000
0000
0001
,
0000
0000
0000
1000
,
0000
1000
0000
0001
,
0000
0100
0000
0001
,
0000
0001
0000
1000
,
0000
0010
0000
1000
,
0000
0100
0000
0010
,
0000
0001
0000
0010
,
0000
0010
0000
0100
,
0000
0100
0000
2002
,
0000
0000
0000
3003
;

//--------------- dance-single - ----------------
#NOTES:
     dance-single:
     :
     Easy:
     11:
     0.419837,0.776286,0.379447,0.178563,0,395,344,51,24,0,0,0.419837,0.776286,0.379447,0.178563,0,395,344,51,24,0,0:
0000
0000
0000
0000
,
0000
0000
0000
0000
,
0000
0000
0000
0000
,
0000
0000
0000
0000
,
0000
0000
0000
0000
,
0000
0000
0000
0000
,
0000
0000
0000
0000
,
0000
0000
0000
0000
,
0010
0000
0010
0000
,
0010
0010
0010
0010
,
1000
0001
1000
0001
,
0100
0010
0110
1000
,
1000
1000
0000
1000
,
0100
0001
0000
0001
,
0001
0001
0010
1000
,
0010
0001
0000
0001
,
0001
0001
0000
0001
,
0010
1000
0000
1000
,
1000
1000
0100
0001
,
0100
1000
0000
0010
,
0010
0010
1000
0010
,
0100
0001
0000
0010
,
0010
0010
0001
0100
,
0010
1000
0000
0100
,
1000
0100
1000
0010
,
0100
0001
0010
0001
,
0100
0010
1000
0100
,
0010
0000
1001
0000
1000
0000
0100
1000
,
0000
0100
1000
0000
0010
0000
0100
0000
,
0001
0000
0000
0000
0010
0000
0001
0100
,
0000
0001
0100
0000
0010
0000
1000
0000
,
0100
0000
0000
0000
1000
0000
0010
1000
,
0000
0010
1000
0000
0001
0000
0100
0000
,
0010
0000
0000
0000
0100
0000
0001
0010
,
0000
0001
0010
0000
0100
0000
0100
0000
,
1000
0000
1001
0000
0001
0000
1000
0010
,
0000
1000
0010
0000
0100
0000
0001
0000
,
0010
0000
0010
0000
0001
0000
1000
0100
,
0000
1000
0100
0000
1000
0000
0010
0000
,
0100
0100
0010
0010
,
0010
0010
0010
0010
,
0010
0000
1001
1001
,
1001
1001
1001
0000
,
0000
0000
0110
1000
,
1000
0001
0001
1000
,
1010
0011
1000
0000
,
0001
0001
1000
1000
,
1010
0010
1001
0000
,
0000
0001
0000
0001
0000
1000
0000
1000
,
0000
0001
0000
0101
0000
1100
0000
0001
,
0000
0000
0000
1000
0000
1000
0000
0001
,
0000
0001
0000
0101
0000
0100
0000
1001
,
0000
0000
1000
1000
,
0001
0001
0010
0011
,
1000
1010
0000
1000
,
1000
0001
0001
1000
,
1010
0000
0001
0000
0000
0000
0011
0010
,
0000
0010
0000
0010
0000
0010
0000
0100
,
0000
0100
0000
0100
0000
0100
0000
1001
,
0000
1001
0000
1001
0000
1001
0000
0110
,
0000
0110
0000
0110
0000
2010
0000
0000
,
0000
3000
0000
0000
0000
0000
0000
0000
,
0000
0102
0000
0000
0000
0003
0000
0000
,
0000
0000
0000
0000
0000
2100
0000
0000
,
0000
3000
0000
0000
0000
0000
0000
0000
,
0000
0012
0000
0000
0000
0003
0000
0000
,
0000
0000
0000
0000
0000
1001
0000
0110
,
0000
1000
0000
1000
0000
0001
0000
0001
,
0000
0011
0000
1100
0000
0001
0000
0001
,
0000
1000
0000
1000
0000
0110
0000
0010
,
0000
1000
0000
1100
0000
1000
0000
0001
,
0000
1001
0000
0001
0000
0010
0000
0010
,
0000
0100
0000
0100
0000
2002
0000
0000
,
0000
3003
0000
0000
0000
0000
1000
0000
,
0000
1000
0000
0001
,
0000
0100
0000
0001
,
0000
0001
0000
0010
,
0000
0100
0000
2000
,
0000
3200
0000
0320
,
0000
0032
0000
1003
,
0100
1000
0000
0001
,
0100
0001
0000
0001
,
0000
0001
0000
1000
,
0000
0010
0000
1000
,
0000
1000
0000
0100
,
0000
0010
0000
0002
,
0000
0023
0000
0230
,
0000
2300
0000
3001
,
0010
0001
0000
1000
,
0010
1000
0000
1100
,
0000
1100
0000
1000
,
0000
1000
0000
0011
,
0000
0011
0000
0001
,
0000
0001
0000
2000
,
0000
3200
0000
0302
,
0000
0203
0000
1300
,
0010
1000
0000
0001
,
0010
0001
0000
0011
,
0000
0011
0000
0001
,
0000
0001
0000
1100
,
0000
1100
0000
1000
,
0000
1000
0000
0002
,
0000
0023
0000
2030
,
0000
3020
0000
0031
,
0100
0001
0000
1000
,
0100
1000
0000
0010
,
0100
0010
0100
0010
,
0100
0010
0000
1000
,
0000
0001
0000
1000
,
0000
1001
0000
0100
,
0010
0100
0010
0100
,
0010
0100
0000
0001
,
0000
1000
0000
0001
,
0000
1001
0000
1000
,
0100
1000
0100
1000
,
0000
0001
0000
0100
,
0001
0100
0001
0100
,
0000
0001
0000
1000
,
0100
0010
0001
0010
,
0100
1000
0000
0001
,
0010
1000
0010
0001
,
0100
1000
0100
2002
,
0000
0000
0000
3003
;

//--------------- dance-single - ----------------
#NOTES:
     dance-single:
     :
     Medium:
     15:
     0.655796,0.82195,0.327366,0.119042,0.00372,617,573,44,16,0,0,0.655796,0.82195,0.327366,0.119042,0.00372,617,573,44,16,0,0:
0000
0000
0000
0000
,
0000
0000
0000
0000
,
0000
0000
0000
0000
,
0000
0000
0000
0000
,
0000
0000
0000
0000
,
0000
0000
0000
0000
,
0000
0000
0000
0000
,
0000
0000
0000
0000
,
0010
0000
0010
0000
,
0010
0010
0010
0010
,
1000
0001
1000
0100
0010
0001
0100
0001
,
0010
0100
1000
0001
1000
1001
1000
0100
,
1000
0100
0010
0001
0010
0000
0001
0010
,
0001
0010
0100
1000
0100
0000
1000
0001
,
1000
0001
0100
0001
0100
0010
1000
0100
,
1000
0001
0100
0000
1001
0000
0001
0010
,
0001
0010
0100
1000
0100
0000
1000
0100
,
1000
0100
0010
0001
0010
0000
0001
1000
,
0001
1000
0010
1000
0010
0100
0001
0100
,
0001
1000
0100
0000
1001
0000
0001
1000
,
0100
0100
1000
0001
0100
0000
0001
1000
,
0010
0010
1000
0001
0010
0000
1000
0001
,
0100
0100
0001
1000
0100
0000
1000
0010
,
0100
0100
0001
1000
0100
0000
1000
0100
,
1000
0100
0010
0001
0010
0001
0100
0010
,
1000
0100
0010
0001
1000
0000
0001
0100
,
0010
0100
0010
1000
0100
0010
0001
0100
,
0010
1000
0001
1001
1000
0100
0001
0200
,
0000
1300
0010
0002
0000
0013
1000
0100
,
0010
0001
0100
0010
1000
0010
0001
0020
,
0000
1030
0100
0002
0000
0103
1000
0010
,
0100
0001
0010
0100
1000
0001
0010
2000
,
0000
3010
0001
0200
0000
1300
0100
0001
,
0010
0100
1000
0001
1000
0001
0100
2000
,
0000
3100
0001
0010
0100
1000
0010
0100
,
0010
1000
0001
0100
0001
1000
0100
0200
,
0000
0310
0010
0001
0010
0100
1000
0001
,
1000
0010
0100
0000
0001
1000
0010
0020
,
0000
0130
0100
0001
0010
0100
1000
0001
,
1000
0010
0100
0000
0001
0010
1000
0010
,
0001
0010
1000
0000
0001
0100
1000
0100
,
0001
0100
1000
0000
0001
0100
1000
0100
,
0001
0010
1000
0010
0001
0000
0000
0000
,
1001
0000
0000
0000
0110
0000
1000
0001
,
1001
0000
1000
0100
1100
0000
0001
0100
,
0000
0100
0001
0000
1001
0000
0000
0000
,
0001
0010
0011
0000
0010
0100
0110
0000
,
0100
1000
0001
1000
0001
0000
0000
0000
,
1001
0001
1000
1001
0000
0001
0010
0011
,
0000
1000
0010
0000
0010
1000
0000
1001
,
0000
0000
0000
1000
0100
1100
0000
0100
,
0010
0110
0000
0010
0001
1000
0001
1000
,
0000
0000
0000
1001
1000
0001
0100
0001
,
0100
0010
1010
0000
1000
0001
0100
0001
,
0010
0001
0011
0000
0000
0000
1000
0001
,
0100
0001
1000
0010
1010
0000
0010
1000
,
0100
1000
0001
0000
0000
0000
1001
0010
,
0010
0010
0010
0010
0010
0010
0000
0100
,
0100
0100
0100
0100
0100
0100
0000
1000
,
0100
0001
0100
1000
0010
0001
0010
1000
,
0100
0001
0100
1000
1001
2010
0000
0000
,
0000
3000
0000
0000
0000
0000
0000
0000
,
0000
0102
0000
0000
0000
0003
0000
0000
,
0000
0000
0000
0000
0000
2100
0000
0000
,
0000
3000
0000
0000
0000
0000
0000
0000
,
0000
0012
0000
0000
0000
0003
0000
0000
,
0000
0000
0000
0000
0000
1001
0000
0110
,
0000
1010
0000
1000
0000
1001
0000
0001
,
0000
0011
0000
1100
0000
0011
0000
0001
,
0000
0101
0000
0100
0000
0110
0000
0010
,
0000
1000
0000
1100
0000
1000
0000
0001
,
0000
1001
0000
0001
0000
1000
0100
0001
,
0100
1000
0010
0001
0010
2000
0000
0000
,
0000
0000
3001
0000
0000
0000
1001
0000
0000
0000
0010
0001
1000
0000
0000
0000
,
0100
1000
0001
0100
,
0001
1000
0010
1000
,
0001
0010
0100
1000
,
0100
0000
1000
0100
,
0010
0001
0100
0010
,
1000
0100
0010
0001
,
0000
1001
0000
0001
,
0001
1000
1000
0001
,
0010
0001
1000
0010
,
1000
0001
0100
0001
,
1000
0100
0010
0001
,
0010
0000
0001
0010
,
0100
1000
0010
0100
,
0001
0010
0100
1000
,
1000
0000
0001
0000
0001
0000
1000
0001
,
1000
0000
0001
1000
0001
0000
1000
0000
,
0100
0010
0100
0001
,
0100
0010
0100
1000
,
0010
0001
0010
1000
,
0100
0000
0100
1000
,
0010
0100
0010
0001
,
0010
0100
0010
1000
,
0000
1001
0000
0001
,
0001
1000
1000
0001
,
0010
0100
0010
1000
,
0010
0100
0010
0001
,
0100
1000
0100
0001
,
0010
0000
0010
0001
,
0100
0010
0100
1000
,
0100
0010
0100
0001
,
0001
0000
1000
0000
1000
0000
0001
1000
,
0001
0000
1000
0001
1000
0000
0100
0000
,
0100
0100
0100
0100
,
0100
0100
0100
1000
,
0010
0100
0001
1000
,
0000
1001
0000
0010
,
0010
0010
0010
0010
,
0010
0010
0010
0001
,
0100
0010
1000
0001
,
0000
0000
1001
0000
0000
0000
1000
0001
,
1000
0001
0010
0100
,
1000
0000
0001
0000
0000
0000
0001
1000
,
0001
1000
0010
0100
,
0001
0000
1000
0000
0000
0000
0100
1000
,
0100
0000
1000
0000
0001
0000
0010
0001
,
0010
0000
0001
0000
1000
0000
0010
1000
,
0010
0000
0100
0001
0100
0000
0001
1000
,
0010
0100
0001
1000
0001
0000
2002
0000
,
0000
0000
0000
3003
;

//--------------- dance-single - ----------------
#NOTES:
     dance-single:
     :
     Hard:
     18:
     0.913012,1.461244,0.572891,0.223204,0.297606,859,782,77,30,0,0,0.913012,1.461244,0.572891,0.223204,0.297606,859,782,77,30,0,0:
0000
0000
0000
0000
,
0000
0000
0000
0000
,
0000
0000
0000
0000
,
0000
0000
0000
0000
,
0000
0000
0000
0000
,
0000
0000
0000
0000
,
0000
0000
0000
0000
,
0000
0000
0000
0000
,
0010
0000
0010
0000
,
0010
0010
0010
0010
,
1000
0001
0010
1000
0010
0001
0100
1000
,
0100
0000
0010
0000
0100
0000
0010
0000
1000
0000
0100
0000
1000
0000
0100
0000
0010
0000
0000
0000
0001
0010
0100
1000
0001
0000
0000
0000
0010
0000
0000
0000
,
0001
0010
0100
0010
0100
0010
1000
0010
,
1000
0010
0100
0010
0100
0000
0010
0001
,
0010
1000
0010
0001
0010
0100
0010
0001
,
0100
1000
0100
0001
0010
0000
1000
0100
,
1000
0100
0010
0100
0010
0100
0001
0100
,
0001
0100
0010
0100
0010
0000
0100
1000
,
0100
0001
0100
1000
0100
0010
0100
1000
,
0010
0000
0001
0000
0010
1000
0100
0010
0001
0010
0100
1000
0001
0000
0100
0000
,
0101
0010
1000
0100
0100
0100
0010
0001
,
1100
0100
0010
0001
1001
0000
0100
0001
,
0011
0010
0100
1000
1000
1000
0100
1000
,
1010
1000
0001
0100
0110
0000
0010
1000
,
1100
1000
0010
0100
0001
0010
0100
0010
,
0011
0001
0100
0010
1000
0000
1010
1000
,
0101
0000
0001
0000
0001
0000
0100
0000
0110
0000
0100
0000
0001
0010
0100
1000
,
0010
0000
0100
0000
0001
0000
0010
0000
0100
0000
0100
0000
0010
0100
0010
0100
1000
0000
0000
0000
0001
0000
0100
0000
1000
0000
0000
0000
0200
0000
0000
0000
,
0000
0000
0310
1000
0001
0000
0020
0000
0000
0000
1030
0010
0001
0000
0100
0000
,
0010
0000
0010
0000
1010
0000
1010
0000
0001
0000
1000
0100
0001
0000
0200
0000
,
0000
0000
0310
0001
0100
0000
0020
0000
0000
0000
0031
0010
1000
0000
0100
0000
,
0010
0000
0010
0000
0011
0000
0011
0000
1000
0000
0010
1000
0001
0000
0020
0000
,
0000
0000
1030
0010
0001
0000
0200
0000
0000
0000
1300
0100
0001
0000
0010
0000
,
0100
0000
0100
0000
1100
0000
1100
0000
1000
0000
0001
1000
0100
0000
0020
0000
,
0000
0000
0031
0010
1000
0000
0010
0000
0001
0000
1000
0000
0001
0000
1000
0000
,
0001
0100
0001
0100
0001
0100
0001
0100
0010
0000
1000
0001
0100
0000
0002
0000
,
0000
0000
0013
0000
0100
0000
0010
0000
0100
0000
1000
0001
0100
0000
0010
0000
,
1000
0000
0100
0000
2010
0000
0000
0000
3010
0000
0100
0001
1000
0000
0002
0000
,
0000
0000
0103
0000
0010
0000
0100
0000
0010
0000
1000
0001
0010
0000
0001
0000
,
0100
0000
0010
0000
0102
0000
0000
0000
0103
0000
0001
0100
1000
0000
0100
0000
,
0010
0000
1000
0000
0100
0000
0001
0000
0100
0000
1000
0010
0001
0000
0010
0000
,
1000
0000
0100
0000
0001
0000
0100
0000
1000
0001
1000
0000
0001
1000
0001
0000
,
1000
0001
1000
0000
0001
1000
0001
0000
2002
0000
0000
0000
0000
0000
0000
0000
,
3003
0000
0000
0000
0000
0000
0000
0000
0000
0000
0000
0000
0000
0000
0000
0000
0110
0000
0000
0000
0100
0010
0100
0010
1000
0000
0000
0000
0100
0000
0000
0000
,
1100
0000
1000
0000
0001
0000
0010
0000
0011
0000
0001
0000
0100
0000
0010
0100
,
0010
0100
0001
1000
2001
0000
0000
0000
,
3001
0000
0100
0000
0101
0000
0100
0000
0010
0000
1000
0100
1000
0000
1000
0000
,
0001
0100
0101
0001
2002
0000
3003
0000
,
0010
0100
0010
0100
0010
0000
0000
0000
1000
0000
0000
0000
1100
0000
0000
0000
1000
0000
0000
0000
0001
0000
0000
0000
0010
0000
0000
0000
0011
0000
0000
0000
,
0100
0000
0010
0000
1000
0100
1000
0000
0010
0000
0100
0000
0001
0000
1002
0000
,
0000
0000
0000
1003
0100
0110
0100
1000
,
0001
0100
0001
0000
0100
0000
0010
0000
1000
0000
1010
0000
0001
0000
2002
0000
,
0000
0000
0000
0000
3003
0000
0000
0000
0000
0000
0000
0000
0100
0010
0100
0010
0100
0000
0000
0000
1000
0000
0000
0000
1010
0000
0000
0000
1000
0000
0000
0000
,
0001
0000
0010
0000
0011
0000
0100
0000
0010
0000
1000
0100
1000
0000
0010
0000
,
0100
0100
2001
0000
0000
0000
3001
0100
,
0101
0000
0100
0000
0010
0000
1000
0100
1000
0000
0010
0000
1000
0000
0100
0000
,
0011
0000
0000
0000
0010
0000
0000
0000
2002
0000
0000
0000
0000
0000
0000
0000
3003
0000
0000
0000
0000
0000
0000
0000
0010
0100
0010
0100
0010
0000
0000
0000
,
0010
0010
0010
0010
0010
0010
0010
0100
,
0100
0000
0100
0000
0100
0000
0100
0000
0100
0000
0100
0000
0100
0000
1000
0001
,
0100
0001
1000
0001
0010
0001
1000
0001
0100
0001
1000
0001
0010
0001
1000
0001
,
0100
0000
0001
0000
1000
0000
0001
0000
0010
0000
0001
0000
1000
0000
0000
0000
1000
0100
0010
0001
2000
0000
0000
0000
0000
0000
0000
0000
0000
0000
0000
0000
,
0000
3000
0000
0000
0000
0000
0000
0000
,
0000
0102
0000
0000
0000
0003
0000
0000
,
0000
0000
0000
0000
0000
2100
0000
0000
,
0000
3000
0000
0000
0000
0000
0000
0000
,
0000
0012
0000
0000
0000
0003
0000
0000
,
0000
0000
0000
0000
0000
1010
0000
0101
,
0000
0011
0000
1010
0000
1100
0000
0101
,
0000
0110
0000
0011
0000
1010
0000
0011
,
0000
0101
0000
1100
0000
1010
0000
1000
,
0000
1001
0000
0001
0000
0011
0000
0010
,
0000
0110
0000
1100
0000
1100
1000
0001
,
0101
0100
0100
1010
0010
2002
0000
0000
,
0000
0000
0000
0000
3003
0000
0000
0000
0000
0000
0000
0000
0110
0000
0000
0000
0000
0000
0000
0000
0010
0100
0010
0100
0010
0000
0000
0000
0000
0000
0000
0000
,
1000
0100
1000
0010
,
1000
0000
0001
0010
0001
1000
0100
0000
,
1000
0000
0100
0000
1000
0100
0010
0000
,
0001
0000
0010
0001
0100
0010
1000
0000
,
0100
0001
0100
1000
,
0010
0000
0100
0010
0100
0010
1000
0000
,
1000
0000
1001
0000
0010
0100
1000
0010
,
1000
0010
1000
0010
1000
0010
1000
0000
,
0001
0010
0001
0100
,
0001
0000
1000
0100
1000
0001
0010
0000
,
0001
0000
0010
0000
0001
0010
0100
0000
,
1000
0000
0100
1000
0010
0100
0001
0000
,
0010
1000
0010
0001
,
0100
0000
0001
0000
1000
0000
0001
1000
,
0001
1000
0001
1000
0001
1000
0001
0100
,
0001
0100
0001
0100
0001
0100
0001
0000
,
1000
1100
1000
0001
,
0011
0000
0001
0010
0100
0010
0001
0000
,
0010
0000
0110
0000
0100
1000
0100
0000
,
1000
0000
0001
0100
0001
0100
0001
0000
,
0010
0011
0010
0100
,
0110
0000
0010
0001
0010
0100
0010
0000
,
0001
0000
0101
0000
0010
1000
0010
0100
,
0001
0100
0010
1000
0010
0100
0010
0000
,
1000
1010
0001
1000
,
1100
0000
1000
0100
0010
0001
0010
0000
,
0100
0000
0110
0000
0001
0010
0100
0000
,
0010
0000
0100
1000
0100
1000
0001
0010
,
0100
0010
0001
0000
1000
0000
0010
0100
,
0001
0100
0010
0000
1000
0000
0100
0010
,
0001
0010
0100
1000
0100
0010
0001
0010
,
0100
1000
0100
0010
0001
0000
0100
0001
,
0100
0010
1000
0010
0100
0001
0100
0010
,
1000
0010
0100
0001
0100
0010
1000
0000
,
0001
0000
1001
0000
0100
0010
0100
0000
,
1000
0000
0010
0100
0010
0000
0100
0001
,
0010
0100
1000
0100
0010
0001
0100
0010
,
1000
0100
0010
0100
1000
0001
0010
0000
,
0001
0000
1001
0000
0010
0100
0010
0100
,
0001
0010
0100
1000
0010
0000
1000
0001
,
0010
0100
1000
0010
0100
0001
0010
0100
,
1000
0100
0010
0001
1000
0000
0001
0100
,
0010
0100
0001
0010
0100
1000
0100
0010
,
0001
0100
0010
0100
0001
0000
1000
0100
,
0010
0100
1000
0100
0010
0001
0100
0010
,
1000
0010
0100
0001
0010
0100
1000
0100
,
0010
0001
0010
0100
1000
0010
0100
0010
,
1000
0100
0010
0001
1000
0001
2002
0000
,
0000
0000
0000
3003
;

//--------------- dance-single - ----------------
#NOTES:
     dance-single:
     :
     Challenge:
     19:
     1.110707,1.552572,1.354106,0.483609,0.372007,1045,863,182,65,0,0,1.110707,1.552572,1.354106,0.483609,0.372007,1045,863,182,65,0,0:
0000
0000
0000
0000
,
0000
0000
0000
0000
,
0000
0000
0000
0000
,
0000
0000
0000
0000
,
0000
0000
0000
0000
,
0000
0000
0000
0000
,
0000
0000
0000
0000
,
0000
0000
0000
0000
,
2200
3300
0202
0303
,
2020
3030
0000
0000
0022
0033
0000
0000
2200
3300
0000
0000
0202
0303
0000
0000
,
1100
0100
0110
0010
0011
0001
1001
1000
,
0001
0000
0010
0000
1000
0000
0010
0000
0001
0000
0100
0000
1000
0000
0100
0000
0002
0000
0000
0000
1003
0100
0001
0100
1000
0000
0000
0000
0010
0000
0000
0000
,
0110
0100
0010
1000
0010
0100
0001
0010
,
0110
0010
0001
0100
0010
1000
0100
1000
,
1001
1000
0001
0100
0010
0100
0001
0010
,
1001
0001
0010
0100
1100
1000
0001
0100
,
0110
0010
0100
0001
0100
0010
1000
0100
,
0110
0100
1000
0010
0100
0001
0010
0001
,
1001
0001
1000
0010
0100
0010
1000
0100
,
1001
0000
1000
0000
1000
0100
0001
0100
1000
0010
0001
0010
1000
0000
0100
0000
,
0110
0100
1100
1000
1001
0001
0100
0001
,
0011
0001
1001
0001
0101
0100
0010
1000
,
1010
1000
1100
1000
1001
0001
0010
0100
,
1100
1000
1001
0001
0101
0001
0010
0100
,
1100
1000
1001
0001
0101
0001
0010
0100
,
0110
0010
0011
0001
1001
1000
0100
1100
,
1100
0000
1000
0000
0001
0000
0101
0000
0101
0000
0001
0000
1000
0010
0001
0010
,
1000
0000
0100
0000
0001
0000
0100
0000
1000
0000
1000
0000
0001
0100
1000
0100
0001
0000
0000
0000
1000
0000
0100
0000
0001
0000
0000
0000
0100
0000
0000
0000
,
1000
0000
0001
0100
1000
0000
0100
0000
0001
0000
1000
0100
0001
0000
0100
0000
,
1000
0000
0100
0000
1100
0000
0101
0000
1000
0000
0001
0010
1000
0000
0010
0000
,
0001
0000
1000
0010
0001
0000
0010
0000
1000
0000
0001
0010
1000
0000
0010
0000
,
0001
0000
0010
0000
0011
0000
1010
0000
1000
0000
0001
0100
1000
0000
0100
0000
,
0001
0000
1000
0100
0001
0000
0100
0000
1000
0000
0001
0100
1000
0000
0100
0000
,
0001
0000
0100
0000
0101
0000
1100
0000
0001
0000
1000
0010
0001
0000
0010
0000
,
1000
0000
0001
0010
1000
0000
0010
0000
0011
0000
1010
0000
1100
0000
0101
0000
,
1000
0100
0001
0100
1000
0010
0001
0010
1000
0000
0001
0010
1000
0000
0010
0000
,
0001
0000
1000
0010
0001
0000
0010
0000
1000
0000
0001
0010
1000
0000
0010
0000
,
0001
0000
0100
0000
0101
0000
1100
0000
0001
0000
1000
0100
0001
0000
0100
0000
,
1000
0000
0001
0100
1000
0000
0100
0000
0001
0000
1000
0100
0001
0000
0100
0000
,
1000
0000
0010
0000
1010
0000
0011
0000
1010
0000
0001
0010
1000
0000
0010
0000
,
0001
0000
1000
0100
0001
0000
0100
0000
1100
0000
1000
0010
0001
0000
0010
0000
,
1000
0000
0001
0010
1000
0000
0010
0000
0001
0100
1000
0100
0001
0010
1000
0010
,
0001
0100
1000
0100
0001
0010
1000
0010
0002
0000
0000
0000
0000
0000
0000
0000
,
1000
0000
0000
0000
0000
0000
0000
0000
0003
0000
0000
0000
0000
0000
0000
0000
1001
0000
0000
0000
0100
0010
0100
0010
1000
0000
0000
0000
1100
0000
0000
0000
,
0110
0000
0011
0000
0001
0000
0101
0000
0110
0000
1010
0000
1000
0000
0001
0100
,
1000
0100
0110
0110
0001
0010
1000
0010
,
0001
0000
0101
0000
0110
0000
1010
0000
1000
0000
0001
0010
1000
0000
0010
0000
,
0101
0110
1010
0011
2001
0000
0000
0000
,
3001
0010
1000
0010
0001
0000
0000
0000
0011
0000
0000
0000
0110
0000
0000
0000
1100
0000
0000
0000
1000
0000
0000
0000
1010
0000
0000
0000
0110
0000
0000
0000
,
0101
0000
0001
0000
1000
0010
0001
0000
0010
0000
0110
0000
0110
0000
1000
0000
,
0100
0001
0100
1000
1010
0110
0101
0001
,
1000
0100
0001
0000
0100
0000
1010
0000
0110
0000
0101
0000
1100
0000
1002
0000
,
0000
0000
0000
0000
0000
0000
0000
0000
0000
0000
0000
0000
1003
0100
0001
0100
1000
0000
0000
0000
0011
0000
0000
0000
0110
0000
0000
0000
1100
0000
0000
0000
,
1000
0000
1010
0000
0110
0000
0101
0000
0001
0000
1000
0100
0001
0000
0100
0000
,
0110
0110
1000
0010
0001
0010
1000
0011
,
0110
0000
1100
0000
1000
0000
0001
0010
1000
0000
0010
0000
1010
0000
0011
0000
,
0101
0000
0000
0000
1100
0000
0000
0000
1002
0000
0000
0000
0000
0000
0000
0000
0000
0000
0000
0000
0000
0000
0000
0000
1003
0010
0001
0010
0100
0000
0000
0000
,
0110
0010
0110
0100
0110
0010
0110
1000
,
1001
0000
0001
0000
1001
0000
1000
0000
1001
0000
0001
0000
1001
0000
1000
0100
,
1000
0010
0001
0010
1000
0100
1000
0010
0001
0010
1000
0100
1000
0010
0001
0010
,
1000
0000
0100
0000
1000
0000
0010
0000
0001
0000
0010
0000
2000
0000
0000
0000
3001
0010
1000
0010
0001
0000
0010
0000
0001
0000
0100
0000
0001
0000
0010
0000
,
0002
0000
0000
0000
0000
1003
0100
1000
,
0010
0000
1000
0100
1000
0010
1000
0100
2000
0000
0000
0000
0000
0000
0000
0000
,
0000
0000
3001
0000
0010
0000
0001
0000
0100
0000
0001
0010
0001
0100
0001
0010
,
0002
0000
0000
0000
0000
1003
0100
1000
,
0010
0000
1000
0100
1000
0010
1000
0100
2000
0000
0000
0000
0000
0000
0000
0000
,
0000
0000
3001
0000
0010
0000
0001
0000
0100
0000
0022
0033
0000
0000
2200
3300
,
0000
0000
2020
3030
0000
0000
0022
0033
0000
0000
2200
3300
0000
0000
0202
0303
,
0000
0000
0022
0033
0000
0000
2020
3030
0000
0000
2020
3030
0000
0000
0022
0033
,
0000
0000
2200
3300
0000
0000
0202
0303
0000
0000
2020
3030
0000
0000
0022
0033
,
0000
0000
0202
0303
0000
0000
2020
3030
0000
0000
2200
3300
0000
0000
0022
0033
,
0000
0000
0202
0303
0000
0000
2020
3030
0000
0000
1100
0000
0110
0000
0011
0000
,
0110
0101
0110
1010
1000
2001
0000
0000
,
0000
0000
0000
0000
3010
0000
0000
0000
0000
0000
0000
0000
0110
0000
0000
0000
0000
0000
0000
0000
1000
0100
0010
0001
1000
0000
0000
0000
0000
0000
0000
0000
,
1100
0100
0101
0100
,
1100
0000
1000
0010
0001
0010
1000
0000
,
1000
0000
1100
0000
0100
0001
0100
0000
,
0110
0000
0100
1000
0100
0001
0100
0000
,
0100
1100
1000
1001
,
0001
0000
0001
0100
1000
0100
0001
0000
,
0001
0000
0011
0000
0010
0001
1000
0100
,
0010
1000
0010
0100
1000
0001
0100
0000
,
0101
0001
0011
0001
,
1001
0000
1000
0100
0001
0100
1000
0000
,
1000
0000
1010
0000
0010
0001
0010
0000
,
0110
0000
0100
0001
0100
1000
0100
0000
,
0101
0001
1001
1000
,
1100
0000
0100
0000
0110
0000
0010
0001
,
0010
1000
0010
0001
0100
1000
0100
0001
,
0100
1000
0100
0001
0010
0100
1000
0000
,
1001
0001
0011
0010
,
0110
0000
0100
0001
0100
1000
0100
0000
,
0100
0000
0110
0000
0010
0001
0010
0000
,
0011
0000
0001
0100
1000
0100
0001
0000
,
1001
1000
1010
0010
,
0110
0000
0100
0001
0100
1000
0100
0000
,
0100
0000
0110
0000
0010
1000
0010
0100
,
0001
0010
1000
0010
0001
0100
0010
0000
,
0110
0100
0101
0001
,
1001
0000
1000
0100
0001
0100
1000
0000
,
1000
0000
1010
0000
0010
0001
0010
0000
,
1010
0000
1000
0100
0001
0100
1000
0100
,
0010
0001
0010
0000
0011
0000
0010
0001
,
0100
0010
1000
0000
1010
0000
1000
0100
,
0001
0100
1000
0010
0001
0010
1000
0100
,
0001
0100
1000
0010
0001
0010
1000
0100
,
1000
0010
0001
0010
1000
0100
1000
0010
,
0001
0010
1000
0100
1000
0010
0100
0000
,
0110
0000
0110
0000
0100
0001
0100
0000
,
0110
0000
0010
1000
0010
0100
0001
0010
,
0001
0100
1000
0100
0001
0010
0001
0100
,
1000
0100
0001
0010
0001
0100
0010
0000
,
0110
0000
0110
0000
0010
1000
0100
0001
,
0100
1000
0100
0001
0100
1000
0001
0100
,
0001
0010
1000
0010
0001
0100
0001
0010
,
1000
0010
0001
0100
0010
1000
0100
0001
,
0100
1000
0010
0001
0010
1000
0100
0001
,
0100
1000
0010
0001
0010
1000
0001
0010
,
1000
0010
0001
0100
1000
0100
0010
1000
,
0100
0001
0100
1000
0010
0100
0001
0010
,
1000
0010
0100
1000
0010
0001
0010
1000
,
0100
0001
0100
1000
0100
0010
2002
0000
,
0000
0000
0000
3003
;
