#TITLE:Destroyer;
#SUBTITLE:;
#ARTIST:Damox;
#TITLETRANSLIT:;
#SUBTITLETRANSLIT:;
#ARTISTTRANSLIT:;
#GENRE:;
#CREDIT:;
#BANNER:Destroyer.png;
#BACKGROUND:Destroyer-bg.png;
#LYRICSPATH:;
#CDTITLE:;
#MUSIC:Destroyer.ogg;
#OFFSET:-0.000000;
#SAMPLESTART:2.400002;
#SAMPLELENGTH:14.999985;
#SELECTABLE:YES;
#DISPLAYBPM:100.000000:800.000000;
#BPMS:0.000000=100.000000
,35.000000=400.000000
,161.000000=100.000000
,177.000000=400.000000
,301.000000=800.000000
,309.000000=200.000000
,369.000000=100.000000
,371.000000=400.000000
,478.000000=800.000000
,500.000000=100.000000
;
#STOPS:35.000000=0.450000,
96.000000=0.450000,
427.000000=0.100000,
427.666656=0.100000,
428.333344=0.100000,
429.000000=0.100000,
429.666656=0.100000,
430.333344=0.100000,
480.000000=0.150000,
484.000000=0.150000,
488.000000=0.150000,
490.000000=0.150000,
492.000000=0.150000,
494.000000=0.150000
;
#BGCHANGES:;
#KEYSOUNDS:;
#ATTACKS:;

//---------------dance-single - ----------------
#NOTES:
     dance-single:
     :
     Hard:
     17:
     0.979924,2.005210,0.763138,0.342096,0.346482,782.000000,695.000000,87.000000,39.000000,0.000000,0.000000,0.979924,2.005210,0.763138,0.342096,0.346482,782.000000,695.000000,87.000000,39.000000,0.000000,0.000000:
// measure 0
0000
0000
0000
0000
,  // measure 1
1000
0000
0001
0010
0100
0000
1100
0000
0011
0000
0001
1000
0010
0100
0001
0000
,  // measure 2
1000
0000
0001
0100
0010
0000
1010
0000
0101
0000
1000
0010
0100
0001
1000
0000
,  // measure 3
0001
0000
0100
0010
1000
0000
0101
0000
1010
0000
1000
0010
0100
0001
1000
0000
,  // measure 4
0001
0000
0010
0100
1000
0000
0011
0000
1100
0000
0001
0100
0010
1000
0001
0000
,  // measure 5
1000
0010
1000
0000
0001
0000
0100
0000
0010
0000
0000
0000
1010
0000
0000
0000
0101
0000
0000
0000
0001
0000
0100
0000
0010
0000
1000
0000
0001
0000
0000
0000
,  // measure 6
1000
0100
1000
0000
0001
0000
0010
0000
0100
0000
0000
0000
1100
0000
0000
0000
0011
0000
0000
0000
1000
0000
0010
0000
0100
0000
0001
0000
1000
0000
0000
0000
,  // measure 7
0001
0100
0001
0000
1000
0000
0010
0000
0100
0000
0000
0000
0101
0000
0000
0000
1010
0000
0000
0000
1000
0000
0100
0000
0010
0000
0001
0000
1000
0000
0000
0000
,  // measure 8
0001
0010
0001
0000
0010
0000
0100
0000
1000
0000
0000
0000
1010
0000
0000
0000
0101
0000
0000
0000
1000
0000
0100
0000
1001
0000
0000
0000
0000
0000
0000
0000
,  // measure 9
1000
0100
1000
0000
0001
0000
0100
0000
,  // measure 10
0010
0100
0001
0010
,  // measure 11
0100
1000
0100
0000
1000
0000
0010
0000
,  // measure 12
0100
0001
0010
0100
,  // measure 13
1000
0100
1000
0000
0001
0010
0001
0000
,  // measure 14
0100
0010
1000
0001
,  // measure 15
1000
0010
1000
0000
0001
0100
0001
0000
,  // measure 16
0100
0010
1000
0100
,  // measure 17
1000
0010
1000
0000
0001
0000
0100
0000
,  // measure 18
0010
1000
0100
0010
,  // measure 19
0001
0100
0001
0000
0100
0000
0010
0000
,  // measure 20
1000
0001
0100
0001
,  // measure 21
1000
0010
1000
0000
0001
0100
0001
0000
,  // measure 22
0010
0100
0010
0001
,  // measure 23
1000
0100
1000
0000
0001
0010
0001
0000
,  // measure 24
2000
3000
0000
0000
0001
0000
0010
0000
0001
0000
0000
0000
0010
0000
0000
0000
,  // measure 25
0100
0010
0001
1000
,  // measure 26
0100
0000
0010
0001
0010
0000
0001
0000
,  // measure 27
0100
0010
1000
0100
,  // measure 28
0010
0000
0001
0100
0010
0000
1000
0010
,  // measure 29
0100
0001
0010
0100
,  // measure 30
1000
0000
0001
0010
0100
0000
1000
0100
,  // measure 31
0010
0001
0010
0100
,  // measure 32
1000
0000
0001
0010
0001
0000
0100
0000
,  // measure 33
0010
1000
0100
0010
,  // measure 34
0001
0000
0100
0010
0100
0000
0001
0000
,  // measure 35
0010
0100
1000
0100
,  // measure 36
1000
2200
3300
0011
,  // measure 37
2002
3003
1100
0022
,  // measure 38
0033
2020
3030
0022
,  // measure 39
0033
2200
3300
0202
,  // measure 40
0303
0000
0000
0000
1000
0000
0001
0010
0100
0000
1100
0000
0011
0000
0001
1000
,  // measure 41
0100
0000
0010
0000
0001
0000
0000
0000
1000
0010
0100
0000
0001
0000
0010
0000
0100
0000
0000
0000
0011
0000
0000
0000
1100
0000
0000
0000
0010
0000
0001
0000
,  // measure 42
0100
0000
0010
0000
1000
0000
0000
0000
0001
0100
0010
0000
1000
0000
0001
0000
0100
0000
0000
0000
0101
0000
0000
0000
1010
0000
0000
0000
0001
0000
1000
0000
,  // measure 43
0010
0000
0100
0000
0001
0000
0000
0000
1000
0100
1000
0000
0010
0000
0100
0000
0001
0010
0001
0000
0100
0000
0010
0000
1000
0100
1000
0000
0010
0000
0100
0000
,  // measure 44
0001
0000
0000
0000
0000
0000
0010
0000
0000
0000
0000
0000
0001
0000
0000
0000
0000
0000
0000
0000
0000
0000
0000
0000
0010
0000
0000
0000
0000
0000
0000
0000
0000
0000
0000
0000
0100
0000
0000
0000
0000
0000
0000
0000
0000
0000
0000
0000
1000
0000
0000
0000
0000
0000
0000
0000
0000
0000
0000
0000
0000
0000
0000
0000
0000
0000
0000
0000
0000
0000
0000
0000
0000
0000
0000
0000
0000
0000
0000
0000
0000
0000
0000
0000
0000
0000
0000
0000
0000
0000
0000
0000
0000
0000
0000
0000
0000
0000
0000
0000
0000
0000
0000
0000
0000
0000
0000
0000
0000
0000
0000
0000
0100
0000
0000
0000
0000
0000
0000
0000
0000
0000
0000
0000
0000
0000
0000
0000
0000
0000
0000
0000
0000
0000
0000
0000
0000
0000
0000
0000
0000
0000
0000
0000
0000
0000
0000
0000
0000
0000
0000
0000
0000
0000
0000
0000
0000
0000
0000
0000
0000
0000
0000
0000
0000
0000
0000
0000
0000
0000
0000
0000
0000
0000
0000
0000
0110
0000
0000
0000
0000
0000
0000
0000
0000
0000
0000
0000
0000
0000
0000
0000
,  // measure 45
0000
0000
0000
0001
0000
0000
0000
0100
0000
0000
0000
0110
,  // measure 46
0000
0000
0000
1000
0000
0000
0000
0010
0000
0000
0000
0110
,  // measure 47
0000
0000
0000
0001
0000
0000
0000
0010
0000
0000
0000
0110
,  // measure 48
0000
0000
1000
0010
0100
0000
0001
0000
,  // measure 49
1000
0000
0001
0100
0010
0000
1000
0000
,  // measure 50
0001
0000
1000
0010
0100
0000
0001
0000
,  // measure 51
1000
0000
0001
0010
0100
1000
0001
0010
,  // measure 52
0100
0000
0000
1000
0000
0000
0001
0000
0000
0000
0000
0000
0000
0000
0100
0000
0000
0000
0000
0000
0000
0000
1010
0000
,  // measure 53
0000
0000
0000
1000
0000
0000
0000
0100
0000
0000
0000
0011
,  // measure 54
0000
0000
0000
0001
0000
0000
0000
0010
0000
0000
0000
1100
,  // measure 55
0000
0000
0000
1000
0000
0000
0000
0010
0000
0000
0000
0101
,  // measure 56
0000
0000
0001
0100
0010
0000
1000
0000
,  // measure 57
0001
0000
1000
0010
0100
0000
0001
0000
,  // measure 58
1000
0000
0001
0100
0010
0000
1000
0000
,  // measure 59
0001
0000
1000
0010
0100
0001
1000
0010
,  // measure 60
0100
0001
1000
0000
0010
0000
0100
0000
,  // measure 61
0001
0010
0100
1000
,  // measure 62
0001
1000
0100
0010
,  // measure 63
0001
1000
0010
1000
,  // measure 64
0001
0000
1000
0100
0010
0001
1000
0000
,  // measure 65
0001
0000
1000
0010
1000
0000
0001
0100
,  // measure 66
0001
0000
1000
0010
0100
0001
1000
0000
,  // measure 67
0001
0000
1000
0100
1000
0000
0001
0010
,  // measure 68
0001
1000
0001
0011
,  // measure 69
0001
1000
0100
1100
,  // measure 70
0001
1000
0010
1010
,  // measure 71
0001
0100
0001
0011
,  // measure 72
1000
0000
0001
0010
0100
1000
0001
0000
,  // measure 73
1000
0000
0001
0100
0001
0000
1000
0010
,  // measure 74
1000
0000
0001
0010
0100
1000
0001
0000
,  // measure 75
1000
2002
0000
0000
,  // measure 76
0000
0000
0000
0000
,  // measure 77
3003
0000
1000
0010
0100
0001
0010
0000
,  // measure 78
1100
0000
0011
0000
0001
0100
1000
0100
,  // measure 79
0001
0000
0000
0000
1000
0100
1000
0000
0001
0000
0010
0000
0100
0000
0000
0000
,  // measure 80
0011
0000
1100
0000
0001
0010
1000
0010
,  // measure 81
0001
0000
1000
0010
0100
0001
0010
0000
,  // measure 82
1100
0000
0011
0000
0001
0010
1000
0010
,  // measure 83
0001
0000
0000
0000
1000
0010
1000
0000
0001
0000
0100
0000
0010
0000
0000
0000
,  // measure 84
0101
0000
1010
0000
1000
0010
0001
0010
,  // measure 85
1000
0000
0001
0010
0100
0001
0100
0000
,  // measure 86
1100
0000
0011
0000
1000
0010
0001
0010
,  // measure 87
1000
0000
0000
0000
0001
0010
0001
0000
0010
0000
0001
0000
1000
0000
0000
0000
,  // measure 88
1010
0000
0101
0000
1000
0010
0001
0010
,  // measure 89
1000
0011
0011
0101
,  // measure 90
0101
1010
1010
1100
,  // measure 91
1100
1000
1001
0000
1010
0000
0101
0000
,  // measure 92
1001
0000
2000
3200
0320
0032
1003
0000
,  // measure 93
0100
0000
1000
0010
0100
0001
1000
0000
,  // measure 94
0100
1000
0001
0000
0100
0010
1000
0000
,  // measure 95
0010
1000
0001
0000
1000
0100
0010
0000
,  // measure 96
0001
1000
0100
0000
1000
0000
0001
0000
,  // measure 97
0010
0001
1000
1010
,  // measure 98
1000
0001
0010
0001
,  // measure 99
0010
1000
0010
0011
,  // measure 100
1000
0000
0010
0000
0100
0000
0001
1000
,  // measure 101
0010
0000
0100
0001
0010
0000
0100
1000
,  // measure 102
0001
0000
0100
0010
1000
0000
0001
0010
,  // measure 103
0100
1000
0001
0000
1000
0000
0001
0100
,  // measure 104
0010
1000
0001
0000
1000
0000
0001
0000
,  // measure 105
0100
1000
0100
0101
,  // measure 106
0010
0000
0000
0100
0000
0000
1000
0000
0000
0011
0000
1001
,  // measure 107
0000
0000
1100
0000
0000
0000
0110
0000
0000
0000
0011
0000
0000
0000
1001
0000
0000
0000
1000
0000
0000
0100
0000
0000
,  // measure 108
1000
0100
1000
0100
1000
0100
0010
0001
,  // measure 109
0010
0001
0010
0001
0010
0001
0010
0000
,  // measure 110
0001
0100
0010
1000
,  // measure 111
0100
0000
0010
0000
0001
0000
1000
0010
,  // measure 112
1000
0010
1000
0010
1000
0010
0100
0001
,  // measure 113
0100
0001
0100
0001
0100
0001
0100
0000
,  // measure 114
0001
0010
0100
1000
,  // measure 115
0100
0000
0010
0000
0001
0000
0100
0010
,  // measure 116
0100
0010
0100
0010
0100
0010
1000
0100
,  // measure 117
0010
0001
1000
0100
0010
0001
0100
0010
,  // measure 118
0100
0010
0100
0010
0100
0001
1000
0100
,  // measure 119
0010
0001
1000
0100
0010
0000
0000
0000
,  // measure 120
0022
0033
0000
0000
2002
3003
0000
0000
,  // measure 121
2200
3300
0000
0000
2002
3003
0000
0000
,  // measure 122
0022
0033
0000
0000
2020
3030
0000
0000
,  // measure 123
0022
0033
0000
0000
2002
3003
0000
0000
,  // measure 124
1000
0001
1000
0001
,  // measure 125
2002
0000
0000
0000
,  // measure 126
0000
0000
0000
0000
,  // measure 127
3003
0000
0000
0000
;

//---------------dance-single - ----------------
#NOTES:
     dance-single:
     :
     Challenge:
     19:
     1.110247,2.729314,0.728051,0.482443,0.605247,886.000000,803.000000,83.000000,55.000000,0.000000,0.000000,1.110247,2.729314,0.728051,0.482443,0.605247,886.000000,803.000000,83.000000,55.000000,0.000000,0.000000:
// measure 0
0000
0000
0000
0000
,  // measure 1
1000
0000
0001
0100
1010
0000
0101
0000
0001
0000
1000
0010
0100
0001
0010
0000
,  // measure 2
0001
0100
0001
0000
0010
0000
1000
0000
0010
0000
0000
0000
0011
0000
0000
0000
1100
0000
0000
0000
0001
0000
0100
0000
0010
0000
1000
0000
0001
0000
0000
0000
,  // measure 3
1000
0000
0001
1000
1100
0000
0011
0000
1000
0000
0001
0100
0010
1000
0001
0000
,  // measure 4
1000
0010
1000
0000
0001
0000
0010
0000
1000
0000
0000
0000
0011
0000
0000
0000
1100
0000
0000
0000
0001
0000
0100
0000
0010
0000
1000
0000
0001
0000
0000
0000
,  // measure 5
1000
0010
1000
0000
0001
0000
0100
0000
1010
0000
0000
0000
0101
0000
0000
0000
0001
0000
0000
0000
1000
0000
0100
0000
0010
0000
0001
0000
1000
0000
0000
0000
,  // measure 6
0001
0000
0000
0000
1000
0100
0010
0001
1000
0000
0000
0100
0000
0000
0010
0000
0000
0001
0000
0000
0100
0000
0000
0010
0000
0000
1000
0000
0000
0001
0000
0000
,  // measure 7
1000
0010
1000
0000
0001
0000
0010
0000
0011
0000
0000
0000
1100
0000
0000
0000
0001
0000
0000
0000
1000
0000
0010
0000
0100
0000
0001
0000
1000
0000
0000
0000
,  // measure 8
0001
0000
0000
0000
0100
0001
0010
0100
1000
0000
0000
0001
0000
0000
0100
0000
0000
0010
0000
0000
1000
0000
0000
0002
0000
0000
0003
0000
0000
0000
0000
0000
,  // measure 9
1000
0001
0100
0000
0001
0000
1000
0000
,  // measure 10
1010
0000
0001
0000
0010
0100
1000
0010
,  // measure 11
0100
0000
0010
0000
0100
0001
0010
0100
,  // measure 12
1000
0010
1010
0001
,  // measure 13
1000
0100
0010
0001
0100
0010
1000
0000
,  // measure 14
0001
0100
1010
1000
,  // measure 15
0001
0100
0010
1000
0100
0010
0001
0000
,  // measure 16
0100
0010
1100
0001
,  // measure 17
1000
0001
0010
0000
0100
0000
0010
0000
,  // measure 18
0101
0000
0010
0000
1000
0100
0010
0001
,  // measure 19
0100
0000
0010
0000
0100
0010
1000
0100
,  // measure 20
0010
0001
1010
0010
,  // measure 21
1000
0010
0100
0001
0010
0100
1000
0000
,  // measure 22
0001
0100
0010
1000
,  // measure 23
0010
0100
0001
1000
0100
0010
0001
1000
,  // measure 24
0002
0003
0000
0000
1000
0000
0100
0000
0001
0000
0000
0000
0100
0000
0000
0000
,  // measure 25
0010
0000
1100
0000
0001
0000
1000
0010
,  // measure 26
0001
1000
0100
0000
0010
0000
1000
0100
,  // measure 27
0010
1000
0010
0000
0001
0000
1010
0000
,  // measure 28
1000
0000
0001
0000
0100
0000
0010
1000
,  // measure 29
0100
0001
0100
0000
1000
0001
0010
0000
,  // measure 30
0100
0001
0100
0000
0010
0001
1000
0000
,  // measure 31
0010
0001
0010
0000
1000
0010
0100
0000
,  // measure 32
0001
0100
1000
0100
0010
0000
1000
0000
,  // measure 33
0001
0000
0101
0000
0010
0000
0001
0010
,  // measure 34
1000
0100
0001
0000
0100
0000
0010
0001
,  // measure 35
0100
1000
0100
0000
1010
0000
0101
0000
,  // measure 36
1001
0022
0033
1001
,  // measure 37
2200
3300
0110
0022
,  // measure 38
0033
2020
3030
0022
,  // measure 39
0033
0202
0303
2200
,  // measure 40
3300
0000
0000
0000
1000
0000
0001
0100
1010
0000
0101
0000
0001
0000
1000
0010
,  // measure 41
0001
0000
0010
0000
1000
0000
0000
0000
0001
0010
0100
0000
0010
0000
0001
0000
1000
0010
0100
0000
0001
0010
0100
0000
1000
0010
0100
0000
0001
0000
1000
0000
,  // measure 42
0010
0100
0001
0000
0010
0100
1000
0000
0001
0010
0100
0000
0010
0000
0001
0000
1000
0010
0100
0000
0010
1000
0100
0000
0010
0001
0100
0000
0010
0000
1000
0000
,  // measure 43
0100
0010
0001
0000
1000
0010
0100
0000
0001
1000
0001
0000
0100
0010
0100
0000
0001
1000
0001
0000
0010
0100
0010
0000
0001
0100
0010
1000
0100
0000
0010
0000
,  // measure 44
0001
0000
0000
0000
0000
0000
0010
0000
0000
0000
0000
0000
0100
0000
0000
0000
0000
0000
1000
0000
0000
0000
0000
0000
0001
0000
0000
0000
0000
0000
0010
0000
0000
0000
0000
0000
0100
0000
0000
0000
0000
0000
1000
0000
0000
0000
0000
0000
0001
0000
0000
0000
0000
0000
0000
0000
0000
0000
0000
0000
0000
0000
0000
0000
0000
0000
0000
0000
0000
0000
0000
0000
0000
0000
0000
0000
0000
0000
0000
0000
0000
0000
0000
0000
0000
0000
0000
0000
0000
0000
0000
0000
0000
0000
0000
0000
0000
0000
0000
0000
0000
0000
0000
0000
0000
0000
0000
0000
0000
0000
0000
0000
0021
0000
0000
0000
0000
0000
0000
0000
0000
0000
0000
0000
0000
0000
0000
0000
0000
0000
0000
0000
0000
0000
0000
0000
0000
0000
0000
0000
0000
0000
0000
0000
0000
0000
0000
0000
0000
0000
0000
0000
0000
0000
0000
0000
0000
0000
0000
0000
0000
0000
0000
0000
0000
0000
0000
0000
0000
0000
0000
0000
0000
0000
0000
0000
1030
0000
0000
0000
0000
0000
0000
0000
0000
0000
0000
0000
0000
0000
0000
0000
,  // measure 45
0000
0000
0000
0010
0000
0000
0000
0201
0000
0000
0000
0310
,  // measure 46
0000
0000
0000
1000
0000
0000
0000
1200
0000
0000
0000
0301
,  // measure 47
0000
0000
0000
0100
0000
0000
0000
0021
0000
0000
0000
0130
,  // measure 48
0000
0000
1000
0010
0001
0010
0100
0000
,  // measure 49
0001
0000
1000
0100
0001
0100
0010
0000
,  // measure 50
0001
0000
1000
0010
0001
0010
0100
0000
,  // measure 51
0001
0000
1000
0001
1000
0010
0001
0010
,  // measure 52
0100
0000
0000
0001
0000
0000
1000
0000
0000
0000
0000
0000
0000
0000
1020
0000
0000
0000
0000
0000
0000
0000
0031
0000
,  // measure 53
0000
0000
0000
0010
0000
0000
0000
0201
0000
0000
0000
1300
,  // measure 54
0000
0000
0000
0100
0000
0000
0000
1020
0000
0000
0000
0130
,  // measure 55
0000
0000
0000
0001
0000
0000
0000
0021
0000
0000
0000
1030
,  // measure 56
0000
0000
0001
0100
1000
0100
0010
0000
,  // measure 57
1000
0000
0001
0010
1000
0010
0100
0000
,  // measure 58
1000
0000
0001
0100
1000
0100
0010
0000
,  // measure 59
1000
0000
0001
0010
1000
0010
0100
0010
,  // measure 60
0100
1000
0001
0000
1000
0000
1100
0000
,  // measure 61
0100
1000
0001
0000
0001
0000
0101
0000
,  // measure 62
0100
0001
1000
0000
1000
0000
1010
0000
,  // measure 63
1000
0001
0100
0000
0010
0000
0011
0000
,  // measure 64
0010
0001
1000
0010
0001
0010
1000
0000
,  // measure 65
0001
0000
0010
0001
1000
0000
0100
1000
,  // measure 66
0001
0000
1000
0010
0001
0010
1000
0000
,  // measure 67
0001
0000
0010
0100
1000
0000
0010
0100
,  // measure 68
0001
0100
0010
0000
1000
0000
0101
0000
,  // measure 69
0001
1000
0010
0000
0100
0000
1100
0000
,  // measure 70
0100
1000
0001
0000
0100
0000
0101
0000
,  // measure 71
0010
1000
0100
0000
0010
0000
0011
0000
,  // measure 72
0010
0001
1000
0100
0001
0100
1000
0000
,  // measure 73
0001
0000
1000
0100
0010
0000
0100
1000
,  // measure 74
0001
0000
1000
0100
0001
0100
1000
0000
,  // measure 75
0001
0100
0010
0100
,  // measure 76
0010
1000
0100
0010
,  // measure 77
0001
0000
1000
0010
0100
0001
1000
0000
,  // measure 78
1100
0000
0011
0000
0001
0010
1000
0010
,  // measure 79
0001
0000
0000
0000
1000
0010
0100
0001
1000
0000
0001
0000
1000
0100
1000
0000
,  // measure 80
0001
0010
0001
0000
1000
0010
0001
0010
1000
0000
0001
0000
0010
1000
0010
0000
,  // measure 81
0001
0100
1000
0100
0001
0000
1000
0000
0010
0000
0100
0000
0001
0000
0000
0000
,  // measure 82
0101
0000
1010
0000
1000
0010
0001
0010
,  // measure 83
1000
0000
0000
0000
0001
1000
0100
0010
0001
0000
1000
0000
0001
0010
0001
0000
,  // measure 84
1000
0100
1000
0000
0001
0010
1000
0010
0001
0000
1000
0000
0010
0001
0010
0000
,  // measure 85
1000
0100
0001
0100
1000
0000
0001
0000
0010
0000
0100
0000
1000
0000
0000
0000
,  // measure 86
0101
0000
1010
0000
0001
0100
1000
0100
,  // measure 87
0001
0000
0000
0000
1000
0010
0100
0001
0010
0000
0100
0000
1000
0100
1000
0000
,  // measure 88
0001
0010
0001
0000
1000
0100
0001
0100
1000
0000
0010
0000
1000
0010
0001
0000
,  // measure 89
0010
1000
0100
1000
1010
0000
0000
0000
1100
0000
0000
0000
0011
0000
0000
0000
,  // measure 90
0101
1100
0101
0011
,  // measure 91
1010
1000
1001
0000
1100
0000
0011
0000
,  // measure 92
1001
0000
2000
3020
0230
0302
1003
0001
,  // measure 93
0100
0000
0001
0010
1000
0000
0001
0100
,  // measure 94
1000
0000
0100
0010
1000
0000
0100
1000
,  // measure 95
0001
0100
1000
0000
0100
0000
0010
1000
,  // measure 96
0001
0010
1000
0000
0010
0000
0001
0000
,  // measure 97
1000
0100
0010
1200
,  // measure 98
0001
0010
1300
0001
,  // measure 99
0010
0100
1000
0021
,  // measure 100
1000
0000
0100
0000
0031
0000
1000
0010
,  // measure 101
0100
0000
0001
0010
1000
0000
0010
0001
,  // measure 102
0100
0000
1000
0100
0001
0000
0010
0001
,  // measure 103
0100
1000
0100
0000
0010
0000
1000
0100
,  // measure 104
0001
0100
0010
0000
0001
0000
1200
0000
,  // measure 105
0001
0010
1000
0010
,  // measure 106
0001
0000
0000
0010
0000
0000
1300
0000
0000
0002
0000
0023
,  // measure 107
0000
0000
2030
0000
0000
0000
3200
0000
0000
0000
0302
0000
0000
0000
0023
0000
0000
0000
0031
0000
0000
0100
0000
0000
,  // measure 108
0001
1000
0100
1000
0001
0100
0010
0100
,  // measure 109
0001
0010
0100
1000
0010
0100
0001
0000
,  // measure 110
1000
0100
0010
0011
,  // measure 111
0100
0000
1000
0000
0100
0000
0001
0010
,  // measure 112
0001
0100
0010
1000
0001
0100
0010
1000
,  // measure 113
0100
0010
0100
1000
0010
0100
0001
0000
,  // measure 114
1000
0001
0100
1100
,  // measure 115
0100
0000
0001
0000
0010
0000
0001
0100
,  // measure 116
1000
0100
0001
0010
0001
0100
0010
0001
,  // measure 117
0010
1000
0100
1000
0010
0100
0001
0010
,  // measure 118
1000
0010
0001
0100
0010
1000
0001
0100
,  // measure 119
1000
0100
0001
1000
0010
0000
0000
0000
,  // measure 120
0202
0303
2002
3003
,  // measure 121
2020
3030
2002
3003
,  // measure 122
0202
0303
2200
3300
,  // measure 123
0202
0303
2002
3003
,  // measure 124
0001
0010
1000
0010
,  // measure 125
2002
0000
0000
0000
,  // measure 126
0000
0000
0000
0000
,  // measure 127
3003
0000
0000
0000
;

//---------------dance-single - ----------------
#NOTES:
     dance-single:
     :
     Medium:
     15:
     0.805743,1.503908,0.456128,0.324553,0.254379,643.000000,591.000000,52.000000,37.000000,0.000000,0.000000,0.805743,1.503908,0.456128,0.324553,0.254379,643.000000,591.000000,52.000000,37.000000,0.000000,0.000000:
0000
0000
0000
0000
,
1000
0000
0010
0100
0001
0000
0010
0000
1100
0000
1000
0010
0100
0001
0010
0000
,
0001
0000
1000
0010
0100
0000
0001
0000
1010
0000
1000
0010
0100
0001
1000
0000
,
0001
0000
0010
0100
1000
0000
0100
0000
0011
0000
0001
0100
0010
1000
0001
0000
,
1000
0000
0010
0100
0001
0000
1000
0000
1010
0000
0001
0010
0100
1000
0001
0000
,
1000
0000
0010
0100
0001
0000
0010
0000
1100
0000
1000
0010
0100
0001
1000
0000
,
0001
0000
0010
0100
1000
0000
0001
0000
0101
0000
0001
1000
0010
0100
0001
0000
,
1000
0000
0100
0010
0001
0000
1000
0000
0101
0000
1000
0010
0100
0001
1000
0000
,
0001
0000
0100
0010
1000
0000
0001
0000
0101
0000
0001
1000
0001
0000
0000
0000
,
1000
0010
0100
0001
,
0010
0000
0010
0001
,
0100
0010
1000
0100
,
1000
0000
1000
0010
,
1000
0100
1000
0000
0010
0000
0100
0000
,
0001
0000
0001
0010
,
0001
0100
0001
0000
0100
0000
0010
0000
,
1000
0000
1000
0001
,
1000
0100
0010
0001
,
0100
0000
0100
0010
,
1000
0100
0010
0001
,
0010
0000
0010
0001
,
1000
0100
1000
0000
0010
0000
0100
0000
,
0001
0000
0001
0010
,
0100
1000
0100
0000
1000
0000
0001
0000
,
1000
0001
0100
0010
,
1000
0100
0000
0100
,
1000
0010
0100
0001
,
1000
0100
0000
0100
,
1000
0000
0001
0100
0001
0000
0010
0000
,
0100
1000
0000
1000
,
0010
0000
1000
0100
1000
0000
0010
0000
,
0100
0001
0000
0001
,
1000
0001
0100
0001
,
0010
0100
0000
0100
,
1000
0010
0100
0001
,
0010
0100
0000
0100
,
1000
2200
3300
1000
,
2002
3003
0001
0022
,
0033
0202
0303
2002
,
3003
2020
3030
2002
,
3003
0000
0000
0000
1000
0000
0010
1000
0100
0000
0010
0000
0011
0000
0001
0100
,
0010
1000
0100
0000
0010
0000
0001
1000
0100
0000
0010
0000
1100
0000
0010
1000
,
0001
0100
0010
0000
1000
0000
0001
0010
0100
0000
0010
0000
1100
0000
0100
1000
,
0010
0100
0001
0000
1000
0010
0100
0000
0001
0100
0010
0000
1000
0100
0010
0001
,
1000
0000
0000
0100
0000
0000
0010
0000
0000
0001
0000
0000
1000
0000
0000
0000
0000
0000
0000
0000
0000
0000
0000
0000
0000
0000
0000
0000
0100
0000
0000
0000
0000
0000
0000
0000
0000
0000
0000
0000
0000
0000
0000
0000
0100
0000
0000
0000
,
0000
0000
0000
0001
0000
0000
0000
1000
0000
0000
0000
1000
,
0000
0000
0000
0010
0000
0000
0000
0001
0000
0000
0000
0001
,
0000
0000
0000
0100
0000
0000
0000
0010
0000
0000
0000
0010
,
0000
0000
1000
0010
1000
0000
0010
0000
,
0100
0000
0001
0010
0001
0000
0100
0000
,
0010
0000
1000
0001
0100
0000
0010
0000
,
1000
0000
0001
0010
0001
0000
1000
0100
,
1000
0000
0000
0001
0000
0000
0000
0010
0000
0000
0000
0010
,
0000
0000
0000
1000
0000
0000
0000
0001
0000
0000
0000
0001
,
0000
0000
0000
0100
0000
0000
0000
1000
0000
0000
0000
1000
,
0000
0000
0000
0010
0000
0000
0000
0100
0000
0000
0000
0100
,
0000
0000
0001
0010
0001
0000
0100
0000
,
0010
0000
1000
0100
1000
0000
0010
0000
,
0100
0000
0001
1000
0010
0000
0100
0000
,
0001
0000
1000
0010
1000
0000
0001
0100
,
0001
1000
0010
1000
,
0001
0010
0000
0010
,
0001
0100
0010
1000
,
0100
0010
0000
0010
,
0001
0000
1000
0100
1000
0000
0001
0000
,
0100
0010
1000
0100
,
1000
0000
0001
0010
0001
0000
0100
0000
,
0001
0010
0100
1000
,
1000
0001
0100
0010
,
1000
0100
0000
0100
,
1000
0010
0100
0001
,
0010
0100
0000
0100
,
0010
0000
0001
0100
0001
0000
1000
0000
,
0010
0100
0001
0010
,
0001
0000
1000
0010
1000
0000
0100
0000
,
0010
2002
0000
0000
,
0000
0000
0000
0000
,
3003
0000
1000
0001
0010
0100
1000
0000
,
1010
0000
0101
0000
0001
0010
1000
0010
,
0001
0000
1000
0010
0001
0010
0100
0000
,
0001
0000
0011
0000
0001
0010
1000
0010
,
0001
0000
1000
0010
0100
0001
0010
0000
,
1100
0000
0011
0000
0001
0010
1000
0010
,
0001
0000
1000
0100
0001
0100
0010
0000
,
0011
0000
1100
0000
1000
0010
0001
0010
,
1000
0000
0001
0010
0100
1000
0010
0000
,
0101
0000
1010
0000
1000
0010
0001
0010
,
1000
0000
0001
0100
1000
0100
0010
0000
,
1010
0000
0101
0000
0001
0010
1000
0010
,
0001
1001
1001
1100
,
1100
0110
0110
0011
,
0011
0001
1001
0000
1010
0000
0101
0000
,
1001
0002
0000
1003
,
0010
0001
0010
0100
,
0001
0010
0100
1000
,
0010
0100
0001
0010
,
0100
0010
0001
1000
,
0100
0001
0100
0010
,
0001
0100
0010
1000
,
0100
0010
0001
0100
,
0010
1000
0001
1000
,
0010
0100
1000
0100
,
0010
1000
0100
0010
,
0001
0100
0010
1000
,
0100
0010
0001
0010
,
0100
0001
0100
0010
,
0001
0000
0000
0100
0000
0000
0010
0000
0000
1000
0000
0001
,
0000
0000
1000
0000
0000
0000
0100
0000
0000
0000
0010
0000
0000
0000
0001
0000
0000
0000
1000
0000
0000
0100
0000
0000
,
1000
0000
0100
1000
0100
0000
1000
0100
,
1000
0000
0100
1000
0100
0000
1000
0000
,
0010
0100
0001
1000
,
0100
0000
0010
0000
0001
0000
0100
0001
,
0100
0000
0001
0100
0001
0000
0100
0001
,
0100
0000
0001
0100
0001
0000
0100
0000
,
0001
0010
0100
1000
,
0010
0000
0100
0000
0001
0000
1000
0010
,
1000
0000
0010
0000
0100
0000
0001
0010
,
0001
0000
0100
0000
0010
0000
1000
0100
,
1000
0000
0001
1000
0001
0000
0100
0001
,
0100
0000
0001
1000
0001
0000
0000
0000
,
2200
3300
0000
0000
2002
3003
0000
0000
,
0022
0033
0000
0000
2002
3003
0000
0000
,
2200
3300
0000
0000
2002
3003
0000
0000
,
2020
3030
0000
0000
0202
0303
0000
0000
,
0220
0000
0330
0000
,
2002
0000
0000
0000
,
0000
0000
0000
0000
,
3003
0000
0000
0000
;

//---------------dance-single - ----------------
#NOTES:
     dance-single:
     :
     Easy:
     12:
     0.542592,0.891205,0.192977,0.298238,0.000000,433.000000,411.000000,22.000000,34.000000,0.000000,0.000000,0.542592,0.891205,0.192977,0.298238,0.000000,433.000000,411.000000,22.000000,34.000000,0.000000,0.000000:
0000
0000
0000
0000
,
1000
0001
0010
0001
0100
0001
0010
0000
,
0001
1000
0010
0100
0010
1000
0100
0000
,
0010
0001
0100
0001
0010
0001
0100
0000
,
0010
1000
0100
1000
0010
1000
0100
0000
,
0010
0001
0100
1000
0100
0010
1000
0000
,
0100
0010
1000
0010
0100
0010
0001
0000
,
0100
1000
0100
0010
0100
0001
0010
0000
,
0100
0001
0100
1000
0010
0100
0001
0000
,
1000
0100
1000
0000
,
0001
0100
0001
0000
,
0100
0010
0100
0000
,
0010
1000
0010
0000
,
1000
0100
0010
0001
,
0100
0000
0010
0000
,
1000
0001
0010
0100
,
0010
0000
0001
0000
,
0100
0010
0100
0000
,
0010
1000
0100
0000
,
0010
0001
0100
0000
,
0001
0010
0100
0000
,
0010
0001
0100
0010
,
1000
0000
0100
0000
,
0010
0001
0100
0000
,
0001
1000
0001
0010
,
0000
0100
0010
0001
,
0000
0100
0010
1000
,
0000
0010
1000
0100
,
0000
1000
0100
0001
,
0100
1000
0000
0010
,
0000
1000
0010
0001
,
0010
1000
0000
0100
,
0000
0010
0001
0100
,
0000
0010
1000
0001
,
0000
0010
0001
0100
,
0010
1000
0000
0100
,
0000
0020
0000
0031
,
0200
0000
0310
2000
,
0000
3200
0000
2300
,
0000
3020
0000
0230
,
0000
0000
0301
0100
0001
0010
1000
0010
,
0100
0000
1000
0010
0100
0010
0001
0010
,
0100
0000
0010
1000
0100
0001
0100
0010
,
0001
0000
0100
1000
0100
0001
0100
1000
,
0100
0020
0000
2030
,
0000
3200
0000
0302
,
0000
0203
0000
2300
,
0000
3020
0000
0230
,
0000
0301
0100
0001
,
0000
0100
0010
0100
,
0000
0010
1000
0010
,
0000
1000
0001
1000
,
0000
0020
0000
2030
,
0000
3200
0000
0302
,
0000
0203
0000
0320
,
0000
0032
0000
0203
,
0000
0310
1000
0010
,
0000
0100
0010
0100
,
0000
0001
0010
0001
,
0000
0010
0100
0010
,
0000
0001
0000
1000
,
0100
0010
0000
0100
,
0000
1000
0000
0010
,
0100
0010
0000
1000
,
0000
0001
0010
0001
,
0000
0100
0001
0100
,
0000
0010
1000
0010
,
0000
0100
0010
0100
,
0000
0001
0000
1000
,
0001
0010
0000
0100
,
0000
0010
0000
0001
,
0100
0001
0000
0100
,
0000
0010
1000
0010
,
0000
0100
0001
0100
,
0000
0010
0100
0010
,
0000
1002
0000
0000
,
0000
0000
0000
0000
,
0000
0000
1003
0000
0001
0100
0010
0000
,
1000
0100
0010
1001
,
0000
0000
0100
0000
0001
1000
0100
0000
,
0010
0001
0010
0110
,
0000
0000
0010
0000
0001
1000
0010
0000
,
0100
0010
1000
1001
,
0000
0000
0100
0000
1000
0010
0100
0000
,
0001
0010
0100
0110
,
0000
0000
0010
0001
0100
0000
0010
0000
,
1000
0000
0001
0010
0100
0000
0110
0000
,
0000
0000
0100
1000
0010
0000
0100
0000
,
0010
0000
1000
0001
0010
0000
0110
0000
,
0000
1001
1000
1001
,
0001
1001
1000
1001
,
0011
0001
0011
0000
0001
0000
1100
0000
,
1000
0002
0000
1003
,
0010
0100
0000
0001
,
1000
0100
0000
0010
,
0001
0100
0000
0010
,
0000
1001
0000
1000
,
0100
0001
0100
0010
,
0000
0001
0000
0100
,
1000
0100
0010
1000
,
0000
0001
0000
0010
,
0001
0100
0000
0010
,
1000
0100
0000
0010
,
0001
0100
0000
0010
,
0000
0110
0000
0010
,
1000
0100
0010
0001
,
0100
0010
0000
2000
,
0000
3002
0000
1003
,
0100
1000
0010
1000
,
0100
1000
0010
1000
,
0000
0001
0000
0011
,
0000
1001
0000
0001
,
0100
0001
0010
0001
,
0100
0001
0010
0001
,
0000
0100
0000
0010
,
0000
0110
0000
0010
,
1000
0100
0001
0100
,
0010
0001
0100
1000
,
0100
0010
1000
0100
,
0010
0001
0000
0000
,
2100
0000
0000
0000
,
3002
0000
0000
0000
,
0013
0000
1002
0000
,
0203
0000
0320
0000
,
1030
0000
0000
0000
,
2002
0000
0000
0000
,
0000
0000
0000
0000
,
3003
0000
0000
0000
;

//---------------dance-single - ----------------
#NOTES:
     dance-single:
     :
     Beginner:
     8:
     0.359640,0.835504,0.140347,0.184206,0.000000,287.000000,271.000000,16.000000,21.000000,0.000000,0.000000,0.359640,0.835504,0.140347,0.184206,0.000000,287.000000,271.000000,16.000000,21.000000,0.000000,0.000000:
0000
0000
0000
0000
,
1000
0001
1000
0000
,
0010
0100
0010
0000
,
1000
0001
1000
0000
,
0010
0100
0010
0000
,
1000
0100
1000
0000
0010
0000
0100
0000
,
0001
0010
0001
0000
0010
0000
0100
0000
,
1000
0010
1000
0000
0010
0000
0100
0000
,
0001
0010
0001
0000
0100
0000
0000
0000
,
0001
0000
0100
0000
,
0010
0000
1000
0000
,
0100
0000
1000
0000
,
0010
0000
0100
0000
,
0010
0000
1000
0000
,
0100
0000
0010
0000
,
0001
0000
0100
0000
,
0110
0000
0000
0000
,
0010
0000
1000
0000
,
0100
0000
1000
0000
,
0010
0000
0100
0000
,
0001
0000
0010
0000
,
0100
0000
0010
0000
,
0001
0000
0100
0000
,
0010
0000
0100
0000
,
0110
1000
0000
0001
,
0000
0010
0000
0100
,
0000
0010
0000
0001
,
0000
0010
0000
0100
,
0000
1000
0000
0010
,
0000
0001
0000
0010
,
0000
1000
0000
0100
,
0000
0110
0000
0000
,
0000
0010
0000
0001
,
0000
0010
0000
1000
,
0000
0010
0000
0100
,
0000
1000
0000
0001
,
0000
2000
0000
0000
,
3020
0000
0000
0230
,
0000
0302
0000
0023
,
0000
0230
0000
2300
,
0000
0000
3001
1000
0001
0000
1000
0001
,
1000
0000
0010
0100
0010
0000
0100
0000
,
1001
0000
0001
0010
0001
0000
1000
0100
,
1000
0000
0010
0100
0010
0100
0010
0000
,
1001
2000
0000
0000
,
0000
3200
0000
0000
,
0000
0320
0000
0000
,
0000
0032
0000
0000
,
0000
1003
0000
0010
,
0000
1000
0000
0100
,
0000
0010
0000
0001
,
0000
0010
0000
0100
,
0000
0020
0000
0000
,
0000
0032
0000
0000
,
0000
0203
0000
0000
,
0000
0320
0000
0000
,
0000
1030
0000
0010
,
0000
1000
0000
0001
,
0000
0010
0000
0100
,
0000
0010
0000
0001
,
0000
1000
0000
1000
,
0000
0100
0000
0100
,
0000
1000
0000
1000
,
0000
0010
0000
0010
,
0000
0100
0000
0001
,
0000
0010
0000
0100
,
0000
0010
0000
0001
,
0000
1001
0000
0000
,
0000
0001
0000
0001
,
0000
0100
0000
0100
,
0000
0010
0000
0010
,
0000
0100
0000
0100
,
0000
0001
0000
0010
,
0000
0100
0000
1000
,
0000
0010
0000
0100
,
0000
1001
0000
0000
,
0000
0000
0000
0000
,
0000
1000
0100
1000
,
0010
0100
0000
0110
,
0000
0001
0010
0100
,
0010
0001
0000
1001
,
0000
1000
0010
0100
,
0010
1000
0000
1001
,
0000
0100
0010
0001
,
0010
0100
0000
0110
,
0000
1000
0010
0001
,
0010
1000
0000
1001
,
0000
0001
0010
1000
,
0010
0001
0000
1001
,
0000
0010
0010
0100
,
0100
0010
0010
0100
,
0100
0001
1000
0001
,
1000
0002
0000
1003
,
0000
0100
0000
1000
,
0000
0010
0000
0100
,
0000
0010
0000
1000
,
0000
0001
0000
1000
,
0000
0010
0000
0001
,
0000
0010
0000
1000
,
0000
0100
0000
1001
,
0000
0000
0000
0001
,
0000
0010
0000
0100
,
0000
0010
0000
0001
,
0000
0100
0000
0010
,
0000
1000
0000
0001
,
0000
0010
0000
1000
,
0000
0010
0000
0002
,
0000
0000
0000
1003
,
0000
0010
0000
0001
,
0000
0010
0000
0100
,
0000
0001
0000
0010
,
0000
0100
0000
0010
,
0000
0001
0000
0100
,
0000
0010
0000
0001
,
0000
0010
0000
0100
,
0000
0001
0000
0010
,
0000
1000
0000
0010
,
0000
0001
0000
0100
,
0000
1000
0000
0100
,
0000
0010
0000
0000
,
0220
0000
0000
0000
,
0000
0000
0000
0000
,
0000
0000
0000
0000
,
0000
0000
0000
0000
,
0330
0000
0000
0000
,
2002
0000
0000
0000
,
0000
0000
0000
0000
,
3003
0000
0000
0000
;
