#VERSION:0.83;
#TITLE:CODE RED;
#SUBTITLE:;
#ARTIST:iNFECTiON;
#TITLETRANSLIT:;
#SUBTITLETRANSLIT:;
#ARTISTTRANSLIT:;
#GENRE:;
#CREDIT:;
#MUSIC:CODE RED.ogg;
#BANNER:CODE RED.png;
#BACKGROUND:CODE RED-bg.png;
#CDTITLE:;
#SAMPLESTART:1.820;
#SAMPLELENGTH:15.000;
#SELECTABLE:YES;
#OFFSET:-0.120;
#BPMS:0.000=105.000
,29.500=99.200
,36.000=145.000
,68.000=155.000
,100.000=95.000
,116.000=100.000
,124.000=110.000
,126.000=120.000
,128.000=140.000
,130.000=160.000
,132.000=180.000
,164.000=190.000
,196.000=130.000
,204.000=140.000
,212.000=150.000
,220.000=160.000
,228.000=220.000
,243.000=110.000
,244.000=440.000
,304.000=110.000
,305.000=440.000
,335.000=400.000
,399.000=100.000
;
#STOPS:;
#SPEEDS:0.000=1.000=0.000=0;
#SCROLLS:0.000=1.000;
#TICKCOUNTS:0.000=4;
#TIMESIGNATURES:0.000=4=4;
#LABELS:0.000=Song Start;
#COMBOS:0.000=1;
#DISPLAYBPM:20.000:999.000;
#ORIGIN:;
#PREVIEWVID:;
#JACKET:CODE RED-jacket.png;
#CDIMAGE:;
#DISCIMAGE:;
#BGCHANGES:;
#FGCHANGES:;

//--------------- dance-single - ----------------
#NOTEDATA:;
#STEPSTYPE:dance-single;
#DESCRIPTION:;
#DIFFICULTY:Beginner;
#METER:10;
#RADARVALUES:0.35795,0.530871,0.133833,0.163574,0.029741,337,319,18,22,0,0,0,0,0,0.35795,0.530871,0.133833,0.163574,0.029741,337,319,18,22,0,0,0,0,0;
#OFFSET:-1.249;
#BPMS:0.000=105.000
,29.500=99.200
,36.000=145.000
,68.000=155.000
,100.000=95.000
,116.000=100.000
,124.000=110.000
,126.000=120.000
,128.000=140.000
,130.000=160.000
,132.000=180.000
,164.000=190.000
,196.000=130.000
,204.000=140.000
,212.000=150.000
,220.000=160.000
,228.000=220.000
,243.000=110.000
,244.000=440.000
,304.000=110.000
,305.000=440.000
,335.000=400.000
,399.000=100.000
;
#SPEEDS:0.000=1.000=0.000=0;
#SCROLLS:0.000=1.000;
#TICKCOUNTS:0.000=4;
#TIMESIGNATURES:0.000=4=4;
#LABELS:0.000=Song Start;
#COMBOS:0.000=1;
#DISPLAYBPM:20.000:999.000;
#CHARTNAME:;
#CHARTSTYLE:;
#CREDIT:;
#NOTES:
0000
1000
0000
0000
,
0000
0010
0000
0000
,
0000
0100
0000
0000
,
0000
0001
0000
0000
,
0000
1000
0000
0000
,
0000
0100
0000
0000
,
0000
0001
0000
0000
,
0000
2002
0000
0000
,
0000
3003
0000
0000
,
1000
0010
0100
0010
,
1000
0100
0010
0001
,
0100
0010
1000
0100
,
0010
0001
1000
0000
0010
1000
0001
0000
,
1000
0010
0100
0010
,
1000
0100
0010
0001
,
0100
0010
0100
0001
,
1000
0001
0100
0000
0001
1000
0100
0000
,
1000
1010
0101
1001
,
0001
0010
0100
0000
1000
0100
0010
0000
,
0001
1000
0100
1000
,
0001
0100
0001
0000
1000
0100
1000
0000
,
0001
1010
0101
1001
,
1000
0010
0100
0000
0001
0100
0010
0000
,
1000
0100
0010
0001
,
1000
0010
0100
0000
0001
0100
0010
0000
,
1000
0000
0001
0000
1000
0010
0100
0001
,
1000
0000
0001
0000
0010
0100
0010
0001
,
1000
0000
0010
0000
0100
0010
1000
0100
,
0010
0000
0001
0000
1000
0010
0100
0001
,
1000
0000
0010
0000
1000
0010
0100
0001
,
1000
0000
0100
0000
1000
0010
0100
0001
,
0010
0000
0100
0000
0010
0001
1000
0010
,
0100
0000
0010
0000
1000
0100
0010
0001
,
1000
0010
1000
0010
,
0100
0001
0100
0001
,
1000
0000
0100
1000
0000
0100
1000
0000
0000
1001
0000
0000
,
0001
0000
0010
0001
0000
0000
1000
0000
0100
1000
0000
0000
,
0001
0010
0100
1000
,
0010
0100
0001
0010
,
0001
0000
0010
0001
0000
0010
0001
0000
0000
1001
0000
0000
,
1000
0000
0100
1000
0000
0000
0001
0000
0010
0001
0000
0000
,
1000
0010
0100
0010
,
1000
0000
0100
0010
0000
0001
0100
0000
,
0010
1000
0010
1000
0010
0000
1001
0000
,
0001
0010
0001
0000
1000
0100
1000
0000
,
0001
0010
0100
1000
,
0010
0100
0001
1000
,
0001
0010
0100
1000
,
0002
0000
2000
3000
,
2003
0000
3020
0000
,
0230
0000
0302
0000
,
2003
0000
3200
0000
,
0320
0000
0032
0000
,
2003
0000
3020
0000
,
0032
0000
0023
0000
,
2030
0000
3200
0000
,
0302
0000
0203
0000
,
1300
1000
0001
0001
,
1000
1000
0001
0001
,
0100
0100
0010
0010
,
0100
0100
0010
1001
,
1000
0000
0100
0000
,
0010
0000
0001
0000
,
0010
0000
0100
0000
,
1000
0000
0010
0000
,
0100
0000
0010
0000
,
1000
0000
0010
0000
,
0100
0000
0001
0000
,
1001
0000
0001
0000
,
0001
0000
1000
0000
,
1000
0000
0010
0100
,
0010
0000
0100
0010
,
0100
0000
0001
0000
,
0001
0000
1000
0000
,
1000
0000
0100
0000
,
0100
0000
0010
0000
,
1001
1000
0000
0010
,
0000
0100
0000
0010
,
0000
1000
0000
0001
,
0000
0100
0000
0010
,
0000
0010
0000
0100
,
0000
0100
0000
0001
,
1000
0001
0000
1000
,
0001
1000
0000
0001
,
0000
0010
0000
0001
,
0000
0010
0000
0100
,
0000
1000
0000
0100
,
0000
1000
0000
0010
,
0000
1000
0000
0010
,
0000
0100
0000
0001
,
0000
0010
0000
0100
,
0000
1000
0000
0001
,
0000
0001
0000
0100
,
0000
0100
0000
0010
,
0000
0010
0000
1000
,
0000
1000
0000
0001
,
0000
0000
0000
0101
,
0000
0000
0000
1010
,
0000
0000
0000
1001
,
0000
0000
0000
0110
,
0000
2002
0000
0000
,
0000
0000
0000
0000
,
3003
0000
0000
0000
;

//--------------- dance-single - ----------------
#NOTEDATA:;
#STEPSTYPE:dance-single;
#DESCRIPTION:;
#DIFFICULTY:Easy;
#METER:13;
#RADARVALUES:0.562948,0.834226,0.23049,0.074352,0.178444,530,499,31,10,0,0,0,0,0,0.562948,0.834226,0.23049,0.074352,0.178444,530,499,31,10,0,0,0,0,0;
#OFFSET:-1.249;
#BPMS:0.000=105.000
,29.500=99.200
,36.000=145.000
,68.000=155.000
,100.000=95.000
,116.000=100.000
,124.000=110.000
,126.000=120.000
,128.000=140.000
,130.000=160.000
,132.000=180.000
,164.000=190.000
,196.000=130.000
,204.000=140.000
,212.000=150.000
,220.000=160.000
,228.000=220.000
,243.000=110.000
,244.000=440.000
,304.000=110.000
,305.000=440.000
,335.000=400.000
,399.000=100.000
;
#SPEEDS:0.000=1.000=0.000=0;
#SCROLLS:0.000=1.000;
#TICKCOUNTS:0.000=4;
#TIMESIGNATURES:0.000=4=4;
#LABELS:0.000=Song Start;
#COMBOS:0.000=1;
#DISPLAYBPM:20.000:999.000;
#CHARTNAME:;
#CHARTSTYLE:;
#CREDIT:;
#NOTES:
0000
1000
0010
0100
,
0001
0000
2000
0000
0010
0010
3000
0000
,
0100
0002
0000
0013
,
0100
1000
0010
0100
,
0001
0000
1000
0000
0010
0100
0010
0100
,
0010
0100
0001
0000
0010
0100
0010
0100
,
0010
0100
1000
0000
0000
0000
0010
0000
,
0100
2002
0000
0000
,
0000
3003
0000
0000
,
1000
0010
1000
0010
0100
0010
0100
0010
,
1000
0100
0010
1000
0010
1000
0010
0000
,
0001
0100
0001
0100
0010
0100
0010
0100
,
0001
0010
0100
0001
0100
0001
0100
0000
,
1000
0001
0100
0010
0100
1000
0100
0001
,
0010
1000
0010
1000
0010
0001
1000
0000
,
0001
1000
0010
0100
0010
0001
0010
1000
,
0100
0001
0100
0001
0100
1000
0001
0000
,
1000
0010
0001
0010
0100
0001
0010
0100
,
1000
0010
0001
0010
0001
0010
1000
0000
,
0001
0100
1000
0100
0010
1000
0100
0010
,
0001
0100
1000
0100
1000
0100
0001
0000
,
1000
0100
0010
0001
0100
1000
0100
0001
,
0010
0100
1000
0010
0001
0010
1000
0000
,
0001
1000
0100
0010
0001
0100
1000
0100
,
0001
0010
0100
1000
0010
0001
0010
0000
,
1000
0000
0000
1000
0000
0000
1000
0000
0001
0010
0100
1000
0001
0000
1001
0000
,
0001
0000
0000
0001
0000
0000
0001
0000
1000
0100
0010
0001
1000
0000
1001
0000
,
1000
0000
0000
1000
0000
0000
1000
0000
0001
0010
0100
1000
0001
0000
1001
0000
,
0001
0000
0000
0001
0000
0000
0001
0000
1000
0100
0010
0001
1000
0000
1001
0000
,
1000
0000
0000
0100
0000
0000
0100
0000
0001
0100
0010
0001
1000
0000
1001
0000
,
0001
0000
0000
0010
0000
0000
0010
0000
1000
0010
0001
0100
0010
0000
1001
0000
,
1000
0000
0000
0010
0000
0000
0010
0000
0001
0010
1000
0100
0010
0000
1001
0000
,
1000
0000
0000
0010
0000
0000
0010
0000
0001
0010
1000
0100
0010
0000
1001
0000
,
1000
0000
0000
1001
0000
0000
1000
0000
0100
1000
0000
0100
,
0010
0000
0000
0011
0000
0000
0001
0000
0010
0100
0000
1000
,
0001
0100
0010
1000
0100
0010
0001
0000
0000
1001
0000
0000
,
0001
0010
0100
1000
0000
0000
0001
0010
0100
1000
0000
0000
,
0001
0000
0000
1001
0000
0000
0001
0000
0010
0001
0000
0010
,
0100
0000
0000
1100
0000
0000
1000
0000
0100
0010
0000
0001
,
1000
0010
0100
0001
0010
0100
1000
0000
0000
1001
0000
0000
,
1000
0010
0100
0001
0000
0000
1000
0010
0100
0001
0000
0000
,
1000
0010
0100
0001
0010
0100
1000
0000
,
0010
0000
0100
0001
0000
0100
0001
0000
,
1000
0010
0100
0001
1000
0000
1001
0000
,
0001
0100
0010
0000
0001
0100
0010
0000
,
1000
0100
0010
0001
0100
0010
1000
0000
,
0001
0000
0100
0001
0000
0100
0001
0000
,
1000
0100
0010
0001
1000
0100
0010
0001
,
1000
0010
0100
0001
1000
0000
1001
0000
,
1000
0000
0000
0000
1000
0100
0010
0001
,
2000
0000
3001
0000
,
0001
0000
0000
0000
1000
0010
0100
0001
,
2000
0000
3001
0000
,
1000
0000
0000
0000
1000
0010
0100
0001
,
2000
0000
3001
0000
,
0001
0000
0000
0000
1000
0010
0100
0001
,
2000
0000
3001
0000
,
1000
1000
0001
0001
,
1000
0000
1000
0000
0001
0010
0001
0010
,
0001
0001
1000
1000
,
0001
0000
0001
0000
1000
0100
1001
0000
,
1000
0000
0010
0000
,
1000
0000
0010
0000
,
0100
0000
0001
0000
,
0010
0000
0001
0010
,
0100
1000
0001
0010
,
0100
1000
0001
0000
,
0011
0000
1000
0000
,
1100
0000
1000
0010
,
0100
0001
0010
0100
,
1000
0001
1000
0010
,
0100
0010
1000
0100
,
0010
0001
0100
0010
,
0100
0001
0010
0100
,
1000
0010
0100
0010
,
1000
0100
0010
0001
,
1001
1000
0000
0010
,
0000
1000
0000
0010
,
0000
1000
0000
0010
,
0000
0100
0000
0001
,
0010
0100
1000
0001
,
0010
0100
1000
0001
,
0000
1001
0000
0010
,
0000
0110
0000
1000
,
0010
0100
0000
0001
,
0100
0010
0000
1000
,
0100
0010
0001
1000
,
0100
0010
0000
0001
,
0010
0100
0000
1000
,
0100
0010
0000
0001
,
0010
0100
0010
0001
,
1000
0100
0000
1000
,
0001
0010
0100
1000
,
0010
0100
0010
1000
,
0100
0010
0001
1000
,
0100
0010
0001
1000
,
0000
1100
0000
0001
,
0000
0101
0000
0011
,
0000
1010
0000
1100
,
0000
0101
0000
0110
,
0000
2002
0000
0000
,
0000
0000
0000
0000
,
3003
0000
0000
0000
;

//--------------- dance-single - ----------------
#NOTEDATA:;
#STEPSTYPE:dance-single;
#DESCRIPTION:;
#DIFFICULTY:Medium;
#METER:16;
#RADARVALUES:0.720149,0.941013,0.200749,0.275101,0.420087,678,651,27,37,0,0,0,0,0,0.720149,0.941013,0.200749,0.275101,0.420087,678,651,27,37,0,0,0,0,0;
#OFFSET:-0.677;
#BPMS:0.000=52.500
,15.000=100.000
,17.000=39.960
,19.000=145.000
,51.000=155.000
,83.000=95.000
,99.000=100.000
,107.000=110.000
,109.000=120.000
,111.000=140.000
,113.000=160.000
,115.000=180.000
,147.000=190.000
,179.000=65.000
,183.000=70.000
,187.000=75.000
,191.000=80.000
,195.000=220.000
,210.000=110.000
,211.000=440.000
,271.000=110.000
,272.000=440.000
,302.000=400.000
,366.000=100.000
;
#SPEEDS:0.000=1.000=0.000=0;
#SCROLLS:0.000=1.000;
#TICKCOUNTS:0.000=4;
#TIMESIGNATURES:0.000=4=4;
#LABELS:0.000=Song Start;
#COMBOS:0.000=1;
#DISPLAYBPM:20.000:999.000;
#CHARTNAME:;
#CHARTSTYLE:;
#CREDIT:;
#NOTES:
0000
0000
0000
0000
1000
0000
0010
0000
0100
0000
0001
0000
2000
0000
3020
0100
,
0000
0130
0002
0000
0013
0100
1000
0010
,
0100
0000
0001
0000
1000
0000
0010
0100
0001
0010
0100
1000
0001
0000
0100
0010
,
1000
0100
0010
0001
2000
0000
0000
0000
3010
0000
0100
0000
2002
0000
0000
0000
,
0000
0000
0000
0000
3003
0000
1000
0010
,
0001
0000
0010
0000
0100
0000
0001
0000
0010
0000
0100
0000
1000
0010
0100
0000
,
0010
0100
0010
0000
0100
0001
0010
0000
0100
0010
0100
0000
1000
0000
0010
0000
,
0001
0000
0010
0000
0100
0000
0001
0000
0010
0000
0100
0000
1000
0001
0100
0000
,
0010
0100
0010
0000
1000
0001
0010
0000
0100
0010
0100
0000
1000
0000
0010
0000
,
0100
0000
0010
0000
0001
0000
0010
0000
1000
0000
0100
0000
0010
0001
1000
0000
,
0010
0100
0001
0000
0010
0100
1000
0000
0010
0100
0001
0000
1000
0000
0010
0000
,
0100
0000
0010
0000
0001
0000
0010
0000
1000
0000
0001
0000
0100
0010
1000
0000
,
0100
0010
0001
0000
1000
0010
0100
0000
0001
0010
0100
0000
1000
0000
0001
0000
,
0010
0000
1000
0000
0010
0000
0001
0000
1000
0000
0010
0000
0100
0001
0010
0000
,
0100
0010
0100
0000
1000
0010
0100
0000
0010
0100
0010
0000
1000
0000
0010
0000
,
0100
0000
1000
0000
0100
0000
0001
0000
0010
0000
0100
0000
1000
0010
0100
0000
,
0001
0100
0010
0000
1000
0100
0010
0000
0001
0010
0100
0000
1000
0000
0010
0000
,
0100
0000
1000
0000
0100
0000
0001
0000
0010
0000
0100
0000
1000
0010
0100
0000
,
0001
0010
0100
0000
0010
0100
0010
0000
0100
0010
0100
0000
1000
0000
0001
0000
,
0010
0000
0100
0000
1000
0000
0010
0000
0001
0000
0010
0000
0100
0001
0010
0000
,
0100
1000
0010
0000
0100
0010
1000
0000
0001
0100
0010
0000
2000
0000
0000
3020
,
0000
0000
0230
0000
0301
0010
0100
1000
0001
0000
1001
0000
0002
0000
0000
0203
,
0000
0000
0310
0000
1000
0010
0100
0001
1000
0000
1001
0000
2000
0000
0000
3002
,
0000
0000
0013
0000
0100
1000
0010
0100
0001
0000
1001
0000
0002
0000
0000
2003
,
0000
0000
3010
0000
0100
0001
0010
0100
1000
0000
1001
0000
2000
0000
0000
3002
,
0000
0000
0103
0000
1000
0100
0001
0010
0100
0000
1001
0000
0002
0000
0000
2003
,
0000
0000
3010
0000
0001
0010
1000
0100
0010
0000
1001
0000
0002
0000
0000
2003
,
0000
0000
3010
0000
0001
0010
1000
0100
0010
0000
1001
0000
2000
0000
0000
3002
,
0000
0000
0103
0000
1000
0100
0001
0010
0100
0000
0110
0000
1000
0000
0000
0000
,
1100
0000
0000
1000
0000
0010
0001
0000
0010
1000
0000
0000
,
1001
0000
0000
0001
0000
0010
1000
0000
0010
0001
0010
0100
,
1000
0010
0100
0001
0000
0000
1001
0000
0000
0001
0010
1000
,
0010
0000
0000
0001
0010
1000
0010
0000
0000
0001
0000
0000
,
1001
0000
0000
1000
0000
0010
0001
0000
0010
1000
0000
0000
,
1001
0000
0000
0001
0000
0010
1000
0000
0010
0001
0100
0010
,
1000
0100
0010
0001
0000
0000
1001
0000
0000
1000
0100
0001
,
0100
0000
0000
1000
0100
0001
0100
0000
0000
1000
0000
0000
,
0001
0010
0001
0000
1000
0000
0001
0000
0110
0000
0000
0000
1000
0010
0100
0000
,
0010
0000
1000
0010
0100
0000
0010
0000
1000
0010
0100
0000
0010
0000
0010
0000
,
0010
0000
1000
0000
0100
0000
0000
0000
1000
0001
1000
0000
0001
0000
0001
0000
,
0001
0000
1000
0000
0010
0000
0000
0000
0100
0010
0100
0000
0001
0000
0000
0000
,
1000
0100
1000
0000
0001
0000
0100
0000
0110
0000
0000
0000
0001
0100
0010
0000
,
0100
0000
0001
0100
0010
0000
0100
0000
0001
0100
0010
0000
1000
0000
0100
0000
,
0010
0000
0001
0000
1000
0000
0100
0000
0010
0000
0001
0000
1000
0010
0100
0001
,
1000
0010
0100
0001
1000
0010
0100
0001
1000
0010
0100
0001
2000
0000
0100
0000
,
3010
0100
0001
0010
2000
0000
0010
0000
3020
0000
0001
0000
0032
0000
0010
0000
,
0103
0010
1000
0100
0002
0000
0100
0000
0203
0000
1000
0000
2300
0000
0100
0000
,
3010
0001
0010
0100
2000
0000
0100
0000
3200
0000
0001
0000
0302
0000
0100
0000
,
0013
0100
1000
0010
0002
0000
0010
0000
0023
0000
1000
0000
1030
0000
0000
0000
,
1100
0001
0011
1000
,
1100
0000
0001
0010
1000
0010
0001
0000
,
0011
1000
1100
1000
,
1001
0000
1000
0001
1001
0000
1000
0000
,
0010
0100
0010
1000
,
0100
0010
0001
0100
,
0010
0100
0001
0010
,
0100
0000
1000
0100
1000
0000
0001
0000
,
0100
0000
0001
0010
0001
0000
1000
0000
,
0100
0000
1000
0010
1000
0000
0001
0000
,
0100
0000
0001
0010
0001
0000
0010
0000
,
0100
0000
1000
0100
1000
0000
0100
0000
,
0010
0001
0010
0000
0001
0000
0100
0010
,
0100
0000
0001
0010
0001
0000
0010
0000
,
0100
1000
0100
0000
1000
0000
0010
0100
,
0010
0000
1000
0100
1000
0000
0010
0000
,
0100
0010
0100
0000
0001
0000
0010
0100
,
0010
0000
0100
1000
0100
0000
1000
0000
,
0010
0100
0010
0000
0100
0000
1001
0000
,
1000
0010
0100
0010
,
1000
0100
0010
0001
,
0100
0010
0100
0001
,
0010
0000
0100
0000
1000
0100
1000
0000
,
0001
0000
0100
0000
0001
0010
0001
0000
,
0100
0000
0010
0000
1000
0100
1000
0000
,
0010
0000
0100
0000
0001
0010
0001
0000
,
0100
0000
0010
0000
1000
0000
0100
0010
,
0100
0000
1000
0000
0001
0000
0010
0100
,
0010
0000
0001
0000
1000
0000
0010
0100
,
0010
0000
1000
0000
0001
0000
0100
0010
,
0100
0000
0001
0000
1000
0000
0100
0010
,
0100
0000
0100
0000
1000
0000
0001
0010
,
0001
0000
0001
0000
0010
0000
0100
0010
,
0100
0000
0100
0000
0010
0000
0001
1000
,
0001
0000
0001
0000
1000
0100
1000
0000
,
0001
0000
0010
0000
0100
1000
0100
0000
,
0010
0000
0001
0000
0100
0010
0100
0000
,
0010
0000
1000
0000
0001
0010
0001
0000
,
0010
0000
0001
0000
1000
0100
1000
0000
,
0100
0000
0010
0000
0001
0010
0001
0000
,
0100
0000
0010
0000
1000
0010
1000
0000
,
0010
0100
0010
0000
0100
0001
0100
0000
,
0010
1000
0001
1000
1001
0000
0000
0000
,
0220
0000
0000
0000
,
0000
0000
0000
0330
;

//--------------- dance-single - ----------------
#NOTEDATA:;
#STEPSTYPE:dance-single;
#DESCRIPTION:;
#DIFFICULTY:Hard;
#METER:19;
#RADARVALUES:0.872039,1.801169,0.156138,0.141268,0.609684,821,800,21,19,0,0,0,0,0,0.872039,1.801169,0.156138,0.141268,0.609684,821,800,21,19,0,0,0,0,0;
#OFFSET:0.466;
#BPMS:0.000=26.250
,8.000=50.000
,9.000=20.000
,9.375=145.000
,42.000=155.000
,74.000=95.000
,76.000=190.000
,80.000=95.000
,82.000=190.000
,86.000=95.000
,88.000=190.000
,92.000=95.000
,94.000=190.000
,98.000=100.000
,100.000=200.000
,104.000=100.000
,106.000=200.000
,110.000=110.000
,112.000=240.000
,116.000=140.000
,118.000=320.000
,122.000=180.000
,154.000=190.000
,186.000=65.000
,187.000=130.000
,189.000=65.000
,190.000=130.000
,192.000=70.000
,193.000=140.000
,195.000=70.000
,196.000=140.000
,198.000=75.000
,199.000=150.000
,201.000=75.000
,202.000=150.000
,204.000=80.000
,205.000=160.000
,207.000=80.000
,208.000=160.000
,210.000=220.000
,225.000=110.000
,226.000=440.000
,286.000=880.000
,294.000=440.000
,324.000=400.000
,372.000=800.000
,404.000=100.000
,405.500=1024.000
;
#STOPS:9.375=1.620;
#SPEEDS:0.000=1.000=0.000=0;
#SCROLLS:0.000=1.000;
#TICKCOUNTS:0.000=4;
#TIMESIGNATURES:0.000=4=4;
#LABELS:0.000=Song Start;
#COMBOS:0.000=1;
#DISPLAYBPM:20.000:999.000;
#CHARTNAME:;
#CHARTSTYLE:;
#CREDIT:;
#NOTES:
0000
0000
0000
0000
0000
0000
0000
0000
0000
0000
0000
0000
0000
0000
0000
0000
2000
0000
0000
0000
3001
0000
0000
0000
0010
0000
0000
0000
0100
0000
0000
0000
1000
0000
0000
0001
0010
0100
1000
0000
0000
0000
0000
0000
1001
0000
0000
0000
2000
0000
0000
0000
3000
0000
0100
0010
0100
0000
0000
0000
0001
0000
0000
0000
,
0100
0000
0010
0000
0001
0000
1001
0000
2000
0000
3010
0001
0010
0100
0001
0010
0200
0000
1300
0010
0001
0010
0100
0001
0020
0000
0000
0000
0230
0000
1300
0000
,
2002
0000
0000
0000
0000
0000
0000
0000
3000
0000
0000
0103
0000
0000
0000
0000
1000
0000
0001
0000
0100
0000
0000
0000
0001
0000
1000
0000
0100
0000
0000
0000
,
1000
0010
0100
0000
0001
0100
0010
0000
1000
0100
1000
0000
0001
0010
0001
0000
,
0100
0010
0100
0000
0010
0100
0010
0000
1000
0001
0100
0000
0001
1000
0100
0000
,
1000
0010
0100
0000
0001
0100
0010
0000
1000
0100
1000
0000
0001
0010
0001
0000
,
0100
0010
0100
0000
0010
0100
0010
0000
1000
0001
0100
0000
0010
1000
0100
0000
,
0010
0001
0100
0000
0001
1000
0100
0000
1000
0010
0100
0000
0010
0100
0001
0000
,
0010
0100
0010
0000
0100
0010
0100
0000
1000
0010
0100
0000
0001
0100
0010
0000
,
1000
0001
0100
0000
0001
1000
0100
0000
0010
0001
0100
0000
0010
1000
0100
0000
,
0010
0100
0010
0000
0100
0010
0100
0000
1000
0001
0100
0000
0001
0000
0001
0000
,
0100
0000
0100
0000
0010
0000
0010
0000
1000
0000
0000
1000
0100
0010
0001
1000
,
0100
0000
0100
0000
1000
0000
0010
0000
1000
0010
0100
0000
0001
0000
1000
0100
,
0010
0000
0001
0000
1000
0010
0100
0001
1000
0001
0100
0000
0001
1000
0100
0000
,
1000
0010
0100
0000
0001
0100
0010
0000
1000
0001
0100
0000
0010
0000
0010
0000
,
1000
0000
1000
0000
0001
0000
0001
0000
1000
0000
0000
1000
0100
0010
0001
0100
,
0010
0000
0010
0000
1000
0000
1000
0000
0001
0100
0010
0000
1000
0000
0010
0100
,
0001
0000
0010
0000
0001
0010
0100
1000
0001
1000
0010
0000
0100
0010
0100
0000
,
0001
0010
0100
0000
1000
0100
0010
0000
0001
0000
0010
0100
0000
1000
0010
0000
,
0100
0001
0010
0100
1000
0000
1001
0000
,
1000
0000
0010
0100
0000
0001
0010
0000
0100
0000
0010
0000
0001
0000
1000
0000
,
0010
0000
0000
0000
1001
0000
0000
0000
1000
0000
0010
0100
0000
0001
0010
0000
,
0100
0010
0001
1000
0001
0000
1001
0000
,
1000
0000
0001
0010
0000
0100
0010
0000
0001
0000
0010
0000
0100
0000
1000
0000
,
0001
0000
0000
0000
1001
0000
0000
0000
1000
0000
0010
0001
0000
0010
0100
0000
,
0001
0010
1000
0010
0001
0000
1001
0000
,
0001
0000
1000
0010
0000
0001
0010
0000
1000
0000
0100
0000
0001
0000
0100
0000
,
0010
0000
0000
0000
1001
0000
0000
0000
0001
0000
1000
0010
0000
0001
0010
0000
,
0100
0010
0001
0010
1000
0000
1001
0000
,
1000
0000
0100
0001
0000
0100
0010
0000
0100
0000
0001
0000
0100
0000
1000
0000
,
0010
0000
0000
1001
0000
0000
1000
0000
0010
0100
0000
0001
,
0010
0000
0100
0010
0000
0001
0100
0000
0010
1000
0000
0100
,
0010
0000
0001
0100
0000
0010
1000
0100
0010
0001
0100
0010
,
1000
0000
0000
1001
0000
0000
1000
0010
0001
0010
0000
0000
,
0001
0010
1000
0010
0000
0000
1000
0000
0100
0010
0000
0001
,
0100
0000
1000
0100
0000
0010
1000
0000
0100
0001
0000
0100
,
0010
0000
0001
0100
0000
0010
1000
0100
0010
0001
0100
0010
,
1000
0000
0000
1001
0000
0000
1000
0010
0001
0010
0000
0000
,
0001
0000
0000
0000
0010
0000
0000
0000
1000
0000
0000
0000
0100
0000
0000
0000
0010
0000
0000
0000
0001
0000
0000
0000
1000
0000
0000
0000
0000
0000
0001
0000
0000
0000
0000
0000
0100
0000
0000
0010
0000
0000
1000
0000
0000
0000
0000
0000
,
0100
0000
0010
0000
0001
0000
1000
0000
0010
0100
0010
0000
1000
0000
0100
0010
,
0100
0000
1000
0000
0010
0100
0010
0000
1000
0000
0100
0000
0010
0000
0001
0000
,
1001
0000
1001
0000
0001
0010
0100
0000
1000
0000
0010
0000
0100
0000
0001
0000
,
1001
0000
1001
0000
1000
0010
0100
0000
0001
0000
0010
0000
0100
1000
0010
0000
,
0100
0000
0001
0000
1000
0000
0010
0000
0100
0010
0100
0000
0001
0000
0010
0100
,
0010
0000
0001
0000
0100
0010
0100
0000
0001
0000
0010
0000
0100
0000
1000
0000
,
0001
0000
0010
0000
0100
0000
1000
0000
0001
0010
0100
1000
0010
0100
0001
0010
,
0100
1000
0100
0010
0100
1000
0010
0100
0001
1000
0100
0100
2000
0000
0010
0000
,
0100
0000
0010
0000
3100
0010
0010
0001
0200
0000
0010
0000
0010
0000
0010
0000
,
0301
0010
0001
0001
0200
0000
1000
0000
0010
0000
1000
0000
0310
1000
1000
0100
,
0020
0000
0100
0000
0100
0000
0100
0000
0031
1000
0100
0100
2000
0000
0010
0000
,
0001
0000
0010
0000
3001
0010
0010
0100
2000
0000
0010
0000
0010
0000
0010
0000
,
3001
0100
0010
0010
0200
0000
0010
0000
0001
0000
0010
0000
0301
0010
0010
0100
,
2000
0010
0100
0010
3001
0010
0100
1000
,
0001
0100
1000
0100
0001
1000
0100
0010
,
0001
0100
1000
0100
0001
0010
0100
1000
,
0001
0100
1000
0100
0001
0001
1000
1000
,
0001
1000
1001
0000
1000
0000
0010
0000
,
0100
0010
1000
0100
,
0010
0001
0100
1000
,
0100
0001
0010
0100
,
1000
0010
1000
0010
1000
0010
0100
0001
,
0010
0001
0010
0001
0010
0100
0010
0100
,
1000
0100
1000
0100
0010
0001
0100
0010
,
1000
0100
0010
0001
0100
0010
1000
0100
,
1000
0010
1000
0000
0001
0000
0100
0010
,
0100
0000
0001
0000
0010
0100
0010
0000
,
0001
0100
0001
0000
1000
0000
0010
0100
,
0010
0000
1000
0000
0100
0010
0100
0000
,
1000
0010
1000
0000
0001
0000
0100
0010
,
0100
0000
0001
0000
0010
0100
0010
0000
,
0001
0010
0001
0000
1000
0000
0010
1000
,
0010
1000
2002
0000
,
0000
0000
0000
0000
,
0000
3003
1000
0010
,
0001
0010
0100
0001
,
0010
0100
1000
0010
,
0001
0010
1000
0100
,
0010
0001
0010
0001
0010
0001
1000
0100
,
1000
0100
1000
0100
1000
0001
0010
0100
,
1000
0010
0100
0010
1000
0100
0010
0001
,
0100
0010
0100
0001
0010
0100
1000
0001
,
1000
0000
0010
0100
0010
0000
1000
0000
,
0001
0000
0100
0010
0100
0001
0100
0010
,
0100
0000
0001
0010
0001
0000
1000
0000
,
0100
0000
1000
0010
1000
0001
1000
0100
,
1000
0000
0010
0100
0010
0000
1000
0000
,
0100
0000
0010
0001
0010
0100
0010
0001
,
0010
0000
0001
1000
0001
0000
1000
0000
,
0010
0000
0100
0010
0100
0001
1000
0010
,
1000
0100
0010
0001
0100
0010
0100
0001
,
0010
0100
1000
0010
0100
0010
1000
0100
,
0010
0001
0100
0010
0100
0010
0100
0001
,
0010
0100
1000
0001
0100
0010
0100
0001
,
1000
0100
1000
0100
,
0010
0001
0010
0001
,
0010
0100
1000
0010
,
0100
0010
1000
0100
,
0010
0001
0100
0010
,
1000
0001
0010
0100
,
1000
0100
0001
0100
,
1000
0010
0001
0010
,
2000
0000
0000
0000
,
0000
0000
3000
0000
0000
1001
0000
0000
,
0000
0000
0000
0000
,
0000
0000
0000
0000
,
0000
0000
0000
0000
,
0000
0000
0000
0000
,
0000
0000
0000
0000
,
0000
0000
0000
0000
,
0000
0000
0000
0000
,
0000
0000
0000
0000
,
0000
0000
0000
0000
,
0000
0000
0000
0000
,
0000
0000
0000
0000
,
0000
0000
0000
0000
,
0000
0000
0000
0000
,
0000
0000
0000
0000
,
0000
0000
0000
0000
,
0000
0000
0000
0000
,
0000
0000
0000
0000
,
0000
0000
0000
0000
,
0000
0110
0000
0000
0000
0000
0000
0000
;

//--------------- dance-single - ----------------
#NOTEDATA:;
#STEPSTYPE:dance-single;
#DESCRIPTION:;
#DIFFICULTY:Challenge;
#METER:20;
#RADARVALUES:1.056856,1.41784,0.669165,0.639424,0.713776,995,905,90,86,0,0,0,0,0,1.056856,1.41784,0.669165,0.639424,0.713776,995,905,90,86,0,0,0,0,0;
#OFFSET:-1.220;
#BPMS:0.000=100.000
,1.000=1000.000
,8.000=290.000
,72.000=310.000
,136.000=95.000
,136.500=190.000
,137.000=380.000
,139.000=190.000
,139.500=95.000
,140.500=190.000
,141.000=380.000
,143.000=190.000
,143.500=95.000
,144.500=190.000
,145.000=380.000
,147.000=190.000
,147.500=95.000
,148.500=190.000
,149.000=380.000
,151.000=190.000
,151.500=95.000
,152.500=190.000
,153.000=380.000
,155.000=190.000
,155.500=95.000
,156.500=190.000
,157.000=380.000
,159.000=190.000
,159.500=95.000
,160.500=190.000
,161.000=380.000
,163.000=190.000
,163.500=95.000
,164.500=190.000
,165.000=380.000
,167.000=190.000
,167.500=95.000
,168.000=100.000
,168.500=200.000
,169.000=400.000
,171.000=200.000
,171.500=100.000
,172.500=200.000
,173.000=400.000
,175.000=200.000
,175.500=100.000
,176.500=200.000
,177.000=400.000
,179.000=200.000
,179.500=100.000
,180.500=200.000
,181.000=400.000
,183.000=200.000
,183.500=100.000
,184.000=110.000
,184.500=220.000
,185.000=440.000
,187.000=220.000
,187.500=110.000
,188.000=120.000
,188.500=240.000
,189.000=480.000
,191.000=240.000
,191.500=120.000
,192.000=140.000
,192.500=280.000
,193.000=560.000
,195.000=280.000
,195.500=140.000
,196.000=160.000
,196.500=320.000
,197.000=640.000
,199.000=320.000
,199.500=160.000
,200.000=180.000
,200.500=360.000
,201.500=180.000
,202.000=360.000
,203.000=180.000
,203.500=360.000
,204.500=180.000
,205.000=360.000
,206.000=180.000
,206.500=360.000
,207.500=180.000
,208.000=360.000
,209.000=180.000
,209.500=360.000
,210.500=180.000
,211.000=360.000
,212.000=720.000
,216.000=360.000
,218.000=90.000
,218.500=720.000
,220.500=360.000
,221.000=180.000
,221.250=90.000
,221.500=720.000
,223.500=360.000
,224.000=180.000
,224.250=90.000
,224.500=180.000
,225.000=360.000
,226.000=180.000
,226.500=360.000
,227.500=180.000
,228.000=360.000
,229.000=180.000
,229.500=360.000
,230.500=180.000
,231.000=360.000
,232.000=180.000
,232.500=360.000
,233.500=180.000
,234.000=360.000
,235.000=180.000
,235.500=360.000
,236.500=720.000
,240.500=360.000
,242.500=90.000
,243.000=720.000
,245.000=360.000
,245.500=180.000
,245.750=90.000
,246.000=720.000
,248.000=180.000
,249.000=380.000
,265.000=760.000
,269.000=190.000
,269.500=380.000
,272.500=760.000
,276.500=190.000
,277.000=380.000
,296.000=760.000
,304.000=570.000
,310.000=760.000
,318.000=65.000
,319.000=260.000
,321.000=130.000
,322.000=65.000
,323.000=260.000
,325.000=130.000
,326.000=70.000
,327.000=280.000
,329.000=140.000
,330.000=70.000
,331.000=280.000
,333.000=140.000
,333.979=75.000
,335.000=300.000
,337.000=150.000
,338.000=75.000
,339.000=300.000
,341.000=150.000
,342.000=80.000
,343.000=320.000
,345.000=160.000
,346.000=80.000
,347.000=320.000
,349.000=160.000
,350.000=220.000
,350.500=440.000
,351.500=220.000
,352.000=440.000
,353.000=220.000
,353.500=440.000
,354.500=220.000
,355.000=440.000
,356.000=220.000
,356.500=440.000
,357.500=220.000
,358.000=440.000
,361.000=220.000
,361.500=440.000
,362.500=220.000
,363.000=440.000
,364.000=220.000
,364.500=440.000
,365.500=220.000
,366.000=440.000
,367.000=220.000
,367.500=440.000
,368.500=220.000
,369.000=440.000
,371.000=880.000
,379.000=440.000
,393.000=110.000
,394.000=220.000
,396.000=440.000
,400.000=880.000
,408.000=440.000
,438.000=880.000
,446.000=440.000
,460.000=110.000
,461.000=220.000
,463.000=440.000
,467.000=880.000
,475.000=400.000
,507.000=600.000
,531.000=800.000
,563.000=1600.000
,571.000=800.000
,572.000=750.000
,573.000=700.000
,574.000=650.000
,575.000=600.000
,576.000=550.000
,577.000=500.000
,578.000=450.000
,579.000=400.000
,580.000=350.000
,581.000=300.000
,582.000=250.000
,583.000=200.000
,584.000=150.000
,585.000=100.000
,585.500=80.000
,586.000=60.000
,586.250=20.000
,586.625=1604.000
;
#STOPS:1.000=19.783
,212.000=0.056
,212.667=0.056
,213.333=0.056
,214.000=0.056
,214.667=0.056
,215.333=0.056
,218.500=0.056
,219.167=0.056
,219.833=0.056
,221.500=0.056
,222.167=0.056
,222.833=0.056
,236.500=0.056
,237.167=0.056
,237.833=0.056
,238.500=0.056
,239.167=0.056
,239.833=0.056
,243.000=0.056
,243.667=0.056
,244.333=0.056
,246.000=0.056
,246.667=0.056
,247.333=0.056
,265.000=0.078
,266.000=0.078
,267.000=0.078
,268.000=0.078
,272.500=0.078
,273.500=0.078
,274.500=0.078
,275.500=0.078
,296.000=0.078
,297.000=0.078
,298.000=0.078
,299.000=0.078
,300.000=0.078
,301.000=0.078
,302.000=0.078
,303.000=0.078
,359.000=0.068
,359.500=0.068
,360.000=0.068
,360.500=0.068
,370.000=0.068
,370.500=0.068
,563.000=0.900
;
#SPEEDS:0.000=1.000=0.000=0;
#SCROLLS:0.000=1.000;
#TICKCOUNTS:0.000=4;
#TIMESIGNATURES:0.000=4=4;
#LABELS:0.000=Song Start;
#COMBOS:0.000=1;
#DISPLAYBPM:20.000:999.000;
#CHARTNAME:;
#CHARTSTYLE:;
#CREDIT:;
#NOTES:
0000
0000
0000
0000
,
0000
0000
0000
0000
,
1000
0001
0010
1000
0010
0100
1000
0100
,
0010
1000
0010
0001
0100
0000
1001
0000
,
0001
0100
1000
0100
0010
1000
0010
0100
,
1000
0100
0010
1000
0100
0000
0110
0000
,
0001
0100
1000
0100
0001
0010
1000
0010
,
0100
1000
0010
0100
0001
0000
1001
0000
,
0001
0010
1000
0010
0001
0100
1000
0100
,
0010
1000
0001
0010
0100
0000
1001
0000
,
1000
1000
0010
0001
1000
0100
0001
0010
,
1000
0010
0001
0010
0100
0000
1001
0000
,
0001
0001
1000
0010
0001
0010
1000
0100
,
0001
0100
0010
0001
0100
0000
1001
0000
,
0100
0100
0100
0010
1000
0100
0001
0100
,
0010
0001
0100
1000
0100
0000
1001
0000
,
0010
0010
0010
0100
0001
0010
1000
0010
,
0001
0100
1000
0100
0010
0000
1001
0000
,
0010
1000
1100
0000
1000
0010
0001
0010
,
1000
0010
0001
0010
1000
0000
1100
0000
,
1000
0000
0000
0001
0000
0000
0000
0000
0000
0000
0100
0000
0010
0000
0100
0000
0001
0000
1000
0000
0010
0000
0100
0000
,
0001
0010
0100
0001
0100
0000
0110
0000
,
0010
0001
0100
0000
0110
0010
0010
0000
,
0010
0000
0000
1000
0000
0000
0100
0000
0000
0000
0000
0000
1000
0000
0100
0000
0010
0000
0001
0000
0010
0000
0100
0000
,
1000
0001
0100
0000
0101
0001
0001
0000
,
1000
0001
0100
0000
0010
0010
0010
0000
,
0100
0001
0011
0000
0001
0100
1000
0100
,
0001
0100
1000
0100
0001
0000
0011
0000
,
0001
0000
0000
1000
0000
0000
0000
0000
0000
0000
0010
0000
0100
0000
0010
0000
1000
0000
0001
0000
0100
0000
0010
0000
,
1000
0100
0010
1000
0010
0000
0110
0000
,
0100
1000
0010
0000
0110
0100
0100
0000
,
0100
0000
0000
0001
0000
0000
0010
0000
0000
0000
0000
0000
0001
0000
0010
0000
0100
0000
1000
0000
0100
0000
0010
0000
,
0001
1000
0010
0000
1010
0010
0010
0000
,
1000
0001
0100
0000
0010
0010
0010
0000
,
1001
0000
0100
0001
0020
0000
0000
0000
0001
0000
0000
0000
0130
1000
0010
0000
,
0100
0001
0100
0010
1000
0000
0100
0000
0010
0000
0000
0000
0001
0000
0000
0000
0200
0000
0000
0000
0000
0000
0000
0000
0300
0000
0000
0000
1001
0000
0000
0000
,
1001
0000
0010
1000
0200
0000
0000
0000
1000
0000
0000
0000
0310
0001
0100
0000
,
0010
1000
0010
0100
0001
0000
0010
0000
0100
0000
0000
0000
1000
0000
0000
0000
0020
0000
0000
0000
0000
0000
0000
0000
0030
0000
0000
0000
1001
0000
0000
0000
,
0110
0000
0010
1000
0200
0000
0000
0000
0010
0000
0000
0000
1300
0010
0100
0000
,
0010
1000
0100
0010
0001
0000
0100
0000
0010
0000
0000
0000
1000
0000
0000
0000
0200
0000
0000
0000
0000
0000
0000
0000
0300
0000
0000
0000
1001
0000
0000
0000
,
0110
0000
0100
0001
0020
0000
0000
0000
0100
0000
0000
0000
0031
0100
0010
0000
,
0100
0001
0010
0100
1000
0000
0010
0000
0100
0000
0000
0000
0001
0000
0000
0000
0020
0000
0000
0000
0000
0000
0000
0000
0030
0000
0000
0000
1001
0000
0000
0000
,
0101
0000
0100
0010
2000
0000
0000
0000
0010
0000
0000
0000
3001
0010
1000
0000
,
0100
1000
0010
0100
0001
0000
0010
0000
0100
0000
0000
0000
0010
0000
0000
0000
0002
0000
0000
0000
0000
0000
0000
0000
0003
0000
0000
0000
1001
0000
0000
0000
,
1010
0000
0010
0100
0002
0000
0000
0000
0100
0000
0000
0000
1003
0100
0001
0000
,
0010
0001
0100
0010
1000
0000
0100
0000
0010
0000
0000
0000
0100
0000
0000
0000
2000
0000
0000
0000
0000
0000
0000
0000
3000
0000
0000
0000
1001
0000
0000
0000
,
1010
0000
0010
1000
0200
0000
0000
0000
0010
0000
0000
0000
0301
0100
1000
0000
,
1010
1000
1100
0000
0010
0000
0000
0000
2002
0000
0000
0000
3003
0000
0110
0000
,
0101
0000
0100
0001
0020
0000
0000
0000
0100
0000
0000
0000
1030
0010
0001
0000
,
0101
0001
0011
0000
0100
0000
0000
0000
2002
0000
0000
0000
3003
0000
0110
0000
,
2000
0000
0000
3200
0000
0000
0320
0000
0000
2030
0000
0000
3020
0000
0000
0032
,
0000
0000
0203
0000
0000
2300
0000
0000
3200
0000
0000
0320
0000
0000
2030
0000
,
0000
3002
0000
0000
0023
0000
0000
2030
0000
0000
3020
0000
0000
0032
0000
0000
,
1003
0000
1000
0000
1000
0000
0001
0000
0001
0000
0001
0000
,
2002
0000
0000
0000
0000
0000
0000
0000
0000
3003
0000
0000
0110
0000
0000
0010
0000
0000
0000
0010
0000
0000
0000
0010
,
0000
0000
0000
0110
0000
0000
0000
0000
0000
0001
0000
0000
0000
0010
0000
0000
0000
1000
0000
0000
0000
1001
0000
0000
,
0000
0000
2000
0000
0000
3200
0000
0000
0320
0000
0000
2030
0000
0000
3020
0000
,
0000
0032
0000
0000
0203
0000
0000
2300
0000
0000
3200
0000
0000
0320
0000
0000
,
2030
0000
0000
3002
0000
0000
0023
0000
0000
2030
0000
0000
3020
0000
0000
0032
,
0000
0000
0000
1003
0000
0000
0000
1000
0000
0000
0000
1000
0000
0000
0000
0001
0000
0000
0000
0001
0000
0000
0000
0001
,
0000
0000
0000
2002
0000
0000
0000
0000
0000
0000
0000
0000
3003
0000
0000
0110
0000
0000
0010
0000
0000
0000
0010
0000
,
0000
0010
0000
0110
0000
0000
0001
0000
0010
0000
1000
0000
,
1001
0000
1000
0000
0001
0000
1000
0000
0000
0000
0000
0000
0011
0000
0000
0000
0000
0000
0010
0000
0000
0100
0000
0000
,
1000
0100
0010
0000
0011
0000
1020
0000
,
0001
0000
1030
0100
0001
0000
0100
0000
,
0001
0100
1000
0000
0010
0000
0001
0010
,
1000
0100
0011
0000
0011
0000
1100
0000
,
1100
0000
0000
0000
2002
0000
0000
3003
0000
0000
1000
0000
0010
0000
0100
0000
,
0001
0011
0000
0011
0000
1010
0000
1010
,
0000
2002
0000
3003
0001
0100
0010
1000
,
0001
0000
1100
0000
0100
0010
0001
0010
,
0100
1100
0201
1000
,
0301
0010
1000
0000
0010
0000
1000
0010
,
0001
0000
0100
0000
1000
0100
0001
0010
,
0100
1100
0101
0011
,
1010
0110
0011
1010
,
1000
0000
0000
0001
0000
0000
0010
0000
0000
1000
0000
0000
0001
0000
0000
0100
,
0000
0000
1000
0000
0000
0010
0000
0000
0001
0000
0000
0000
1000
0000
0000
0000
,
0100
0001
0010
1000
,
0010
0000
0000
0000
0001
0000
0000
0000
0200
1000
0001
0010
0301
0000
0010
0000
,
1000
0000
0010
0000
0001
0100
1000
0100
0020
1000
0001
0100
1030
0000
0010
0000
,
0001
0000
0010
0000
1000
0000
1001
0000
2000
0100
0010
0001
3100
0000
1000
0000
,
0100
0000
0001
0000
0100
0010
0001
0100
0002
0010
0100
1000
0013
0000
0001
0000
,
0010
0000
1000
0000
0010
0000
1001
0000
0020
1000
0001
0100
0031
0000
0100
0000
,
1000
0000
0001
0000
0010
1000
0001
1000
0200
0001
1000
0010
1300
0000
0010
0000
,
0001
0000
1000
0000
0100
0000
1001
0000
0200
0001
1000
0001
1300
0000
1000
0000
,
0001
0000
0001
0000
0100
0010
1000
0100
0020
1000
0001
1000
0031
0000
0001
0000
,
1000
1000
0010
1001
2000
0100
0000
3200
,
0001
0000
0302
0010
0000
0023
1000
0000
,
2030
0100
0000
3200
0010
0000
0310
0011
,
1000
1100
0002
0100
0000
0203
1000
0000
,
2300
0010
0000
3020
0001
0000
0032
1000
,
0000
2003
0001
0000
3001
1000
2002
0000
,
0000
0000
0000
0000
,
0000
0000
3003
1000
,
0001
0011
0010
0100
,
0001
0110
0010
0001
,
0100
0110
0010
0001
,
0010
0000
0000
0000
0000
0000
0000
0000
1000
0100
0010
0001
0010
0100
1000
0001
0100
0000
0010
0000
1000
0000
0100
0000
0010
0000
0001
0000
0100
0000
0010
0000
,
1000
0001
0100
0001
0010
0100
1000
0010
,
0100
0010
1000
0010
,
0100
0001
0010
0100
,
1000
0010
0001
0000
0010
0000
1000
0100
,
0001
0000
0100
0000
1000
0010
0100
0001
,
0010
1000
0010
0000
0001
0000
0100
1000
,
0100
0000
0010
0000
1000
0100
0010
0001
,
1000
0010
0001
0000
0010
0000
1000
0100
,
0001
0000
0100
0000
1000
0010
0100
0001
,
0010
1000
0010
0000
0001
0000
0100
1000
,
0100
0010
2002
0000
,
0000
0000
0000
0000
,
0000
3003
0001
1000
,
1100
0100
0010
1000
,
0110
0100
1000
0010
,
0110
0100
1000
0100
,
0001
0010
0100
1000
0100
0010
0001
1000
0010
0000
0100
0000
0001
0000
0010
0000
0100
0000
1000
0000
0010
0000
0100
0000
0001
0000
0000
0000
1000
0000
0000
0000
,
0010
1000
0100
0010
0001
0100
0010
0000
,
0100
0001
0100
0010
,
1000
0100
0010
0001
,
1000
0010
0100
1000
0100
0001
0010
0100
,
1000
0000
0100
0010
0100
0001
0010
0000
,
0100
1000
0010
0001
0010
0100
0001
0010
,
0100
0000
1000
0100
0010
0100
0010
0000
,
0001
0100
1000
0100
0010
1000
0100
0010
,
0001
0000
0100
0010
0100
0001
1000
0000
,
0100
1000
0010
0100
0001
0010
0100
0010
,
0001
0000
0000
0000
1000
0000
0010
0000
0100
0000
0001
0000
1100
0000
0000
0100
,
0000
0000
0010
0000
0000
0001
0000
0000
0010
0000
0000
1000
0000
0000
0010
0000
,
0000
0100
0000
0000
0010
0000
0000
0001
0000
0000
0100
0000
0000
1000
0000
0000
,
0100
0000
0000
0010
0000
0000
1000
0000
0000
0001
0000
0000
0011
0000
0000
0010
,
0000
0000
1000
0000
0000
0010
0000
0000
0001
0000
0000
0100
0000
0000
0010
0000
,
0000
1000
0000
0000
0001
0000
0000
0100
0000
0000
0010
0000
0000
1000
0000
0000
,
0001
0000
0000
0000
0000
0000
0000
0000
0000
0010
0000
0000
0000
0000
0000
0000
0000
0000
0100
0000
0000
0000
0000
0000
0000
0000
0000
1000
0000
0000
0000
0000
0000
0000
0000
0000
0001
0000
0000
0000
0000
0000
0000
0000
0010
0000
0000
0000
,
0000
0001
0000
0010
0000
0100
0000
1000
0000
0100
0000
1000
,
0000
0010
0000
0100
0000
0010
0000
1000
0000
0100
0000
0010
,
0000
0001
0000
0010
0000
0001
0000
0100
0000
0010
0000
1000
,
0000
0010
0000
0100
0000
0001
0000
0010
0000
0100
0000
0010
,
0000
0001
0000
0100
0000
0010
0000
1000
0000
0001
0000
0100
,
0000
0010
0000
1000
0000
0001
0000
0010
0000
0100
0000
1000
,
0000
0010
0000
0100
0000
0001
0000
1000
0000
0001
0000
0010
,
0000
0100
0000
1000
0000
0010
0000
0100
0000
0110
0000
0000
,
0000
0000
0000
0000
,
0000
0000
0000
0000
0000
0000
0000
0000
0000
0000
0000
2002
0000
0000
0000
0000
,
0000
0000
0000
0000
,
0000
0000
0000
0000
,
0000
0000
0000
0000
,
0000
0000
0000
0000
0000
0000
0000
0000
0000
0000
0000
0000
0000
0000
0000
0000
0000
0000
0000
0000
0000
3003
0110
0000
0000
0000
0000
0000
0000
0000
0000
0000
;
