#TITLE:我が麗しのバレンシア;
#SUBTITLE:;
#ARTIST:劇団レコード feat. Mille Face;
#TITLETRANSLIT:Waga uruwashi no Valencia;
#SUBTITLETRANSLIT:;
#ARTISTTRANSLIT:Gekidan Record feat. Mille Face;
#GENRE:;
#CREDIT:;
#BANNER:Waga uruwashi no Valencia.png;
#BACKGROUND:Waga uruwashi no Valencia-bg.png;
#LYRICSPATH:;
#CDTITLE:;
#MUSIC:Waga uruwashi no Valencia.ogg;
#OFFSET:-0.520000;
#SAMPLESTART:82.668266;
#SAMPLELENGTH:15.000007;
#SELECTABLE:YES;
#BPMS:0.000000=65.000000
,17.000000=128.000000
,18.000000=150.000000
;
#STOPS:
;
#BGCHANGES:;
#KEYSOUNDS:;
#ATTACKS:;

//---------------dance-single - ----------------
#NOTES:
     dance-single:
     :
     Hard:
     10:
     0.436391,0.453134,0.177700,0.186161,0.055002,361.000000,340.000000,21.000000,22.000000,0.000000,0.000000,0.436391,0.453134,0.177700,0.186161,0.055002,361.000000,340.000000,21.000000,22.000000,0.000000,0.000000:
0000
0000
0000
0000
,
0000
0000
0000
0000
,
1000
0000
0001
0010
0000
0010
0000
0010
0001
0000
0000
0000
1000
0100
0010
0001
,
1000
0000
0010
0100
0000
0100
0000
0100
0000
0000
0000
0000
0000
0000
0000
0000
,
1001
0000
0000
0000
1000
0001
0010
0000
,
0000
0000
0001
1000
0010
0100
0020
0000
,
0000
0000
2030
0000
3001
1000
0100
0000
,
0000
0000
0010
0001
1000
0010
0200
0000
,
0000
0000
0320
0000
1030
0001
0010
0000
,
0000
0000
0100
1000
0100
0010
0002
0000
,
0000
0000
2003
0000
3010
0100
0001
0000
,
0000
0000
1000
0001
0010
0100
2000
0000
,
0000
0000
3010
0010
0000
0000
1000
0100
,
0010
0001
0100
0001
0010
0100
1000
0100
,
0010
0100
1000
0010
0100
0000
0001
0100
,
0010
1000
0100
0010
0100
1000
0100
0010
,
0001
0100
0010
0100
0001
0000
1000
0001
,
0010
0100
0010
0001
0100
0010
1000
0010
,
0100
0001
0010
0100
0010
0000
1000
0100
,
1000
0100
0010
0100
1000
0001
0100
0000
,
0100
0000
0110
0000
0000
0100
0010
0000
,
0010
1000
0100
0000
0100
0000
0011
0001
,
0001
0000
0001
0000
0001
1000
0100
0000
,
0100
0000
0100
0000
1000
0000
0000
0010
0000
0000
1000
0000
1010
0000
1000
0000
,
1000
0000
0010
0000
0100
0001
0010
0000
,
0010
0000
0001
0000
1000
0000
0000
1000
0000
0000
0100
0000
1100
0000
0100
0000
,
0100
0000
0010
0001
1000
0100
0010
0000
,
0010
0000
0010
0001
0000
1000
0100
0010
,
0100
0100
0100
0000
0000
1000
0001
0000
,
0100
0010
1000
0000
1100
0000
1000
0001
,
0100
0001
0010
0100
0000
0100
1000
0000
,
0010
0000
1000
0000
0100
0000
0000
0010
0000
0000
0001
0000
0100
0000
0010
0000
,
1000
0100
0010
0100
0000
0100
1000
0000
,
0010
1000
0001
0000
0011
0000
0010
0001
,
1000
0010
1000
0001
0000
0001
0010
0000
,
0011
0000
1000
0000
1100
0000
1000
0100
,
0100
0100
0100
0100
0000
1000
1001
0000
,
0020
0032
0203
1300
,
0100
0010
1000
0000
0100
0010
0001
0000
,
1000
0100
0001
0100
1000
0010
0001
0000
,
0010
1000
0100
0000
0010
0001
1000
0000
,
0001
0010
1000
0010
0001
0100
0010
0010
,
0000
0000
1000
1000
0000
0000
0100
0100
,
0100
0000
0000
0000
0010
0000
0000
0001
0000
0000
1000
0000
0100
0000
1000
0000
,
0000
0010
0100
0000
0001
1000
2002
0000
,
0000
0000
3003
1010
,
1000
0100
0001
0100
1000
0100
0000
1000
,
0100
1000
0000
1001
0000
0200
0000
0310
,
1000
0200
0000
0320
0000
0032
0000
1003
,
0100
0010
0001
0100
0010
1000
0100
0000
,
0010
0001
0000
1000
0000
1001
0000
0000
,
0100
0000
0100
1000
0010
0100
0001
0000
,
0001
0000
0010
0000
0000
0000
0100
0000
0000
0000
0100
0000
1000
0000
0000
0001
,
0000
1000
0001
0000
1001
0000
0011
0000
,
0001
0100
1000
0100
0001
0010
0000
0100
,
1000
0100
0000
1100
0000
2000
0000
3100
,
0010
0002
0000
0203
0000
0320
0000
1030
,
0100
0010
0001
0100
0010
1000
0100
0000
,
0010
0001
0000
1000
0000
1001
0000
0000
,
0010
0000
0010
0001
0010
0100
1000
0000
,
1000
0001
0000
0010
0000
0110
0000
0000
,
1001
0000
1000
0100
0010
2002
0000
0000
,
0000
0000
0000
0000
,
3003
0000
0000
0000
;

//---------------dance-single - ----------------
#NOTES:
     dance-single:
     :
     Medium:
     7:
     0.333640,0.373169,0.203085,0.076157,0.008462,276.000000,252.000000,24.000000,9.000000,0.000000,0.000000,0.333640,0.373169,0.203085,0.076157,0.008462,276.000000,252.000000,24.000000,9.000000,0.000000,0.000000:
0000
0000
0000
0000
,
0000
0000
0000
0000
,
2000
3002
0023
0000
,
0032
2003
3100
0000
,
1001
0000
0000
0000
1000
0001
0100
0000
,
0000
0000
0010
1000
0010
1000
0010
0000
,
0000
0000
0101
0000
0001
0010
0100
0000
,
0000
0000
1000
0100
1000
0100
1000
0000
,
0000
0000
1010
0000
0010
1000
0001
0000
,
0000
0000
0010
0001
0010
0001
0010
0000
,
0000
0000
0011
0000
0001
1000
0100
0000
,
0000
0000
0010
0001
0010
0001
1000
0000
,
0000
0000
1001
0000
0000
0000
1000
0001
,
0100
0000
0001
1000
0100
0000
0010
0001
,
0100
0000
0010
0000
0100
0000
0001
1000
,
0100
0000
0010
0001
1000
0000
0100
1000
,
0001
0000
0100
0000
0010
0000
1000
0010
,
0100
0000
0001
1000
0100
0000
0010
0001
,
1000
0000
0100
0000
0010
0000
0001
1000
,
0010
0000
0100
0010
1000
0000
0100
0000
,
0100
0110
0000
1001
,
0000
0000
0000
0000
0010
0000
0010
0100
,
0000
0000
0000
0000
0000
1000
0001
0000
,
0000
0000
0000
0000
0010
0000
0010
0001
,
0000
0000
0000
0000
0000
0100
0010
0000
,
0000
0000
0000
0000
1000
0000
1000
0100
,
0000
0000
0000
0000
0000
0010
0001
0000
,
0000
0000
0000
0000
0100
0000
0010
1000
,
0100
0010
0001
0000
0000
0000
1000
0000
,
0010
0000
1000
0001
0010
0000
0100
1000
,
0100
1000
0100
0000
0010
0000
0001
0000
,
1000
0000
0010
0100
0001
0000
0010
0001
,
0010
0001
0010
0000
0001
0000
1000
0000
,
0010
0000
1000
0001
0100
0000
0010
0100
,
0010
0100
0010
0000
1000
0000
0100
0000
,
0010
0011
1100
1001
,
0000
0000
0000
0000
0000
0100
0010
0000
,
0100
0100
0100
0001
,
1000
0001
1000
0000
0010
1000
0010
0000
,
0100
0100
0110
0001
,
1000
0100
1000
0000
0001
0010
0001
0000
,
0010
0010
0110
1000
,
0000
0010
0000
0100
,
0000
0000
0000
0000
0001
0000
0000
1000
0000
0000
0001
0000
1000
0000
0000
0000
,
0000
0100
0000
0000
0010
0000
2002
0000
,
0000
0000
3003
1000
,
0010
0000
1000
0001
0000
1001
0000
0000
,
1000
0100
0000
0010
0000
0011
0000
0000
,
0001
1000
0000
0100
0000
1001
0000
0000
,
1000
0000
0010
0100
0010
0000
0100
0000
,
0001
0010
0000
0100
0000
1001
0000
0000
,
0010
0000
1000
0100
1000
0000
0010
0000
,
0100
0000
0001
0000
0000
0000
0010
0000
0000
0000
0100
0000
1000
0000
0000
0001
,
0000
1000
0001
0000
1001
0000
0001
0000
,
0010
0000
0001
1000
0000
1001
0000
0000
,
0001
0100
0000
0010
0000
1010
0000
0000
,
1000
0001
0000
0100
0000
1001
0000
0000
,
0001
0000
0010
0100
0010
0000
0001
0000
,
1000
0010
0000
0100
0000
1001
0000
0000
,
1000
0000
0001
0100
0001
0000
0100
0000
,
0010
1000
0000
0100
0000
0010
0000
0000
,
1001
0000
1000
0001
1000
2002
0000
0000
,
0000
0000
0000
0000
,
3003
0000
0000
0000
;

//---------------dance-single - ----------------
#NOTES:
     dance-single:
     :
     Easy:
     5:
     0.223635,0.266549,0.110004,0.016924,0.000000,185.000000,172.000000,13.000000,2.000000,0.000000,0.000000,0.223635,0.266549,0.110004,0.016924,0.000000,185.000000,172.000000,13.000000,2.000000,0.000000,0.000000:
0000
0000
0000
0000
,
0000
0000
0000
0000
,
0010
0000
0010
0000
,
0010
0000
0010
0000
,
1001
0000
0000
1000
,
0000
0100
0100
1000
,
0000
1001
0000
0001
,
0000
0010
0010
0001
,
0000
1001
0000
0100
,
0000
0010
0010
1000
,
0000
1001
0000
0010
,
0000
0100
0100
1000
,
0000
1001
0000
1000
,
0001
0100
0001
1000
,
0100
0010
0001
0010
,
0100
0010
0001
0100
,
0010
1000
0100
1000
,
0100
0001
0100
0010
,
0001
0100
1000
0100
,
0010
1000
0100
0010
,
0010
1001
0000
0100
,
0000
0000
0100
0100
,
0000
0000
0000
0010
,
0000
0000
0010
0010
,
0000
0000
0000
1000
,
0000
0000
1000
1000
,
0000
0000
0000
0001
,
0000
0000
0010
0001
,
1000
1001
0000
1000
,
0100
0100
1000
0010
,
0000
0010
0000
0100
,
0001
0001
0010
0100
,
0000
0100
0000
1000
,
0001
0010
0010
0001
,
0000
0001
0000
0100
,
0010
0010
1000
0100
,
0100
0100
0100
0110
,
0000
0000
0000
1000
,
0001
1000
0001
0100
,
0010
0100
0100
0001
,
1000
0001
0010
0100
,
1000
0010
0010
1000
,
0000
0001
0000
0100
,
0000
0010
0000
1000
,
0000
0001
0000
1001
,
0000
0000
0000
1000
,
0010
1000
0100
0010
,
0001
0100
0010
1000
,
0000
0001
0000
0100
,
0100
0100
0000
0010
,
1000
0100
0010
1001
,
0000
0001
0000
1000
,
0010
0100
0001
0010
,
0010
0110
0000
0001
,
0010
0001
0100
0010
,
1000
0100
0010
0001
,
0000
1000
0000
0100
,
0100
0100
0000
0010
,
0001
0100
0010
1001
,
0000
1000
0000
0001
,
0010
0100
1000
0010
,
0000
0000
0010
0000
0000
2002
0000
0000
,
0000
0000
0000
0000
,
3003
0000
0000
0000
;

//---------------dance-single - ----------------
#NOTES:
     dance-single:
     :
     Beginner:
     2:
     0.117258,0.154218,0.067695,0.000000,0.000000,97.000000,89.000000,8.000000,0.000000,0.000000,0.000000,0.117258,0.154218,0.067695,0.000000,0.000000,97.000000,89.000000,8.000000,0.000000,0.000000,0.000000:
// measure 0
0000
0000
0000
0000
,  // measure 1
0000
0000
0000
0000
,  // measure 2
0000
0000
0000
0000
,  // measure 3
0000
0000
0000
0000
,  // measure 4
0000
0000
0000
1000
,  // measure 5
0000
0000
0000
1000
,  // measure 6
0000
0000
0000
0001
,  // measure 7
0000
0000
0000
0001
,  // measure 8
0000
0000
0000
0100
,  // measure 9
0000
0000
0000
0100
,  // measure 10
0000
0000
0000
0010
,  // measure 11
0000
0000
0000
0010
,  // measure 12
0000
1001
0000
1000
,  // measure 13
0000
1000
0000
0001
,  // measure 14
0000
0100
0000
0010
,  // measure 15
0000
0010
0000
1000
,  // measure 16
0000
0001
0000
0010
,  // measure 17
0000
0010
0000
0001
,  // measure 18
0000
1000
0000
0100
,  // measure 19
0000
0100
0000
0010
,  // measure 20
0000
1001
0000
1000
,  // measure 21
0000
0000
0000
1000
,  // measure 22
0000
0000
0000
0001
,  // measure 23
0000
0000
0000
0001
,  // measure 24
0000
0000
0000
0100
,  // measure 25
0000
0000
0000
0100
,  // measure 26
0000
0000
0000
0010
,  // measure 27
0000
0000
0000
0010
,  // measure 28
0010
0010
0000
1000
,  // measure 29
0000
1000
0000
0100
,  // measure 30
0000
0000
0000
0010
,  // measure 31
0000
0010
0000
0001
,  // measure 32
0000
0000
0000
1000
,  // measure 33
0000
1000
0000
0001
,  // measure 34
0000
0000
0000
0010
,  // measure 35
0000
0010
0000
0001
,  // measure 36
0000
1000
0000
1001
,  // measure 37
0000
0000
0000
0100
,  // measure 38
0000
0100
0000
0100
,  // measure 39
0000
0100
0000
0100
,  // measure 40
0000
0100
0000
0100
,  // measure 41
0000
0100
0000
0100
,  // measure 42
0000
0000
0000
0010
,  // measure 43
0000
0000
0000
1000
,  // measure 44
0000
0001
0000
1001
,  // measure 45
0000
0000
0000
1000
,  // measure 46
0000
0001
0000
0010
,  // measure 47
0000
0100
0000
1000
,  // measure 48
0000
0000
0000
0010
,  // measure 49
0000
0010
0000
0100
,  // measure 50
0000
0100
0000
1001
,  // measure 51
0000
0000
0000
0010
,  // measure 52
0000
0001
0000
0100
,  // measure 53
0000
1001
0000
0001
,  // measure 54
0000
1000
0000
0010
,  // measure 55
0000
0100
0000
0001
,  // measure 56
0000
0000
0000
0010
,  // measure 57
0000
0010
0000
0100
,  // measure 58
0000
0100
0000
1001
,  // measure 59
0000
0000
0000
0010
,  // measure 60
0000
1000
0000
1001
;
