#TITLE:サタデー・ナイト・クエスチョン;
#SUBTITLE:;
#ARTIST:中島 愛;
#TITLETRANSLIT:Saturday Night Question;
#SUBTITLETRANSLIT:;
#ARTISTTRANSLIT:Nakajima Megumi;
#GENRE:;
#CREDIT:;
#BANNER:Saturday Night Question.png;
#BACKGROUND:Saturday Night Question-bg.png;
#LYRICSPATH:;
#CDTITLE:;
#MUSIC:Saturday Night Question.ogg;
#OFFSET:1.105000;
#SAMPLESTART:51.713100;
#SAMPLELENGTH:14.999991;
#LASTBEATHINT:0.146961;
#SELECTABLE:YES;
#DISPLAYBPM:155.000000;
#BPMS:0.000000=155.000000
;
#STOPS:
;
#BGCHANGES:0.000=Saturday Night Question.avi=1.000=0=0=0=StretchNoLoop====,
99999=-nosongbg-=1.000=0=0=0 // don't automatically add -songbackground-
;
#KEYSOUNDS:;
#ATTACKS:;

//---------------dance-single - ----------------
#NOTES:
     dance-single:
     :
     Hard:
     11:
     0.488227,0.513748,0.155345,0.244114,0.000000,308.000000,294.000000,14.000000,22.000000,0.000000,0.000000,0.488227,0.513748,0.155345,0.244114,0.000000,308.000000,294.000000,14.000000,22.000000,0.000000,0.000000:
0000
0000
0000
0000
,
0000
0000
0000
0000
,
0000
0000
0000
0000
,
0000
0000
0000
0000
,
0000
0000
0000
0000
,
0000
0000
0000
0000
,
0000
0000
0010
1000
0100
0000
0010
0001
,
0100
0000
0010
1000
0010
0100
0010
0001
,
0010
0000
0100
0001
0010
0000
0100
1000
,
0010
0000
0100
1000
0100
0010
0100
0001
,
0100
0000
0000
0010
1000
0100
0000
1000
,
0001
0010
0000
0100
0010
0001
0000
0100
,
0010
1000
0000
0100
1000
0010
0000
1000
,
0001
0010
0000
0100
0010
0001
0010
0100
,
1000
0010
0000
0100
0001
1000
0010
0100
,
0001
0010
0000
0100
1000
0010
0100
0001
,
1000
0200
0010
0000
0010
0000
1000
0000
,
1000
0000
0310
0000
1001
0000
1000
0100
,
0010
0001
1000
0010
1000
0000
0010
0000
,
0100
0010
0000
1000
0001
0100
0010
0000
,
1000
0001
0000
0010
0100
1000
0001
0100
,
0010
0100
0000
0001
1000
0010
0100
0001
,
0010
0100
0000
0010
0001
0000
0100
0010
,
0100
0010
0000
1000
0100
0010
0100
1000
,
0001
2000
0010
0000
0010
0000
0100
0000
,
0100
0000
3010
1000
0010
0100
0001
0010
,
0100
2000
0010
0000
0010
0000
3010
0100
,
0001
0020
0100
0000
0100
0000
0130
0000
,
0110
0000
2000
0000
0001
0000
3001
1000
,
0010
0200
0001
0000
0001
0000
0301
0000
,
1000
0002
0010
0000
0013
0200
1000
0000
,
1300
0020
0100
0000
0130
0002
1000
0000
,
1003
0100
0000
0010
0010
0000
0110
0000
,
1001
0000
1000
0001
1000
0001
0000
0000
,
0000
0001
2000
0000
0010
0000
3010
1000
,
0100
0010
0000
0010
0100
1000
0000
1000
,
0001
0100
0002
0000
0010
0000
0013
0001
,
0100
0010
0000
0010
0100
0001
0000
0001
,
1000
0200
0010
0000
0010
0000
0310
0001
,
0100
0020
1000
0000
1000
0000
1000
0000
,
1030
0100
0010
0000
0010
0001
0000
0101
,
0000
0100
0010
0000
1000
0001
0000
1001
,
0000
1000
0002
0000
0100
0000
0103
0001
,
0010
0100
0000
0100
0010
0001
0000
0001
,
1000
0010
2000
0000
0100
0000
3100
1000
,
0010
0100
0000
0100
0010
1000
0000
1000
,
0001
0020
0100
0000
0100
0000
0130
1000
,
0010
0200
0001
0000
0001
0000
0001
0000
,
0301
0010
0100
0000
0100
1000
0000
1010
,
0000
0010
0100
0001
0000
0100
0000
1001
,
0000
2000
0001
0000
0000
0010
0000
0000
,
3002
0000
0000
0100
0000
0000
1003
0000
,
0001
1000
0100
0000
0100
0010
0000
0110
,
0000
0010
0002
2000
0000
0000
3003
0000
,
0000
0000
0010
0110
0000
0000
0010
0110
,
0000
0000
0010
1000
0100
0010
0001
0100
,
0010
1000
0100
0110
0000
0000
0100
0110
,
0000
0000
0100
1000
0010
0100
0001
1001
;

//---------------dance-single - ----------------
#NOTES:
     dance-single:
     :
     Medium:
     10:
     0.429576,0.481639,0.210825,0.144249,0.000000,271.000000,252.000000,19.000000,13.000000,0.000000,0.000000,0.429576,0.481639,0.210825,0.144249,0.000000,271.000000,252.000000,19.000000,13.000000,0.000000,0.000000:
0000
0000
0000
0000
,
0000
0000
0000
0000
,
0000
0000
0000
0000
,
0000
0000
0000
0000
,
0000
0000
0000
0000
,
0000
0000
0000
0000
,
0000
0000
1000
0001
1000
0000
0010
1000
,
0010
0000
0100
0010
0100
0000
0010
0000
,
1001
0000
0001
0010
0001
0000
1000
0100
,
1000
0000
0010
0100
0010
0000
0100
0000
,
1001
0000
0000
1000
0010
0100
0000
0010
,
0000
1000
0000
1000
0001
0010
0000
0001
,
0000
0001
0000
0100
0001
0010
0000
0001
,
0000
0001
0000
0100
0010
0100
0010
0100
,
0000
1001
0000
1000
0001
0010
0000
0100
,
0000
0100
0000
1000
0001
0010
0000
0100
,
1000
0001
0100
0000
0100
0000
0010
0000
,
0010
0000
1000
0000
1001
0000
0001
0010
,
0100
1000
0001
0000
0001
0000
1000
0000
,
1000
0000
0100
0010
0001
0000
0001
0000
,
1001
0010
0010
0100
,
0100
0000
0010
1000
0100
0000
0010
0000
,
0110
0001
0001
1000
,
1000
0000
0010
1000
0100
0000
0010
0000
,
1001
0100
1001
0100
,
0110
0000
0001
1000
0001
1000
0100
0000
,
0110
0012
0100
0010
,
0100
2003
0010
0100
,
0010
3002
0100
0010
,
0103
0020
1000
0230
,
0001
0000
0310
0000
1000
0100
0000
0000
,
0010
0001
0000
0000
0100
0010
0000
0000
,
1000
0001
0000
0001
0100
0000
0010
0000
,
0110
0000
1000
0001
1000
0001
0000
0000
,
0000
0001
2000
0000
0010
0000
3010
0000
,
1000
0100
0000
0100
0010
0001
0000
0001
,
0100
0010
0200
0000
0001
0000
0301
0000
,
0010
0100
0000
0100
1000
0010
0000
0010
,
0100
0001
1000
0000
1000
0000
0001
0010
,
0001
0100
0010
0000
0010
0000
0010
0000
,
0010
1000
0100
0000
0010
0001
0000
0011
,
0000
0001
0010
0000
0100
1000
0000
1001
,
0000
1000
0002
0000
0100
0000
0103
0000
,
0001
0010
0000
0010
0100
1000
0000
1000
,
0010
0100
0020
0000
1000
0000
1030
0000
,
0100
0010
0000
0010
0001
0100
0000
0100
,
0010
1000
0001
0000
0001
0000
1000
0100
,
1000
0010
0100
0000
0100
0000
0100
0000
,
0100
0001
0010
0000
0100
1000
0000
1100
,
0000
1000
0100
0000
0010
0001
0000
1001
,
0000
1000
0002
0000
0000
0100
0000
0000
,
2003
0000
0000
0100
0000
0000
3010
0000
,
0010
0000
1001
0000
1000
0100
0000
0110
,
0000
0010
0002
2000
0000
0000
3003
0000
,
0000
0000
0010
0010
0000
0000
0010
0010
,
0000
0000
1000
0001
1000
0000
0010
0000
,
1001
0000
0100
0100
0000
0000
0100
0100
,
0000
0000
0001
1000
0001
0000
1000
0001
;

//---------------dance-single - ----------------
#NOTES:
     dance-single:
     :
     Easy:
     5:
     0.258380,0.320399,0.133153,0.088769,0.000000,163.000000,151.000000,12.000000,8.000000,0.000000,0.000000,0.258380,0.320399,0.133153,0.088769,0.000000,163.000000,151.000000,12.000000,8.000000,0.000000,0.000000:
// measure 0
0000
0000
0000
0000
,  // measure 1
0000
0000
0000
0000
,  // measure 2
0000
0000
0000
0000
,  // measure 3
0000
0000
0000
0000
,  // measure 4
0000
0000
0000
0000
,  // measure 5
0000
0000
0000
0000
,  // measure 6
0000
1000
0000
1000
,  // measure 7
0000
0001
0100
0001
,  // measure 8
0000
1000
0000
1000
,  // measure 9
0000
0001
0100
0001
,  // measure 10
0000
1000
0010
0100
,  // measure 11
0010
1000
0100
0010
,  // measure 12
0000
0001
0100
0010
,  // measure 13
0100
0001
0010
0100
,  // measure 14
0000
1000
0010
0100
,  // measure 15
0010
1000
0100
0010
,  // measure 16
0000
0001
0100
0001
,  // measure 17
0010
0100
1000
1001
,  // measure 18
0000
0010
0010
0010
,  // measure 19
0010
1000
0100
1001
,  // measure 20
0000
0100
0100
0100
,  // measure 21
0100
0001
0010
1001
,  // measure 22
0000
1000
1000
1000
,  // measure 23
1000
0010
1000
1001
,  // measure 24
0000
0001
0001
0001
,  // measure 25
0001
0010
0001
1001
,  // measure 26
0000
2000
0000
0000
,  // measure 27
3010
0002
0000
0000
,  // measure 28
0103
2000
0000
3010
,  // measure 29
0001
0200
0000
0301
,  // measure 30
0001
1000
1000
0001
,  // measure 31
0001
1000
1000
1001
,  // measure 32
0000
0100
0000
0100
,  // measure 33
0000
0110
0000
1001
,  // measure 34
0000
1000
0000
0001
,  // measure 35
0010
0001
0010
0100
,  // measure 36
0000
0001
0000
1000
,  // measure 37
0010
1000
0010
0100
,  // measure 38
0000
0010
0000
0010
,  // measure 39
0000
0010
0000
0010
,  // measure 40
0000
1000
0001
1000
,  // measure 41
0001
0100
0000
1001
,  // measure 42
0000
0001
0000
1000
,  // measure 43
0100
1000
0100
0010
,  // measure 44
0000
1000
0000
0001
,  // measure 45
0100
0001
0100
0010
,  // measure 46
0000
0100
0000
0100
,  // measure 47
0000
0100
0000
0100
,  // measure 48
0000
0001
1000
0001
,  // measure 49
1000
0010
0000
1001
,  // measure 50
0000
2000
0000
0010
,  // measure 51
0000
3002
0000
0010
,  // measure 52
0000
1003
1000
0001
,  // measure 53
0001
2002
0000
3003
,  // measure 54
0000
1000
0000
0001
,  // measure 55
0000
0100
0010
0100
,  // measure 56
0010
1000
0000
0001
,  // measure 57
0000
0100
0010
1001
;

//---------------dance-single - ----------------
#NOTES:
     dance-single:
     :
     Beginner:
     3:
     0.152175,0.256319,0.033288,0.000000,0.000000,96.000000,93.000000,3.000000,0.000000,0.000000,0.000000,0.152175,0.256319,0.033288,0.000000,0.000000,96.000000,93.000000,3.000000,0.000000,0.000000,0.000000:
// measure 0
0000
0000
0000
0000
,  // measure 1
0000
0000
0000
0000
,  // measure 2
0000
0000
0000
0000
,  // measure 3
0000
0000
0000
0000
,  // measure 4
0000
0000
0000
0000
,  // measure 5
0000
0000
0000
0000
,  // measure 6
0000
1000
0000
0000
,  // measure 7
0000
0001
0000
0000
,  // measure 8
0000
1000
0000
0000
,  // measure 9
0000
0001
0000
0000
,  // measure 10
0000
0100
0000
0100
,  // measure 11
0000
0100
0000
0100
,  // measure 12
0000
0100
0000
0100
,  // measure 13
0000
0100
0000
0000
,  // measure 14
0000
0010
0000
0010
,  // measure 15
0000
0010
0000
0010
,  // measure 16
0000
0010
0000
0010
,  // measure 17
0000
0010
0000
0000
,  // measure 18
0000
1000
0000
0001
,  // measure 19
0000
1000
0000
0001
,  // measure 20
0000
0100
0000
0010
,  // measure 21
0000
0100
0000
0000
,  // measure 22
0000
0010
0000
1000
,  // measure 23
0000
0001
0000
0010
,  // measure 24
0000
0100
0000
1000
,  // measure 25
0000
0001
0000
0000
,  // measure 26
0000
0100
0100
0000
,  // measure 27
0000
0100
0100
0000
,  // measure 28
0000
0100
0100
0000
,  // measure 29
0000
0100
0100
0000
,  // measure 30
0000
0010
0000
0000
,  // measure 31
0000
0100
0000
0000
,  // measure 32
0000
1001
0000
0000
,  // measure 33
0000
0000
0000
0000
,  // measure 34
0000
1000
0000
0001
,  // measure 35
0000
0010
0010
0010
,  // measure 36
0000
0001
0000
1000
,  // measure 37
0000
0010
0010
0010
,  // measure 38
0000
1000
0000
0000
,  // measure 39
0000
0001
0000
0000
,  // measure 40
0000
0010
0010
0010
,  // measure 41
0000
0010
0010
0010
,  // measure 42
0000
0001
0000
1000
,  // measure 43
0000
0100
0100
0100
,  // measure 44
0000
1000
0000
0001
,  // measure 45
0000
0100
0100
0100
,  // measure 46
0000
0001
0000
0000
,  // measure 47
0000
1000
0000
0000
,  // measure 48
0000
0100
0100
0100
,  // measure 49
0000
0100
0100
0100
,  // measure 50
0000
1001
0000
0000
,  // measure 51
0000
0000
0000
0000
,  // measure 52
0000
0010
0000
0010
,  // measure 53
0000
1001
0000
0000
,  // measure 54
0000
0010
0000
0010
,  // measure 55
0000
1000
1000
0001
,  // measure 56
0000
0010
0000
0010
,  // measure 57
0000
1000
1000
0001
;
