#TITLE:量子の海のリントヴルム;
#SUBTITLE:;
#ARTIST:黒猫ダンジョン;
#TITLETRANSLIT:Ryoushi no umi no Lindwurm;
#SUBTITLETRANSLIT:;
#ARTISTTRANSLIT:Kuroneko Dungeon;
#GENRE:;
#CREDIT:;
#BANNER:Ryoushi no umi no Lindwurm.png;
#BACKGROUND:Ryoushi no umi no Lindwurm-bg.png;
#LYRICSPATH:;
#CDTITLE:;
#MUSIC:Ryoushi no umi no Lindwurm.ogg;
#OFFSET:0.220000;
#SAMPLESTART:71.565041;
#SAMPLELENGTH:14.999995;
#SELECTABLE:YES;
#DISPLAYBPM:140.000000:280.000000;
#BPMS:0.000000=140.000000
,12.000000=280.000000
,68.000000=140.000000
,76.000000=280.000000
,92.000000=186.667007
,108.000000=280.000000
,259.000000=140.000000
,263.000000=280.000000
,399.000000=140.000000
,400.500000=280.000000
;
#STOPS:
;
#BGCHANGES:0.000=Ryoushi no umi no Lindwurm.avi=1.000=0=0=0=StretchNoLoop====,
99999=-nosongbg-=1.000=0=0=0 // don't automatically add -songbackground-
;
#KEYSOUNDS:;
#ATTACKS:;

//---------------dance-single - ----------------
#NOTES:
     dance-single:
     :
     Hard:
     16:
     0.875330,0.987103,0.303244,0.151622,0.111487,687.000000,653.000000,34.000000,17.000000,0.000000,0.000000,0.875330,0.987103,0.303244,0.151622,0.111487,687.000000,653.000000,34.000000,17.000000,0.000000,0.000000:
// measure 0
0000
0000
0000
0000
,  // measure 1
0000
0000
0000
0000
,  // measure 2
0000
0000
0000
0000
,  // measure 3
1000
0000
0010
1000
0000
0100
0000
1100
,  // measure 4
0000
0000
0011
0000
0001
0000
0100
0010
,  // measure 5
0000
1000
0000
1100
0000
0100
1000
0100
,  // measure 6
0010
0001
0010
0000
0110
0000
0010
0001
,  // measure 7
0010
0100
1000
0000
0001
0100
0010
0100
,  // measure 8
0001
1000
0001
0000
0100
0001
0000
0010
,  // measure 9
0000
0011
0000
0000
1100
0000
1000
0000
,  // measure 10
0010
0100
0000
0001
0000
0011
0000
0010
,  // measure 11
0001
0010
0100
1000
0100
0000
0110
0000
,  // measure 12
0100
1000
0100
0010
0001
0000
1000
0010
,  // measure 13
0100
0010
1000
0000
0011
0000
0000
0110
,  // measure 14
0000
0100
0000
1000
0100
0000
0022
0000
,  // measure 15
0033
0000
1010
0000
0010
0100
0001
1000
,  // measure 16
0000
1000
0100
0000
0220
0000
0330
0000
,  // measure 17
1000
0100
1000
0100
0001
0100
0001
0100
,  // measure 18
1000
0010
1000
0010
0001
0010
0001
0010
,  // measure 19
1000
0100
1000
0100
1000
0100
0010
0001
,  // measure 20
0010
0001
0010
0001
0010
0100
1000
0000
,  // measure 21
0001
0100
0001
0100
0001
0100
0001
0100
,  // measure 22
0010
1000
0010
1000
0010
0100
0001
0000
,  // measure 23
1000
0000
1000
0001
0000
0001
0100
0010
1000
0100
0000
0010
,  // measure 24
0001
0000
0001
1000
0000
1000
0100
1000
0010
0100
0000
0010
,  // measure 25
0100
0000
0100
0001
0000
0001
1000
0010
0100
0001
0000
0100
,  // measure 26
0010
0000
0010
1000
0000
1000
0100
1000
0010
0100
0000
0001
,  // measure 27
1000
0100
0000
0100
0000
0110
0000
0000
,  // measure 28
0010
0001
0010
0001
0010
0001
0010
0000
,  // measure 29
0100
1000
0000
1100
0000
1001
0000
0000
,  // measure 30
1000
0001
1000
0001
0000
1001
0000
0000
,  // measure 31
1000
0001
1000
0001
,  // measure 32
1000
0100
1000
0100
,  // measure 33
1000
0001
1000
0001
,  // measure 34
0010
0001
0010
0001
,  // measure 35
0100
0010
0100
1000
,  // measure 36
0100
0010
0001
0010
,  // measure 37
1000
0100
0010
0001
,  // measure 38
0010
0001
0010
0000
0100
1000
0100
0000
,  // measure 39
1000
0100
1000
0100
0010
0001
0010
0000
,  // measure 40
0001
0010
0100
1000
0010
0100
0010
0000
,  // measure 41
1000
0100
0010
0001
0010
0001
0100
0000
,  // measure 42
0010
1000
0100
2000
0000
0000
0010
0000
,  // measure 43
3001
0100
0010
1000
0100
0010
0001
0000
,  // measure 44
1000
0010
1000
0100
0010
0100
1000
0000
,  // measure 45
0010
1000
0001
0010
0100
0010
0001
0000
,  // measure 46
0100
0010
1000
0002
0000
0000
0100
0000
,  // measure 47
1003
0100
0001
0000
0100
0000
1000
0000
,  // measure 48
0001
0010
1000
0000
0010
0000
0001
0000
,  // measure 49
1000
0010
0001
0000
0010
0000
1000
0000
,  // measure 50
0001
0100
1000
0200
0000
0000
0010
0000
,  // measure 51
0301
1000
0000
0000
0100
1000
0000
0010
,  // measure 52
0100
0000
0001
0010
0000
0100
0000
1100
,  // measure 53
0000
1000
0001
1001
,  // measure 54
1000
0010
0100
0001
0010
0100
1000
0000
,  // measure 55
0001
0100
0001
0010
0100
0010
0001
0000
,  // measure 56
0100
0001
1000
0100
0010
0100
1000
0000
,  // measure 57
0010
0100
0001
2000
0000
0000
0010
0000
,  // measure 58
3001
1000
0000
0000
0100
1000
0000
0010
,  // measure 59
0100
0000
0001
0010
0000
0100
0000
1100
,  // measure 60
0000
1000
0001
1001
,  // measure 61
0010
0100
0010
0100
0010
0000
1000
0100
,  // measure 62
1000
0100
0010
0001
0010
0001
0100
0010
,  // measure 63
0100
0010
1000
0100
1000
0100
0010
0001
,  // measure 64
0010
0001
0100
0010
0100
0010
1000
0000
,  // measure 65
0000
0000
0000
0000
0000
0000
0000
1000
0001
1000
0001
0000
1000
0000
0000
0000
,  // measure 66
0011
0000
0001
1000
0100
0000
1000
0000
,  // measure 67
1010
0000
0100
0000
1000
0001
0010
0000
,  // measure 68
0001
0000
0110
0000
0010
0000
0100
1000
,  // measure 69
0001
1000
1010
0010
,  // measure 70
0100
0010
0100
0010
0100
0000
0001
0000
,  // measure 71
1010
0000
0010
1000
0001
0000
0010
0000
,  // measure 72
1100
0000
1000
0000
0010
0100
0001
0000
,  // measure 73
0010
0000
1100
0000
0100
0000
0010
0001
,  // measure 74
0100
0010
0101
0010
,  // measure 75
0100
0010
0100
0010
0100
0010
0100
0000
,  // measure 76
0001
0100
0001
0000
1000
0000
0001
0010
,  // measure 77
0001
0100
0010
1000
0100
1000
0010
0000
,  // measure 78
0100
0000
0001
0000
0011
0000
0010
0001
,  // measure 79
0010
0100
1000
0100
1000
0010
0100
0001
,  // measure 80
0010
0100
0000
0100
0000
0100
1000
0010
,  // measure 81
0100
0001
0000
0001
0000
0001
0100
0010
,  // measure 82
0100
0001
0010
0100
1000
0100
1000
0010
,  // measure 83
0100
0001
0010
0100
1000
0000
0010
0000
,  // measure 84
1000
0100
1000
0000
0001
0000
1000
0100
,  // measure 85
1000
0010
0100
0001
0010
0001
0100
0000
,  // measure 86
0010
0000
1000
0000
1100
0000
0100
1000
,  // measure 87
0100
0010
0001
0010
0001
0100
0010
1000
,  // measure 88
0100
0010
0000
0010
0000
0010
0001
0100
,  // measure 89
0010
1000
0000
1000
0000
1000
0010
0100
,  // measure 90
0010
1000
0100
0010
0001
0010
0001
0100
,  // measure 91
0010
1000
0100
0010
0001
0000
1000
0100
,  // measure 92
1000
0100
0010
0000
0001
0100
0001
0100
,  // measure 93
0010
0000
1000
0000
0001
0000
1000
0100
,  // measure 94
0000
0010
0001
0000
0100
0010
0000
0220
,  // measure 95
0000
0000
0000
0000
0330
0000
0001
0010
,  // measure 96
0001
0010
0100
0000
1000
0010
1000
0010
,  // measure 97
0100
0000
0001
0000
1000
0000
0001
0010
,  // measure 98
0000
0100
1000
0000
0010
0100
0000
0220
,  // measure 99
0000
0000
0000
0000
0000
0000
0330
0000
0000
0000
0000
0000
1000
0100
0010
0001
,  // measure 100
1000
0100
0010
0000
0001
0000
0010
0000
0001
0000
0010
0000
0000
0000
0100
0000
,  // measure 101
1000
0100
1000
0100
0000
1000
0010
1000
,  // measure 102
0010
1000
0000
0001
0100
0001
0100
0001
,  // measure 103
0100
0010
0100
0010
0100
0010
0000
1000
,  // measure 104
0100
1000
0100
1000
0000
0010
0100
0010
,  // measure 105
0100
0010
0000
0100
0001
0100
0001
0100
,  // measure 106
0010
1000
0001
0100
0010
0100
0000
0001
,  // measure 107
0010
0100
1000
0010
0000
1000
0100
0010
,  // measure 108
0001
0100
0000
0010
1000
0100
0010
0001
,  // measure 109
0100
0010
1000
0010
0100
0001
0000
0010
,  // measure 110
0001
0100
0010
1000
0000
0001
0010
0100
,  // measure 111
0010
0001
0010
0100
1000
0010
0100
0010
,  // measure 112
1000
0002
0000
0000
0003
0000
2000
0000
,  // measure 113
0000
3000
0000
0002
0000
0000
0003
0000
,  // measure 114
2002
0000
0000
0000
,  // measure 115
0000
0000
0000
0000
,  // measure 116
0000
0000
3003
0000
;

//---------------dance-single - ----------------
#NOTES:
     dance-single:
     :
     Medium:
     13:
     0.619229,0.831245,0.365676,0.205136,0.035676,486.000000,445.000000,41.000000,23.000000,0.000000,0.000000,0.619229,0.831245,0.365676,0.205136,0.035676,486.000000,445.000000,41.000000,23.000000,0.000000,0.000000:
0000
0000
0000
0000
,
0000
0000
0000
0000
,
0000
0000
0000
0000
,
1000
0000
1000
0001
0000
0100
0000
0010
,
0000
0000
0010
0000
1000
0000
0001
0010
,
0000
0010
0000
0001
0000
1000
0000
1000
,
0000
0010
0000
0000
2001
0000
0001
0000
,
3001
1000
0100
1000
,
1000
0000
0001
0000
0001
1000
0000
0010
,
0000
0100
0000
0000
0100
0000
0001
0000
,
1000
0100
0000
0100
0000
1000
0000
0001
,
0000
0001
0000
0100
0000
0000
1002
0000
,
1000
1003
0001
0010
,
0001
0000
1000
0000
1001
0000
0000
1000
,
0000
0110
0000
0001
0000
0000
2002
0000
,
3003
0000
0110
0000
0000
0010
0000
1001
,
0000
0100
0000
0000
2002
0000
3003
0000
,
1000
0001
1000
0000
0001
0100
0001
0000
,
1000
0010
1000
0000
0010
0100
0010
0000
,
1000
0100
1000
0001
,
0100
0001
0010
0100
,
0010
0001
0100
0010
,
1000
0100
0110
0000
,
1000
0000
1000
0001
0000
0001
0100
0000
0000
0110
0000
0000
,
0010
0000
0010
1000
0000
1000
0001
0000
0000
0011
0000
0000
,
0010
0000
0010
0001
0000
0001
1000
0000
0000
1100
0000
0000
,
1000
0000
1000
0010
0000
0010
0100
0000
0000
0110
0000
0000
,
1000
0001
0000
1000
0000
1001
0000
0000
,
0010
0100
0000
0010
0000
0100
0000
0000
,
0001
1000
0000
0001
0000
1000
0000
0000
,
0100
0010
0000
0001
0000
1001
0000
0000
,
1000
0100
1000
0010
,
0100
0010
1000
0100
,
1000
0010
0100
0001
,
0010
0100
1000
0000
,
0001
0100
0001
0100
,
0010
0100
0001
0010
,
0100
1000
0001
1000
,
0010
0100
0001
0000
,
1000
0001
0000
1000
0001
0000
0100
0001
,
0000
0100
0001
0000
0100
0000
0010
0000
,
1000
0001
0000
1000
0001
0000
0100
0010
,
0000
0000
0000
2002
0000
3003
0000
0000
,
0001
1000
0000
0001
1000
0000
0100
0010
,
0000
0100
0010
0000
0001
0000
1000
0000
,
0001
1000
0000
0001
1000
0000
0010
0100
,
0000
0000
0000
2002
0000
3003
0000
0000
,
0010
1000
0100
1000
,
0010
0001
0010
1000
,
0100
0010
1000
0010
,
0001
0100
0001
0000
,
1000
0001
0000
0000
0100
0001
0000
0100
,
0001
0000
0100
0001
0000
0100
0000
0101
,
0000
0010
0010
0010
,
1000
0100
0000
1000
0100
0000
0010
0001
,
0000
0010
0001
0000
0100
0000
0010
0000
,
1000
0010
0000
1000
0010
0000
0100
0001
,
0000
0000
0000
2002
0000
3003
0000
0000
,
0001
1000
0000
0000
0010
1000
0000
0010
,
1000
0000
0010
1000
0000
0010
0000
1010
,
0000
0100
0100
0100
,
1001
0000
0000
0010
,
0010
1000
0000
1000
0001
0000
0001
0100
,
0000
0100
0001
0000
0001
1000
0000
1000
,
0001
0000
0001
1000
0000
0000
2002
0000
,
0000
3003
0000
1000
,
0001
0100
0100
0010
,
1000
0100
1000
1000
,
0000
0110
0100
0001
,
0001
0100
0010
1000
,
0100
0100
0000
0001
,
1000
0010
0010
0100
,
0001
0010
0001
0001
,
0000
0110
0010
1000
,
1000
0010
0100
0001
,
0010
0010
0010
0001
,
1000
0001
1000
0100
,
1000
0100
1000
0001
,
1000
0000
0001
0000
1000
0000
0010
0100
,
0010
0000
0100
0010
0100
0000
0001
0000
,
0001
1000
0000
1000
0000
0100
1000
0000
,
1000
0001
0000
0001
0000
0100
0001
0000
,
0010
1000
0010
0001
,
0100
1000
0100
0001
,
1000
0001
1000
0010
,
1000
0010
1000
0001
,
1000
0000
0001
0000
1000
0000
0100
0010
,
0100
0000
0010
0100
0010
0000
0001
0000
,
0001
1000
0000
1000
0000
0010
1000
0000
,
1000
0001
0000
0001
0000
0010
0001
0000
,
0100
1000
0100
0001
,
0010
1000
0010
0001
,
0000
0011
0000
0000
1000
0000
0000
1100
,
0000
1000
0001
0100
,
0000
0101
0000
0000
0010
0000
0000
2002
,
0000
0000
3003
1000
,
0000
1100
0000
0000
0001
0000
0000
0011
,
0000
0001
1000
0010
,
0000
1010
0000
0000
0100
0000
0000
2002
,
0000
0000
3003
0000
,
0000
1000
0000
0001
0000
1000
0000
1000
,
0000
0001
0000
0100
0000
0100
0000
0001
,
0000
1000
0000
0010
0100
0000
0010
0100
,
0000
0010
0000
1000
0000
0100
0000
0100
,
0000
0010
0000
0001
0000
0001
0000
1000
,
0000
0100
0000
0010
0100
0000
0010
0100
,
0000
1000
0000
1010
0000
0100
0000
0010
,
0000
1010
0000
1000
0000
0001
0000
0101
,
0000
0001
0000
0100
0010
0000
0100
0010
,
0000
1000
0000
1010
0000
1000
0000
0001
,
0000
0101
0000
1010
0000
1000
0000
1100
,
0000
0011
0000
0001
0010
0100
1000
0001
,
1000
0002
0000
0000
0003
0000
2000
0000
,
0000
3000
0000
0002
0000
0000
0003
0000
,
2002
0000
0000
0000
,
0000
0000
0000
0000
,
0000
0000
3003
0000
;

//---------------dance-single - ----------------
#NOTES:
     dance-single:
     :
     Easy:
     10:
     0.461236,0.623434,0.338920,0.312163,0.000000,362.000000,324.000000,38.000000,35.000000,0.000000,0.000000,0.461236,0.623434,0.338920,0.312163,0.000000,362.000000,324.000000,38.000000,35.000000,0.000000,0.000000:
0000
0000
0000
0000
,
0000
0000
0000
0000
,
0000
0000
0000
0000
,
1000
0000
0000
0100
0000
0010
0000
0100
,
0000
0000
1000
0000
0001
0000
0000
0100
,
0000
0010
0000
0100
0000
0000
0000
0001
,
0000
1000
0000
0000
2002
0000
0000
0000
,
0003
0020
0000
3030
,
0000
0000
0001
0000
0000
0010
0000
0100
,
0000
0010
0000
0000
0001
0000
1000
0000
,
0000
0010
0000
0100
0000
0010
0000
0000
,
0000
1000
0000
0001
0000
0000
2002
0000
,
0000
3000
0200
0000
,
0303
0000
0000
0000
1001
0000
0000
1000
,
0000
0001
0000
1000
0000
0000
2002
0000
,
3003
0000
0110
0000
0000
0010
0000
0100
,
0000
0010
0000
0000
0220
0000
0330
0000
,
1000
1000
0001
0001
,
0100
0100
0010
0010
,
1000
0100
1000
0000
,
0001
0100
0001
0000
,
1000
0010
1000
0000
,
0001
0010
0001
0000
,
1000
1000
0001
0101
,
0100
0100
0001
0011
,
0010
0010
0100
1100
,
1000
1000
0001
1001
,
1001
0000
0000
0100
0000
0210
0000
0000
,
0000
0310
0000
0000
0000
1020
0000
0000
,
0000
1030
0000
0000
0000
2001
0000
0000
,
0000
3001
0000
0000
0000
1001
0000
0000
,
1000
0100
1000
0000
,
0001
0100
0001
0000
,
1000
0100
1000
0001
,
0010
0000
0011
0000
,
0001
0100
0001
0000
,
1000
0010
1000
0000
,
0010
1000
0010
0100
,
0001
0000
1001
0000
,
1000
0001
0100
0000
,
0001
1000
0010
0000
,
1000
0001
0010
0100
,
1000
0000
0000
2002
0000
3003
0000
0000
,
0001
1000
0010
0000
,
1000
0001
0100
0000
,
0001
1000
0100
0010
,
0001
0000
0000
2002
0000
3003
0000
0000
,
0010
1000
0100
0000
,
0010
1000
0001
0000
,
0010
0001
0100
0000
,
0010
0001
1000
0000
,
0010
0000
0000
0000
0010
0000
0000
0010
,
0000
0000
0010
0000
0000
0010
0000
1001
,
0000
1000
0001
1000
,
0100
1000
0010
0000
,
0100
1000
0001
0000
,
0100
0001
1000
0000
,
0100
0000
0000
1001
0000
0000
0000
0000
,
0100
0000
0000
0000
0100
0000
0000
0100
,
0000
0000
0100
0000
0000
0100
0000
1001
,
0000
0001
1000
0001
,
0020
0000
0000
0031
,
0000
0101
0000
0000
1000
0000
0000
1100
,
0000
0000
1000
0000
0000
1010
0000
0000
,
0001
0000
0000
0011
0000
0000
2002
0000
,
0000
3003
0000
1000
,
0001
1000
0100
0000
,
1000
0001
1000
0010
,
0000
0100
0001
0100
,
0010
0000
0100
0001
,
0010
0100
0000
0010
,
0001
0100
0001
0000
,
1000
0010
1000
0100
,
0000
1000
0010
0100
,
0010
0000
0100
0010
,
0100
0010
0000
1000
,
0100
1000
0000
0001
,
0100
0001
0000
0010
,
0001
1000
0000
0100
,
0000
1002
0000
1003
,
0000
0001
0000
2001
0000
0000
3001
0000
,
0000
1000
0000
1002
0000
0000
1003
0000
,
0100
0010
0000
0001
,
0010
0100
1000
0001
,
0010
0001
0000
1000
,
0010
1000
0000
0100
,
1000
0001
0000
0010
,
0000
2001
0000
3001
,
0000
1000
0000
1002
0000
0000
1003
0000
,
0000
0001
0000
2001
0000
0000
3001
0000
,
0010
0100
0000
1000
,
0100
0010
0001
1000
,
0000
1000
0000
0000
1000
0000
0000
0000
,
0001
0001
0010
0001
,
0000
0001
0000
0000
0110
0000
0000
2002
,
0000
3003
0000
0001
,
0000
0001
0000
0000
0001
0000
0000
0000
,
1000
1000
0100
1000
,
0000
1000
0000
0000
0110
0000
0000
2002
,
0000
3003
0000
0000
,
0000
1000
0000
0100
0000
0010
0000
0001
,
0000
0000
0000
0010
0000
0001
0000
0100
,
0000
0000
0000
0010
0000
0010
0000
0010
,
0000
1000
0000
0010
0000
0100
0000
0001
,
0000
0000
0000
0100
0000
0001
0000
0010
,
0000
0000
0000
0100
0000
0100
0000
0100
,
0000
1000
0000
0010
0000
0100
0000
0001
,
0000
0000
0000
1000
0000
0010
0000
0100
,
0000
0000
0000
0010
0000
0010
0000
0010
,
0000
1000
0000
0001
0000
0010
0000
0100
,
0000
0000
0000
1000
0000
0001
0000
0010
,
0000
0000
0000
0100
0000
0100
0000
0100
,
0000
0002
0000
0000
0003
0000
2000
0000
,
0000
3000
0000
0002
0000
0000
0003
0000
,
2002
0000
0000
0000
,
0000
0000
0000
0000
,
0000
0000
3003
0000
;

//---------------dance-single - ----------------
#NOTES:
     dance-single:
     :
     Beginner:
     4:
     0.208958,0.311717,0.267568,0.017838,0.000000,164.000000,134.000000,30.000000,2.000000,0.000000,0.000000,0.208958,0.311717,0.267568,0.017838,0.000000,164.000000,134.000000,30.000000,2.000000,0.000000,0.000000:
0000
0000
0000
0000
,
0000
0000
0000
0000
,
0000
0000
0000
0000
,
1000
0000
0000
0000
,
0000
0000
0001
0000
,
0000
0000
0000
0000
,
0000
0000
1001
0000
,
0000
0000
0000
0000
,
0000
0001
0000
0000
,
0000
0000
0000
1000
,
0000
0000
0000
0000
,
0000
0000
0000
1001
,
0000
0000
0000
0000
,
0000
0000
1001
0000
,
0000
0000
0000
0010
,
0000
1001
0000
0000
,
0000
0000
0100
0000
,
1001
0000
0000
0000
,
0010
0000
0000
0000
,
1000
0000
0000
0000
,
0001
0000
0000
0000
,
1000
0000
0000
0000
,
0001
0000
0000
0000
,
1000
0000
1000
0000
,
0001
0000
0001
0000
,
1000
0000
1000
0000
,
0001
0000
0001
0000
,
1001
0000
0000
0000
,
0110
0000
0000
0000
,
1001
0000
0000
0000
,
0110
0000
0000
0000
,
1000
0000
0000
0000
,
0001
0000
0000
0000
,
0100
0000
0000
0000
,
0010
0000
0010
0000
,
0100
0000
0000
0000
,
0001
0000
0000
0000
,
1000
0000
0000
0000
,
0010
0000
1001
0000
,
1000
0000
0100
0000
,
1000
0000
0000
0000
,
0010
0000
0001
0000
,
1001
0000
0000
0000
,
0001
0000
0100
0000
,
0001
0000
0000
0000
,
0010
0000
1000
0000
,
1001
0000
0000
0000
,
0010
0000
0010
0000
,
0010
0000
0000
0000
,
0010
0000
0010
0000
,
0010
0000
0000
0000
,
1000
0000
0000
0000
,
0001
0000
0000
0000
,
1001
0000
0000
0000
,
0010
0000
0010
0000
,
0010
0000
0000
0000
,
0010
0000
0010
0000
,
0010
0000
0000
0000
,
1000
0000
0000
0000
,
0001
0000
0000
0000
,
1001
0000
0000
0000
,
0010
0000
0000
1001
,
0000
0000
0100
0000
,
0000
0010
0000
0000
,
0110
0000
0000
1001
,
0000
0000
0000
1000
,
0000
0000
0000
0000
,
0001
0000
0000
0000
,
0000
1000
0000
0000
,
0000
0000
0001
0000
,
0000
0000
0000
0100
,
0000
0000
0000
0000
,
0010
0000
0000
0000
,
0000
1000
0000
0000
,
0000
0000
0010
0000
,
0000
0000
0000
1000
,
0000
0001
0000
1000
,
0000
1000
0000
0001
,
0000
1000
0000
0001
,
0000
0000
0000
0010
,
0000
0000
0000
1001
,
0000
0000
0000
0100
,
0000
0000
0000
1001
,
0000
0000
0000
0001
,
0000
1000
0000
0001
,
0000
0001
0000
1000
,
0000
0001
0000
1000
,
0000
0000
0000
0100
,
0000
0000
0000
1001
,
0000
0000
0000
0010
,
0000
0000
0000
1001
,
0000
0000
0000
1000
,
0000
0000
1000
0000
,
0000
0001
0000
0001
,
0000
0000
1001
0000
,
0000
0000
0000
0001
,
0000
0000
0001
0000
,
0000
1000
0000
1000
,
0000
0000
1001
0000
,
0000
0000
0000
0000
,
0000
0001
0000
0000
0000
0000
0000
1000
,
0000
0000
0000
0000
0000
0001
0000
0000
,
0000
0000
0000
1000
0000
0000
0000
0000
,
0000
0100
0000
0000
0000
0000
0000
1000
,
0000
0000
0000
0000
0000
0010
0000
0000
,
0000
0000
0000
1000
0000
0000
0000
0000
,
0000
0001
0000
0000
0000
0000
0000
1001
,
0000
0000
0000
0000
0000
0110
0000
0000
,
0000
0000
0000
1001
0000
0000
0000
0000
,
0000
1000
0000
0000
0000
0000
0000
1001
,
0000
0000
0000
0000
0000
0110
0000
0000
,
0000
0000
0000
1001
0000
0000
0000
0000
,
0000
0001
0000
0000
0000
0000
1000
0000
,
0000
0000
0000
0001
0000
0000
0000
0000
,
2002
0000
0000
0000
,
0000
0000
0000
0000
,
0000
0000
3003
0000
;
