#TITLE:PARANOiA iNTERiTUS;
#SUBTITLE:;
#ARTIST:XDS 440;
#TITLETRANSLIT:;
#SUBTITLETRANSLIT:;
#ARTISTTRANSLIT:;
#GENRE:;
#CREDIT:;
#MUSIC:PARANOiA iNTERiTUS.ogg;
#BANNER:PARANOiA iNTERiTUS.png;
#BACKGROUND:PARANOiA iNTERiTUS-bg.png;
#CDTITLE:;
#SAMPLESTART:18.540;
#SAMPLELENGTH:12.000;
#SELECTABLE:YES;
#OFFSET:-0.000;
#BPMS:0.000=110.000
,31.000=440.000
,224.000=220.000
,288.000=110.000
,292.000=440.000
,484.000=110.000
,486.000=440.000
,502.000=110.000
;
#STOPS:31.000=1.500;
#DISPLAYBPM:110.000:440.000;
#BGCHANGES:;
#FGCHANGES:;

//--------------- dance-single - ----------------
#NOTES:
     dance-single:
     :
     Beginner:
     4:
     0,0,0,0,0:
0000
0000
0000
0000
,
0000
0000
0000
0000
,
0000
0000
0000
0000
,
0000
0000
0000
0000
,
0000
0000
1000
0000
,
1000
0000
0001
0000
,
0001
0000
1000
0000
,
1000
0000
1001
0000
,
1000
0000
0000
0000
,
1000
0000
0000
0000
,
0100
0000
0000
0000
,
0100
0000
0000
0000
,
0001
0000
0000
0000
,
0100
0000
0000
0000
,
0010
0000
0000
0000
,
0000
0000
0000
0000
,
1000
0000
0000
0000
,
0001
0000
0000
0000
,
0001
0000
0000
0000
,
0100
0000
0000
0000
,
0001
0000
0000
0000
,
1000
0000
0000
0000
,
1000
0000
0000
0000
,
0000
0000
0000
0000
,
1000
0000
0000
0010
,
0000
0000
0100
0000
,
0000
1000
0000
0000
,
0100
0000
0000
0000
,
0001
0000
0000
0010
,
0000
0000
0100
0000
,
0000
0001
0000
0000
,
0010
0000
0000
0000
,
1000
0000
0000
0100
,
0000
0000
1000
0000
,
0000
0010
0000
0000
,
1001
0000
0000
0000
,
0100
0000
0000
1000
,
0000
0000
0100
0000
,
0010
0000
0000
0000
,
0000
0000
0000
0000
,
0001
0000
0000
0001
,
0000
0000
1000
0000
,
0000
0001
0000
0000
,
0001
0000
0000
0000
,
0010
0000
0000
0010
,
0000
0000
0100
0000
,
0000
0010
0000
0000
,
0010
0000
0000
0000
,
0100
0000
0000
0100
,
0000
0000
0100
0000
,
0000
0100
0000
0000
,
0100
0000
0000
0000
,
0001
0000
0000
0001
,
0000
0000
0010
0000
,
0010
0000
0000
0000
,
0000
0000
0000
0000
,
0000
1000
0000
1000
,
0000
0100
0000
0100
,
0000
0001
0000
0001
,
0000
0100
0000
0100
,
0000
0000
0100
0000
,
0000
0000
0010
0000
,
0000
0000
0100
0000
,
0000
0000
0100
0000
,
0001
0000
0100
0000
,
0100
0000
0100
0000
,
0100
0000
0001
0001
,
0000
1000
1000
1000
,
1000
0000
0000
0000
,
0001
0000
0000
0000
,
0100
0000
0000
0000
,
0100
0000
0000
0000
,
1001
0000
0000
0000
,
0001
0000
0000
0000
,
0001
0000
0000
0000
,
1000
0000
0000
0000
,
0001
0000
0000
0000
,
0001
0000
0000
0000
,
0001
0000
0000
0000
,
0010
0000
0000
0000
,
0000
0000
0000
0000
,
0100
0000
0000
0000
,
1000
0000
0000
0000
,
0100
0000
0000
0000
,
1000
0000
0000
0000
,
0001
0000
0000
0000
,
0010
0000
0000
0000
,
0100
0000
0000
0000
,
0000
0000
0000
0000
,
1000
0000
0000
0000
,
0010
0000
0000
0000
,
0010
0000
0000
0000
,
1000
0000
0000
0000
,
0001
0000
0000
0000
,
0100
0000
0000
0000
,
1000
0000
0000
0000
,
0000
0000
0000
0000
,
0100
0000
0000
0000
,
1000
0000
0000
0000
,
0100
0000
0000
0000
,
0010
0000
0000
0000
,
1000
0000
0000
0000
,
0100
0000
0000
0000
,
0001
0000
0000
0000
,
0000
0000
0000
0000
,
0001
0000
0000
0000
,
0100
0000
0000
0000
,
0100
0000
0000
0001
,
0000
0000
0100
0000
,
0001
0000
0000
0000
,
0100
0000
0000
0000
,
0100
0000
0000
0000
,
0000
0000
0000
0000
,
0010
0000
0000
0000
,
0010
0000
0000
0000
,
0001
0000
0000
0001
,
0000
0000
0100
0000
,
0001
0000
0000
0000
,
1000
0000
0000
0000
,
0010
0000
0000
0000
,
0001
0000
0000
0000
,
1001
0000
0110
0000
,
0000
0000
0000
0000
,
0000
0000
0000
0000
,
0000
0000
0000
0000
,
0000
0000
1001
0000
;

//--------------- dance-single - ----------------
#NOTES:
     dance-single:
     :
     Easy:
     9:
     0,0,0,0,0:
0000
0000
0000
0000
,
0000
0000
0000
0000
,
0000
0000
0000
0000
,
0000
0000
0000
0000
,
0000
0000
1000
0001
,
1000
0100
0000
1000
0001
0000
1000
0000
,
0001
0010
0000
0001
1000
0000
0001
0000
,
1000
0000
0100
0000
0000
0000
1000
0000
2002
0000
0000
0000
0000
3003
0000
0000
,
1000
0000
0000
0000
,
1000
0000
0000
0000
,
0100
0000
0100
0000
,
0100
0000
0000
0000
,
0001
0000
0000
0000
,
0100
0000
0000
0000
,
0010
0000
0100
0000
,
0100
0000
0000
0000
,
1000
0000
0000
0000
,
0001
0000
0000
0000
,
0001
0000
0010
0000
,
0100
0000
0000
0000
,
0001
0000
0000
0000
,
1000
0000
0000
0000
,
1000
0000
0100
0000
,
0010
0000
0100
0000
,
1000
0000
0000
0010
,
0000
0000
0100
0000
,
0000
1000
0000
0000
,
0100
0000
0110
0000
,
0001
0000
0000
0010
,
0000
0000
0100
0000
,
0000
0001
0000
0000
,
0010
0000
0110
0000
,
1000
0000
0000
0100
,
0000
0000
1000
0000
,
0000
0010
0000
0000
,
1001
0000
0110
0000
,
0100
0000
0000
1000
,
0000
0000
0100
0000
,
0010
0000
0100
0000
,
0001
0000
0100
0000
,
0001
0000
0000
0001
,
0000
0000
1000
0000
,
0000
0001
0000
0000
,
0001
0000
1000
0000
,
0010
0000
0000
0010
,
0000
0000
0100
0000
,
0000
0010
0000
0000
,
0010
0000
1000
0000
,
0100
0000
0000
0100
,
0000
0000
0100
0000
,
0000
0100
0000
0000
,
0100
0000
1000
0000
,
0001
0000
0000
0001
,
0000
0000
0010
0000
,
0010
0000
1001
0000
,
1000
0000
0010
0000
,
0000
1000
0100
1000
,
0010
0100
0010
0100
,
0000
0001
0100
0001
,
0010
0100
0010
0100
,
1000
0000
0100
0000
,
0100
0000
0010
0000
,
0001
0000
0100
0000
,
0010
0000
0100
0000
,
0001
0100
1000
0000
0100
0000
0001
0000
,
0100
1000
0100
0001
,
0100
0001
0001
0000
0001
0000
0001
0000
,
0100
1000
1000
0000
1000
0000
1000
0000
,
1000
0000
0010
0000
,
0001
0000
0001
0000
,
0100
0000
0001
0000
,
0100
0010
0001
1001
,
2002
0000
3003
0000
,
0001
0000
0000
0000
,
0001
0000
0000
0000
,
1000
0000
0010
0000
,
0001
0000
0000
0000
,
0001
0000
0000
0000
,
0001
0000
0000
0000
,
0010
0000
1000
0000
,
0010
0000
0000
0000
,
0100
0000
0000
0000
,
1000
0000
0000
0000
,
0100
0000
0100
0000
,
1000
0000
0000
0000
,
0001
0000
0000
0000
,
0010
0000
0000
0000
,
0100
0000
0010
0000
,
1000
0000
0000
0000
,
1000
0000
0000
0000
,
0010
0000
0000
0000
,
0010
0000
0001
0000
,
1000
0000
1000
0000
,
0001
0000
0000
0000
,
0100
0000
0000
0000
,
1000
0000
0010
0000
,
0001
0000
0001
0000
,
0100
0000
0000
0000
,
1000
0000
0000
0000
,
0100
0000
0100
0000
,
0010
0000
0010
0000
,
1000
0000
0000
0000
,
0100
0000
0000
0000
,
0001
0000
0100
0000
,
0010
0000
0001
0000
,
0001
0100
0010
0000
,
0100
0001
0000
0000
,
0100
0100
0000
0001
,
0000
0000
0100
0000
,
0001
0100
0010
0000
,
0100
0001
0000
0000
,
0100
0010
0000
0000
,
0010
0000
1000
0000
,
0010
1000
0010
0000
,
0010
1000
0000
0000
,
0001
0100
0000
0001
,
0000
0000
0100
0000
,
0001
0000
0001
0000
,
1000
0000
1000
0000
,
0010
0000
0100
0000
,
0001
0000
1000
0000
,
1001
0000
0220
0000
,
0000
0000
0000
0000
,
0000
0000
0000
0000
,
0000
0000
0000
0000
,
0000
0330
2002
0000
,
3003
0000
0000
0000
;

//--------------- dance-single - ----------------
#NOTES:
     dance-single:
     :
     Medium:
     14:
     0,0,0,0,0:
0000
0000
0000
0000
,
0000
0000
0000
0000
,
0000
0000
0000
0000
,
0000
0000
0000
0000
,
0000
0000
0000
0000
0000
0000
0000
0000
1000
0000
0100
1000
0001
0000
0100
0001
,
1000
0000
0100
0000
0000
0001
1000
0000
0001
0000
0100
0001
1000
0000
0010
1000
,
0001
0000
0010
0000
0000
1000
0001
0000
1000
0000
0100
1000
0001
0000
0010
0001
,
1000
0000
0100
0000
0000
0001
1000
0000
2002
0000
0000
0000
0000
3003
0000
0000
,
1000
0000
0100
0000
,
1000
0000
0010
0000
,
0100
0001
0100
0010
,
0100
0001
0010
0000
,
0001
0000
1000
0000
,
0100
0000
1000
0000
,
0010
0001
0100
0010
,
0100
0001
1000
0000
,
1000
0000
0010
0000
,
0001
0000
0100
0000
,
0001
0100
0010
1000
,
0100
0010
0001
0000
,
0001
0000
0100
0000
,
1000
0000
0010
0001
,
1000
0000
0100
0000
,
0010
0001
0100
0010
,
1000
1000
0000
0010
,
0010
0000
0100
0100
,
0000
1000
1000
0000
,
0110
0000
0110
0000
,
0001
0001
0000
0010
,
0010
0000
0100
0100
,
0000
0001
0001
0000
,
0110
0000
0110
0000
,
1000
1000
0000
0100
,
0100
0000
1000
1000
,
0000
0010
0010
0000
,
1001
0000
0110
0000
,
0100
0100
0000
1000
,
1000
0000
0100
0100
,
0010
0000
0100
0000
,
0001
1000
0100
0010
,
0001
0001
0001
0001
,
1000
1000
1000
1000
,
0001
0001
0001
0001
,
0001
0000
1000
0000
,
0010
0010
0010
0010
,
0100
0100
0100
0100
,
0010
0010
0010
0010
,
0010
0000
1000
0000
,
0100
0100
0100
0100
,
0100
0100
0100
0100
,
0100
0100
0100
0100
,
0100
0000
1000
0000
,
0001
0001
0001
0001
,
0010
0010
0010
0010
,
0010
0000
1001
0000
,
1000
0100
0010
0001
,
1100
0001
0100
1000
,
0010
0100
0010
0100
,
0101
1000
0100
0001
,
0010
0100
0010
0100
,
1000
0010
0001
0000
0100
0001
0010
0000
,
0100
0001
0010
1010
,
0001
0010
1000
0000
0100
0010
0010
0000
,
0010
1000
0100
1001
,
0001
0100
1000
0000
0100
0000
0001
0000
,
0100
0000
0110
0000
1000
0100
0001
0000
,
0100
0001
0001
0000
0001
0001
0001
0000
,
0100
1000
1000
0000
1000
1000
1000
0000
,
1000
0001
0010
0000
0010
0001
0100
0000
,
0001
0010
0001
0101
,
0100
0010
0100
0000
0001
0010
0001
0000
,
0100
0010
0001
1001
,
1000
0000
0000
0000
0001
0000
1000
0000
0001
1000
0001
1000
2001
0000
0000
0000
,
3001
0000
1000
0000
,
0001
0010
0001
0000
,
1000
0100
0010
0001
,
0001
0000
0101
0000
,
0001
0000
1000
0000
,
0001
1000
0100
0000
,
0010
0001
1000
0010
,
0010
0000
1010
0000
,
0100
0000
0001
0000
,
1000
0100
0010
0000
,
0100
0010
0100
1000
,
1000
0000
1001
0000
,
0001
0000
0100
0000
,
0010
0100
0010
0000
,
0100
0000
0010
0000
,
1000
0100
0010
0100
,
1000
0000
0001
0000
,
0010
0001
0100
0000
,
0010
1000
0001
1000
,
1000
0000
1100
0000
,
0001
0000
0010
0000
,
0100
0010
0100
0000
,
1000
0001
0010
0001
,
0001
0000
0101
0000
,
0100
0000
0010
0000
,
1000
0001
0010
0000
,
0100
0010
0100
0010
,
0010
0000
0011
0000
,
1000
0000
0010
0000
,
0100
0010
0100
0000
,
0001
0000
0100
0000
,
0010
1000
0001
0100
,
0001
0100
0010
0010
,
0100
0001
0010
0001
,
0100
0100
1000
0000
,
0001
0000
0100
0000
,
0001
0100
0010
0010
,
0100
0001
0010
0001
,
0100
0010
0100
0000
,
0010
0000
1000
0000
,
0010
1000
0010
0010
,
0010
1000
0001
0010
,
0001
0100
0001
0001
,
0001
0010
0100
1000
,
0001
1000
0001
0001
,
1000
0001
1000
1000
,
0010
0010
0100
0001
,
1000
0001
1000
0001
1000
0001
1000
0001
,
1000
0000
0220
0000
,
0000
0000
0000
0000
,
0000
0000
0000
0000
,
0000
0000
0000
0000
,
0000
0330
2002
0000
,
3003
0000
0000
0000
;

//--------------- dance-single - ----------------
#NOTES:
     dance-single:
     :
     Hard:
     17:
     0.986587,2.099956,0.14583,0.031249,0.229162,663,649,14,3,0,0,0.986587,2.099956,0.14583,0.031249,0.229162,663,649,14,3,0,0:
0000
0000
0000
0000
,
0000
0000
0000
0000
,
0000
0000
0000
0000
,
0000
0000
0000
0000
,
0000
0000
0000
0000
0000
0000
0000
0000
0000
0000
0000
0000
0000
0000
0000
0000
1000
0000
0100
1000
0100
0000
1000
0000
0001
0000
0100
0001
0100
0000
0001
0000
,
1000
0000
0010
0000
0100
0000
0000
0000
0000
0000
0001
0000
1000
0000
0000
0000
0001
0000
0100
0001
0100
0000
0001
0000
1000
0000
0010
1000
0010
0000
1000
0000
,
0001
0000
0100
0000
0010
0000
0000
0000
0000
0000
1000
0000
0001
0000
0000
0000
1000
0000
0100
1000
0100
0000
1000
0000
0001
0000
0010
0001
0010
0000
0001
0000
,
1000
0010
0100
0000
0000
0001
1000
0000
2002
0000
0000
0000
0000
3003
0000
0000
,
1000
0100
1000
0010
,
1000
0100
0010
0001
,
0100
0001
0100
0010
,
0100
0000
0001
0000
0010
0100
0010
0100
,
0000
0001
1000
0010
,
0100
0010
1000
0100
,
0010
0001
0100
0010
,
0100
0000
0001
0000
1000
0010
1000
0010
,
0000
1000
0010
0100
,
0001
0010
0100
0010
,
0001
0100
0010
1000
,
0100
0000
0010
0000
0001
1000
0001
1000
,
0000
0001
0100
0010
,
1000
0100
0010
0001
,
1000
0000
0100
0000
,
0010
0001
0100
0010
,
1000
0100
1000
0000
0100
0000
0010
0001
,
0010
0000
0001
0000
0100
0010
0100
0000
,
0010
0000
1000
0100
1000
0000
0010
0000
,
0010
0000
0000
0000
0100
0001
0100
0001
,
1000
0100
1000
0000
0010
0000
0100
0010
,
0100
0000
0001
0000
0010
0100
0010
0000
,
0001
0000
1000
0010
1000
0000
0100
0000
,
0100
0000
0000
0000
0010
0001
0010
0001
,
1000
0100
1000
0000
0010
0000
0100
0001
,
0100
0000
0001
0000
1000
0010
1000
0000
,
0001
0000
0010
0100
0010
0000
0001
0000
,
0001
0000
0000
0000
0100
1000
0100
1000
,
0100
0010
0100
0000
0001
0000
1000
0010
,
1000
0000
0010
0000
0100
0001
0100
0000
,
0010
0000
0100
0000
,
0001
1000
0100
0010
,
0001
0100
0001
0100
0001
0100
0001
0100
,
1000
0100
1000
0100
1000
0100
1000
0100
,
0001
0100
0001
0100
0001
0100
0001
0100
,
0001
0000
1000
0000
,
0010
1000
0010
1000
0010
1000
0010
1000
,
0010
0001
0010
0001
0010
0001
0010
0001
,
0010
1000
0010
1000
0010
1000
0010
1000
,
0010
0000
1000
0000
,
0100
0001
0100
0001
0100
0001
0100
0001
,
0100
1000
0100
1000
0100
1000
0100
1000
,
0100
0001
0100
0001
0100
0001
0100
0001
,
0100
0000
1000
0000
,
0001
0100
0001
0100
0001
0100
0001
0100
,
0010
1000
0010
1000
0010
1000
0010
1000
,
0010
0000
1001
0000
,
1000
0100
0010
0001
,
1100
0000
0001
0000
0100
0001
1000
0000
,
0010
0000
0100
1000
0001
0100
1000
0000
,
0101
0000
1000
0000
0100
1000
0001
0000
,
0010
0000
0100
0001
1000
0100
0001
0000
,
1000
0000
0010
1000
0001
0000
1000
0000
0100
0010
0001
1000
0010
0000
1000
0000
,
0100
0010
0001
1000
0010
0000
1010
0000
,
0001
0000
0010
0100
1000
0000
0010
0000
0100
0001
0010
0100
0010
0000
0001
0000
,
0010
0100
1000
0010
0100
0000
1001
0000
,
0001
0010
1000
0000
0100
0000
0001
0000
,
1000
0100
0001
0000
0100
1000
0010
0000
,
0010
0001
0001
0001
0010
0001
0001
0000
,
0010
1000
1000
1000
0010
1000
1000
0000
,
1000
0000
0001
0100
0010
0000
1000
0000
0010
0100
0001
0010
0100
0000
0010
0000
,
0001
1000
0010
0100
0001
0000
0101
0000
,
0100
0000
0010
1000
0100
0000
0010
0000
0001
0100
0010
0100
0001
0000
0010
0000
,
0100
1000
0010
0100
0001
0000
1001
0000
,
1000
0000
0000
0000
0000
0000
0000
0000
0001
0000
0000
0000
1000
0000
0000
0000
0001
0000
1000
0000
0001
0000
1000
0000
0001
1000
0001
1000
0001
1000
0001
1000
,
0001
0000
1000
0000
,
0001
0010
0001
0000
,
1000
0000
0100
0000
0010
0000
0001
0100
,
0001
0000
0101
0000
,
0001
0000
1000
0000
,
0001
1000
0100
0000
,
0010
0000
0001
0000
1000
0000
0010
0100
,
0010
0000
1010
0000
,
0100
0000
0001
0000
,
1000
0100
0010
0000
,
0100
0000
0010
0000
0100
0000
1000
0001
,
1000
0000
1001
0000
,
0001
0000
0100
0000
,
0010
0100
0010
0000
,
0100
0000
0010
0000
,
1000
0100
0010
0100
,
1000
0000
0001
0000
,
0010
0001
0100
0000
,
0010
0000
1000
0000
0001
0000
1000
0100
,
1000
0000
1100
0000
,
0001
0000
0010
0000
,
0100
0010
0100
0000
,
1000
0000
0001
0000
0010
0000
0001
0100
,
0001
0000
0101
0000
,
0100
0000
0010
0000
,
1000
0001
0010
0000
,
0100
0000
0010
0000
0100
0000
0010
0001
,
0010
0000
0011
0000
,
1000
0000
0010
0000
,
0100
0010
0100
0000
,
0001
0000
0100
0000
,
0010
1000
0001
0100
,
0001
0010
0100
1000
0010
0100
0010
1000
,
0100
0010
0001
0100
0010
0100
0001
0010
,
0100
1000
0100
0000
1000
0000
0000
0000
,
0001
0000
0100
0000
,
0001
0010
0100
1000
0010
0100
0010
1000
,
0100
0010
0001
0100
0010
0100
0001
0010
,
0100
1000
0010
0000
0100
0000
0000
0000
,
0010
0000
1000
0000
,
0010
1000
0010
1000
0010
1000
0010
1000
,
0010
1000
0001
0010
,
0001
0100
0001
0100
0001
0100
0001
0100
,
0001
0010
0100
1000
,
0001
1000
0001
1000
0001
1000
0001
1000
,
0001
0100
0001
0100
0001
0100
0001
0100
,
0010
1000
0010
1000
0100
0010
0001
0100
,
0010
0100
0001
0010
0100
1000
0100
0010
,
0001
0000
0000
0000
1000
0001
1000
0001
,
1000
0001
1000
0001
1000
0001
1000
0001
,
1000
0001
1000
0001
1000
0001
1000
0001
,
1000
0001
1000
0001
1000
0001
1000
0001
,
1000
0001
1000
0001
2000
0000
0000
0000
,
3000
0000
0000
0000
;
