#TITLE:PARANOiA X;
#SUBTITLE:;
#ARTIST:KVDO-X;
#TITLETRANSLIT:;
#SUBTITLETRANSLIT:;
#ARTISTTRANSLIT:;
#GENRE:;
#CREDIT:;
#MUSIC:PARANOiA X (KVDO-X).ogg;
#BANNER:PARANOiA X (KVDO-X).png;
#BACKGROUND:PARANOiA X (KVDO-X)-bg.png;
#CDTITLE:;
#SAMPLESTART:1.266;
#SAMPLELENGTH:15.000;
#SELECTABLE:YES;
#OFFSET:0.000;
#BPMS:0.000=190.140;
#STOPS:;
#BGCHANGES:;
#FGCHANGES:;

//--------------- dance-single - ----------------
#NOTES:
     dance-single:
     :
     Beginner:
     3:
     0,0,0,0,0:
0000
0000
0000
0000
,
0000
0000
0000
0000
,
0000
0000
0000
0000
,
0000
0000
0000
0000
,
0000
0000
0000
0000
,
0010
0000
0000
0000
,
0001
0000
0000
0000
,
1000
0000
0000
0000
,
1000
0000
0000
0000
,
0100
0000
0001
0000
,
0001
0000
1000
0000
,
0100
0000
0010
0000
,
1000
0000
0100
0000
,
0100
0000
0100
0000
,
0001
0000
0010
0000
,
0100
0000
0001
0000
,
0001
0000
1000
0000
,
0001
0000
0100
0000
,
0100
0000
0001
0000
,
0001
0000
0001
0000
,
0001
0000
0010
0000
,
1000
0000
0010
0000
,
0100
0000
0001
0000
,
0100
0000
1000
0000
,
0001
0000
0001
0000
,
1001
0000
0000
0000
,
0010
0000
1000
0000
,
1000
0000
1000
0000
,
1000
0000
0100
0000
,
1000
0000
0000
0000
,
1000
0000
0000
0000
,
1000
0000
0000
0000
,
0010
0000
0000
0000
,
0001
0000
0001
0000
,
0100
0000
0001
0000
,
0001
0000
0010
0000
,
0100
0000
0001
0000
,
1000
0000
0010
0000
,
0001
0000
0010
0000
,
0100
0000
0100
0000
,
1000
0000
0001
0000
,
0100
0100
0100
0100
,
0100
0100
0100
0000
,
0010
0010
0010
0010
,
0010
0010
0010
0000
,
0001
0000
0010
0000
,
0010
0000
0010
0000
,
0001
0000
0100
0000
,
0001
0000
0001
0000
,
0010
0000
0000
0100
,
0000
0000
0100
0000
,
0000
0000
0000
0100
,
0000
0000
0100
0000
,
1000
0000
0001
0001
,
0000
0000
0000
0000
,
0001
0000
1000
1000
,
0000
0000
0000
0000
,
1001
0000
0001
0000
,
1001
0000
0100
0000
,
1001
0000
1000
0000
,
1001
0000
0010
0000
,
0001
0000
0010
0000
,
1000
0000
1000
0000
,
1001
0000
1000
0000
,
1001
0000
1000
0000
,
1000
0000
1000
0000
,
1000
0000
1000
0000
,
0001
0000
0001
0000
,
0010
0010
0010
0010
,
0000
1001
0000
0000
;

//--------------- dance-single - ----------------
#NOTES:
     dance-single:
     :
     Easy:
     8:
     0,0,0,0,0:
0000
0000
0000
0000
,
0000
0000
0000
0000
,
0000
0000
0000
0000
,
0000
0000
0000
0000
,
0000
0000
0000
0000
,
0010
0010
1000
0000
,
0001
0100
0000
0000
0001
0000
1001
0000
,
1000
0000
1000
1001
,
1000
0100
0010
1000
,
0100
1000
0001
0000
,
0001
0010
0000
0100
1000
0000
0000
0000
,
0100
1000
0000
0001
0010
0000
0000
0000
,
1000
1000
0100
0010
,
0100
1000
0100
0000
,
0001
0100
0000
0001
0010
0000
0000
0000
,
0100
1000
0000
0010
0001
0000
0000
0000
,
0001
0001
1000
0010
,
0001
0010
0100
0000
,
0100
1000
0000
0100
0001
0000
0000
0000
,
0001
0010
0000
0100
0001
0000
0000
0000
,
0001
0001
0010
0100
,
1000
0010
0010
0000
,
0100
1000
0000
0010
0001
0000
0000
0000
,
0100
1000
0000
0100
1000
0000
0000
0000
,
0001
1000
0001
0100
,
1001
0000
0001
0000
,
0010
1000
0000
0100
1000
0000
0000
0000
,
1000
0001
0000
0100
1000
0000
0000
0000
,
1000
0100
0000
0001
0100
0000
0000
0000
,
1000
0001
0010
0000
,
1000
0100
0000
0000
0001
0000
1000
0000
,
1010
0000
1000
1001
,
0010
0001
1000
0100
,
0001
1000
0001
0000
,
0100
1000
0000
0010
0001
0000
0000
0000
,
0001
0100
0000
1000
0010
0000
0000
0000
,
0100
1000
0001
1001
,
1000
0001
0010
0000
,
0001
0100
0000
1000
0010
0000
0000
0000
,
0100
1000
0000
0010
0100
0000
0000
0000
,
1000
0100
0001
1001
,
0100
0100
0100
0100
,
0100
0100
0100
1001
,
0010
0010
0010
0010
,
0010
0010
0010
1001
,
0001
0100
0010
1000
,
0010
0001
0010
1001
,
0001
0010
0100
0100
,
0001
0010
0001
1001
,
0010
0000
0000
0001
0000
0000
0100
0000
,
0000
0010
0000
1000
0100
0100
0100
0000
,
0010
0000
0000
1000
0000
0000
0100
0000
,
0000
0010
0000
0001
0100
0100
0100
0000
,
1000
0000
1001
0000
0001
0010
0001
0000
,
0000
0000
0000
0000
,
0001
0000
1001
0000
1000
0100
1000
0000
,
0000
0000
0000
0000
,
1001
0010
0001
0010
,
1001
0010
0100
0100
,
1001
0100
1000
0100
,
1001
0100
0010
0010
,
0001
0001
1000
0000
0010
0000
1001
0000
,
1100
0001
1000
0100
,
1001
0010
1000
0100
,
1001
0001
1000
0001
,
1000
0001
1000
0100
,
1000
0000
0001
0000
1000
0100
0010
0000
,
0001
1000
0001
0100
,
0010
0000
0010
0000
0010
0100
0010
0000
,
1000
0001
2000
0000
3000
0000
0000
0000
;

//--------------- dance-single - ----------------
#NOTES:
     dance-single:
     :
     Medium:
     10:
     0,0,0,0,0:
0000
0000
0000
0000
,
0000
0000
0000
0000
,
0000
0000
0000
0000
,
0000
0000
0000
0000
,
0000
0000
0000
0000
,
0010
1000
0010
0000
1000
0000
0000
0000
,
0001
0100
0000
0000
0001
0000
1001
0000
,
1000
0000
1000
1001
,
1000
0010
0100
0000
0010
0000
1000
0000
,
1000
0001
1000
0000
0001
0000
0000
0000
,
0001
0010
0000
0100
1000
0000
0001
0000
,
0100
1000
0000
0001
0010
0000
0100
0000
,
1000
0001
1000
0000
0100
0000
0010
0000
,
0100
1000
0100
0000
0100
0000
1000
0000
,
0001
0100
0000
0001
0010
0000
1000
0000
,
0100
1000
0000
0010
0001
0000
0010
0000
,
0001
1000
0001
0000
1000
0000
0010
0000
,
0001
0100
0010
0000
0100
0000
0010
0000
,
0100
1000
0000
0100
0001
0000
0010
0000
,
0001
0010
0000
0100
0001
0000
0100
0000
,
0001
1000
0001
0000
0010
0000
0100
0000
,
1000
0100
0010
0000
0010
0000
1000
0000
,
0100
1000
0000
0010
0001
0000
0100
0000
,
0100
1000
0000
0100
1000
0000
0001
0000
,
0001
0010
1000
0000
0001
0000
0100
0000
,
1001
1000
0001
0100
,
0010
1000
0000
0100
1000
0000
0001
0000
,
1000
0001
0000
0100
1000
0000
0100
0000
,
1000
0100
0000
0001
0100
0000
1001
0000
,
1000
0100
0001
0000
0010
0000
0001
0000
,
1000
0100
0000
0000
0001
0000
1000
0000
,
1010
0000
1000
1001
,
0010
1000
0001
0000
1000
0000
0100
0000
,
0001
0100
1000
0000
0001
0000
0010
0000
,
0100
1000
0000
0010
0001
0000
1000
0000
,
0001
0100
0000
1000
0010
0000
1000
0000
,
0100
0001
1000
0000
0001
0000
1001
0000
,
1000
0100
0001
0000
0010
0000
0001
0000
,
0001
0100
0000
1000
0010
0000
0001
0000
,
0100
1000
0000
0010
0100
0000
1000
0000
,
1000
0010
0100
0000
0001
0000
1001
0000
,
0100
0010
0100
0000
0100
0010
0100
0000
,
0100
0010
0100
0000
0100
0000
1001
0000
,
0010
0100
0010
0000
0010
0100
0010
0000
,
0010
0100
0010
0000
0010
0000
1001
0000
,
0001
0010
0100
0000
0010
0100
1000
0000
,
0010
1000
0001
0000
0010
0000
1001
0000
,
0001
0100
0010
0000
0100
0001
0100
0000
,
0001
0100
0010
0000
0001
0000
1001
0000
,
0010
0000
0000
0001
0000
0000
0100
0000
,
0000
0110
0000
1000
0100
0100
0100
0000
,
0010
0000
0000
1000
0000
0000
0100
0000
,
0000
0110
0000
0001
0100
0100
0100
0000
,
1000
0000
1001
0000
0001
0001
0001
0000
,
0000
0000
0000
0000
,
0001
0000
1001
0000
1000
1000
1000
0000
,
0000
0000
0000
0000
,
1001
0010
0001
0010
,
1001
0000
0010
0000
0100
0010
0100
0000
,
1001
0100
1000
0100
,
1001
0000
0100
0000
0010
0100
0010
0000
,
0001
0001
1000
0000
0010
0000
1001
0000
,
1100
0000
0001
0000
1000
0001
0100
0000
,
1001
0010
1000
0100
,
1001
0000
0001
0000
1000
0100
0001
0000
,
1000
0000
0001
0000
1000
0010
0100
0000
,
1000
0000
0001
0000
1000
0100
0010
0000
,
0001
0000
1000
0000
0001
0010
0100
0000
,
0010
0100
0010
0100
0010
0100
0010
0000
,
1000
0001
2000
0000
3000
0000
0000
0000
;

//--------------- dance-single - ----------------
#NOTES:
     dance-single:
     :
     Hard:
     12:
     0.658328,0.659165,0.569063,0.022316,0,413,362,51,2,0,0,0.658328,0.659165,0.569063,0.022316,0,413,362,51,2,0,0:
0000
0000
0000
0000
,
0000
0000
0000
0000
,
0000
0000
0000
0000
,
0000
0000
0000
0000
,
0000
0000
0000
0000
,
1010
1000
1000
0010
1000
0000
0000
0000
,
0101
0101
0000
0000
0001
0000
1001
0000
,
1100
0000
1000
1001
,
1010
0010
0100
0010
0010
0000
1000
0000
,
1001
0001
0001
1000
0001
0000
0000
0000
,
0011
0010
0000
0100
1000
0000
0001
0000
,
1100
1000
0000
0001
0010
0000
0100
0000
,
1001
0001
1000
0100
0100
0000
0010
0000
,
1100
1000
1000
0100
0100
0000
1000
0000
,
0101
0100
0000
0001
0010
0000
1000
0000
,
1100
1000
0000
0010
0001
0000
0010
0000
,
1001
1000
0001
0001
1000
0000
0010
0000
,
0101
0100
0010
0010
0100
0000
0010
0000
,
1100
1000
0000
0100
0001
1000
0010
0000
,
0011
0010
0000
0100
0001
1000
0100
0000
,
1001
1000
1000
0010
0010
0000
0100
0000
,
1001
0100
0100
0010
0010
0000
1000
0000
,
1100
1000
0000
0010
0001
1000
0100
0000
,
1100
1000
0000
0100
1000
0010
0001
0000
,
0001
0010
1000
0100
0001
0000
0100
0000
,
1001
1000
0001
0100
,
0010
0010
0000
1000
1000
0000
0001
0000
,
1001
0001
0000
1000
1000
0000
0100
0000
,
1000
0100
0000
0001
0100
0000
1001
0000
,
1000
0100
0001
1000
0010
0000
0001
0000
,
1100
1100
0000
0000
0001
0000
1001
0000
,
1010
0000
1000
1001
,
1010
1000
0001
0001
1000
0000
0100
0000
,
0001
0100
1000
0010
0001
0000
0010
0000
,
1100
1000
0000
0010
0001
0000
1000
0000
,
0101
0100
0000
1000
0010
0000
1001
0000
,
0101
0001
1000
1000
0001
0000
1001
0000
,
1000
0100
0001
1000
0010
0000
0001
0000
,
0101
0100
0000
1000
0010
0000
0001
0000
,
1100
1000
0000
0010
0100
0000
1000
0000
,
1010
0010
0100
0100
0001
0000
1000
0000
,
0100
1000
0100
1000
0100
0001
0100
0001
,
0100
0010
0100
0010
0100
0000
1001
0000
,
0010
0001
0010
0001
0010
1000
0010
1000
,
0010
0100
0010
0100
0010
0000
1001
0000
,
0001
0010
0100
1000
0010
0100
1000
0100
,
0010
1000
0001
0100
0010
0000
1001
0000
,
0001
0100
0010
1000
0100
0001
0100
0010
,
0001
0100
0010
1000
0001
0000
1001
0000
,
0001
0000
0000
0010
0000
0000
0100
0000
,
0000
1000
0000
0100
0001
0001
0100
0000
,
1000
0000
0000
0010
0000
0000
0100
0000
,
0000
0001
0000
0100
1000
1000
0100
0000
,
1000
0100
1001
0010
0001
0001
0001
0000
,
0000
0000
0000
0000
,
0001
0010
1001
0100
1000
1000
1000
0000
,
0000
0000
0000
0000
,
1001
0000
0010
0000
0001
0100
0010
0000
,
1001
0000
0010
1000
0100
0010
0100
0000
,
1001
0000
0100
0000
1000
0010
0100
0000
,
1001
0000
0100
0001
0010
0100
0010
0000
,
0001
0001
1000
1000
0010
0000
1001
0000
,
1100
0000
0001
0010
1000
0001
0100
0000
,
1001
0000
0010
0000
1000
0010
0100
0000
,
1001
0000
0001
0100
1000
0100
0001
0000
,
1000
0100
0001
0100
1000
0010
0100
0001
,
1000
0010
0001
0010
1000
0100
0010
0100
,
0001
0100
1000
0010
0001
0010
0100
0001
,
0010
0100
0010
0100
0010
0100
0010
0000
,
1000
0001
2002
0000
3003
0000
0000
0000
;
