#TITLE:PARANOiA X;
#SUBTITLE:;
#ARTIST:200;
#TITLETRANSLIT:;
#SUBTITLETRANSLIT:;
#ARTISTTRANSLIT:;
#GENRE:;
#CREDIT:;
#MUSIC:PARANOiA X (200).ogg;
#BANNER:PARANOiA X (200).png;
#BACKGROUND:PARANOiA X (200)-bg.png;
#CDTITLE:;
#SAMPLESTART:30.044;
#SAMPLELENGTH:15.000;
#SELECTABLE:YES;
#OFFSET:0.000;
#BPMS:0.000=200.000;
#STOPS:35.500=0.300
,36.500=1.800
,38.500=1.500
,84.000=0.294
,117.000=0.300
,148.000=0.300
,179.000=0.300
,192.500=0.150
,193.000=0.150
,193.500=0.150
,210.500=0.300
,212.500=0.300
,216.500=1.350
,250.000=0.300
,263.000=0.900
,276.000=0.900
,306.500=0.300
,307.000=0.150
,331.500=1.650
,348.000=0.150
,348.500=0.150
,361.000=0.900
,374.000=0.150
,374.500=0.150
,375.000=0.150
,375.500=0.150
;
#BGCHANGES:;
#FGCHANGES:;

//--------------- dance-single - ----------------
#NOTES:
     dance-single:
     :
     Beginner:
     3:
     0,0,0,0,0:
0000
0000
0000
0000
,
0000
0000
0000
0000
,
0000
0000
0000
0000
,
0000
0000
0000
0000
,
0000
0000
0000
0000
,
0000
0000
0000
0000
,
0000
0000
0000
0000
,
0000
0000
0000
0000
,
0000
0000
0000
0000
,
0000
0000
0000
0000
,
1001
0000
0000
0000
,
1001
0000
0000
0000
,
1001
0000
0000
0000
,
1001
0000
0000
0000
,
1000
0000
0001
0000
,
1000
0000
0000
0000
,
0001
0000
1000
0000
,
0001
0000
0000
0000
,
0010
0000
0010
0000
,
1000
0000
0000
0000
,
0100
0000
0100
0000
,
1001
0000
0000
0000
,
1000
0000
1000
0000
,
0100
0000
0100
0000
,
0001
0000
0001
0000
,
0100
0000
0100
0000
,
0010
0000
0100
0000
,
0001
0000
1000
0000
,
0010
0010
0000
1000
,
0000
1001
0000
0100
,
0000
0010
0000
1000
,
0000
1000
0000
0001
,
0000
0000
0100
0000
,
0010
0000
0000
1000
,
1000
0000
0000
0100
,
0000
0000
1000
1000
,
0000
0000
0100
0100
,
0000
1000
0000
0000
,
0000
0100
0000
0000
,
0000
1000
0000
0000
,
0000
0010
0000
0000
,
0000
1000
0000
0000
,
0000
0010
0000
0000
,
0000
1000
0000
0000
,
0000
1000
1000
0000
,
1000
0000
0000
0100
,
0000
0000
0000
0000
,
0001
0000
0000
0010
,
0000
0000
0001
0000
0000
0001
0000
0000
,
0000
0000
0000
0010
0000
0000
0000
0000
,
0000
0000
0000
0000
0000
0100
0000
0000
,
0000
0000
0000
0100
0000
0100
0000
0000
,
0000
0000
0000
0000
0000
1001
0000
0000
,
0000
0100
0000
0100
0000
0100
0000
0100
,
0000
0010
0000
0000
,
0100
0000
0000
0000
,
1000
0000
0000
0000
,
0100
0000
0000
0000
,
0001
0000
0110
0000
,
0100
0000
0000
0000
,
1000
0000
0000
0000
,
0100
0000
0000
0000
,
0001
0000
0000
1001
,
0000
0010
0000
1001
,
0000
0010
0000
1001
,
0000
0010
0000
1001
,
0000
1000
0000
0001
,
0000
0000
0000
1001
,
0000
0010
0010
0000
,
0000
1000
0000
0000
,
0001
0000
0000
0000
,
0001
0001
0000
0000
,
0001
0000
0000
0000
,
0001
0001
0000
0000
,
1000
0000
0000
0000
,
1000
1000
0000
0000
,
1000
0000
0000
0000
0000
0000
0000
1000
,
0000
0000
0000
0001
0000
0000
0000
0100
,
0000
0000
0000
0000
0000
0000
0000
0010
,
0000
0000
0000
0010
0000
0000
0000
1000
,
0000
0000
0000
0000
0000
0000
0000
0010
,
0000
0000
0000
0010
0000
0000
0000
1000
,
0000
0000
0000
0000
0000
0110
0000
0000
,
0001
0001
0000
0100
,
0000
0100
0000
0100
,
0000
0000
0000
0100
,
0000
0001
0000
0100
,
0000
0001
0000
1000
,
0000
0100
0000
0000
,
0000
1000
0000
0100
,
0000
0000
1000
0000
,
0001
0000
0010
0000
,
0000
0000
0010
0000
,
1000
0000
0010
0000
,
0001
0000
0100
0000
,
0001
0000
0000
0000
,
0010
0000
0010
0000
,
0010
0000
1001
0000
;

//--------------- dance-single - ----------------
#NOTES:
     dance-single:
     :
     Easy:
     8:
     0,0,0,0,0:
0000
0000
0000
0000
,
0000
0000
0000
0000
,
0000
0000
0000
0000
,
0000
0000
0000
0000
,
0000
0000
0000
0000
,
0000
0000
0000
0000
,
0000
0000
0000
0000
,
0000
0000
0000
0000
,
0000
0000
0000
0000
0000
0000
0000
1001
,
0000
0110
0000
2000
0000
3001
0000
0000
,
1001
0010
0100
0000
,
1001
0010
0100
0000
,
1001
0010
0100
0000
,
1001
0010
0100
0000
,
1000
1000
0001
0001
,
1000
1000
0110
1001
,
0001
0001
1000
1000
,
0001
0010
1001
1001
,
0010
0100
0010
0100
,
1000
0010
0100
0010
,
0100
0100
0100
0100
,
1001
1000
1001
0000
,
1000
0100
1000
0010
,
0100
0010
0100
0000
,
0001
0100
0001
0010
,
0100
0010
0100
0000
,
0010
0001
0100
1000
,
0001
0100
1001
0000
,
0010
0010
0010
1000
,
0001
1001
0000
0100
,
1000
0010
0100
1000
,
0100
0000
1000
0000
0001
0000
0001
0001
,
0000
0000
0100
1000
,
0010
0100
0000
1010
,
1000
0001
0000
0100
,
0000
0001
0000
0000
1000
0000
1000
1000
,
0000
0001
0100
0100
,
1001
1000
0001
1000
,
0001
0100
0010
0100
,
0010
1000
0100
0001
,
0100
0010
0010
0001
,
0000
1000
1000
0001
,
0001
0010
1000
0100
,
0001
1000
0001
0001
,
1000
0001
1000
1001
,
1000
0000
0000
0001
0000
0000
0100
0000
,
0000
0000
0000
1000
0000
1000
0000
0000
,
0001
0000
0000
1000
0000
0000
0010
0000
,
0000
0000
0001
0100
0000
0001
0000
0000
,
0100
0000
0000
0010
0000
0000
0000
0000
,
0100
0000
1001
0000
0000
0100
0000
0000
,
0001
0000
0000
0100
0000
0110
0000
0000
,
0000
0100
0000
0110
0000
1001
0000
1000
,
0000
0101
0000
0100
0000
0100
0000
0110
,
0000
0010
0001
1001
,
1200
0000
0000
0000
,
1300
0000
0000
0001
0000
0000
1000
0000
,
0201
0000
0000
0000
,
0301
0100
0110
0000
,
1200
0000
0000
0000
,
1300
0000
0000
0001
0000
0000
1000
0000
,
0201
0000
0000
0000
,
0301
0100
0110
1001
,
0001
0010
0000
1001
,
0001
0010
0000
1001
,
0001
0010
0000
1001
,
0110
1000
0010
0001
,
1000
0000
0000
0001
0000
0000
1001
0000
,
0200
0010
0010
0010
,
0310
0000
2000
0000
0000
0010
0000
0000
,
0001
0000
0000
0000
0000
0100
0000
0000
,
0001
0000
3002
0000
0000
2003
0000
0000
,
3001
0000
0100
0000
0000
0110
0000
0000
,
1001
0000
0002
0000
0000
0010
0000
0000
,
1000
0000
0000
0000
0000
0100
0000
0000
,
1000
0000
2003
0000
0000
3002
0000
0000
,
1003
0000
0010
0000
0000
0010
1001
1000
,
0000
1000
0000
0001
0000
0001
0000
0100
,
0000
0000
0001
0000
0000
1001
0000
0010
,
0000
1000
0000
0010
0000
0001
0000
1000
,
0000
0000
0001
0000
0000
1001
0000
0010
,
0000
0010
0000
0010
0000
0010
0000
1000
,
0000
0000
0100
0000
0000
0110
0000
1000
,
0001
1001
0010
0100
,
1000
0001
0010
0100
,
1000
1001
2000
3200
,
0320
0032
0013
0100
,
1001
0001
1000
1000
,
0001
0100
0100
0010
,
1001
1000
0001
0100
,
0010
1001
1000
0100
,
0001
0100
0010
0010
,
0100
0110
0010
0010
,
1000
0010
0010
0110
,
0001
1000
0010
1000
,
0001
0001
1000
1001
,
0010
0100
0110
1000
,
0011
0110
2001
3000
;

//--------------- dance-single - ----------------
#NOTES:
     dance-single:
     :
     Medium:
     11:
     0,0,0,0,0:
0000
0000
0000
0000
,
0000
0000
0000
0000
,
0000
0000
0000
0000
,
0000
0000
0000
0000
,
0000
0000
0000
0000
,
0000
0000
0000
0000
,
0000
0000
0000
0000
,
0000
0000
0000
0000
,
0000
0000
0000
0000
0000
0000
0000
1001
,
0000
0110
0000
2000
0000
3001
0000
0000
,
1001
0010
0100
0110
,
1001
0010
0100
0110
,
1001
0010
0100
0110
,
1001
0010
0100
1001
,
1000
1000
0001
0001
,
1001
1001
0110
1001
,
0001
0001
1000
1000
,
1001
0110
1001
1001
,
0010
0100
0010
0100
,
1000
0010
0100
0010
,
0100
0010
0100
0000
0100
0010
0100
0000
,
1001
0001
1000
0000
1001
0000
1100
0000
,
0001
0100
1000
0010
,
0100
0010
0100
0101
,
1000
0100
0001
0010
,
0100
0010
0100
0000
,
0010
0001
0100
0010
,
0000
0001
0000
0000
0100
0000
0000
0110
,
0000
1000
0100
0100
0100
0000
1000
0000
,
0001
1001
0010
0110
,
1001
0010
0100
1010
,
0101
0000
1000
0000
0001
0001
0001
0001
,
0000
1100
0100
1000
,
0010
0100
0010
1010
,
1000
0000
0001
0100
0000
1000
0100
0000
,
0010
0001
0000
0000
1000
1000
1000
1000
,
0000
0001
0110
0110
,
1001
1000
0001
1000
,
0001
0100
0010
0100
,
0010
1010
0100
0011
,
0100
0010
0010
0001
,
0100
1000
1000
0001
,
0001
0011
1000
0100
,
1001
1000
0001
0001
,
1100
0001
1000
1001
,
1000
0000
0000
0001
0000
0000
0100
0000
,
0000
1001
0000
1000
0000
1000
0000
0000
,
0001
0000
0000
1000
0000
0000
0010
0000
,
0000
1001
0001
0110
0000
0001
0000
0000
,
0100
0000
0000
0010
0000
0000
0110
0000
,
0100
0000
1001
0000
0000
0100
0000
0000
,
0001
0000
0000
0100
0000
0110
0000
0000
,
0010
0100
0000
0110
0000
1001
0000
1000
,
0000
0101
0000
0100
0000
0100
0000
0110
,
0000
0110
0001
1001
,
1200
0010
1000
0010
,
1300
0000
0000
0001
0000
0000
1100
0000
,
0201
0010
0001
0010
,
0301
0010
0100
0000
0010
0000
1001
0000
,
1200
0010
1000
0010
,
1300
0000
0000
0001
0000
0000
1100
0000
,
0201
0010
0001
0010
,
0301
0010
0100
0000
0110
0000
1000
0000
,
0001
0010
0100
1001
,
0001
0010
0100
1001
,
0001
0010
0100
1001
,
0110
1000
0110
0001
,
1000
0000
0000
0001
0000
0000
1001
0000
,
0200
0010
0010
0010
,
0310
0000
2000
0000
0000
0010
0000
0000
,
0001
0000
0000
0000
0000
0100
0000
0000
,
0001
0000
3002
0000
0000
2003
0000
0000
,
3001
0000
0100
0000
0000
0110
0000
0000
,
1001
0000
0002
0000
0000
0010
0000
0000
,
1000
0000
0000
0000
0000
0100
0000
0000
,
1000
0000
2003
0000
0000
3002
0000
0000
,
1003
0000
0010
0000
0000
0110
1001
1000
,
0010
1000
0000
0001
0000
0001
0000
0100
,
0001
0000
0001
0000
0000
1001
0000
0010
,
0100
1000
0000
0010
0000
0001
0000
1000
,
0001
0000
0001
0000
0000
1001
0000
0010
,
0001
0010
0000
0010
0000
0010
0000
1000
,
0100
0000
0100
0000
0000
0110
0000
1000
,
0001
1000
0001
0000
0010
0000
0100
0000
,
1000
0000
0101
0000
0010
1000
0100
0000
,
1000
1001
2000
3200
,
0320
0032
0013
0100
,
1001
1000
0001
0100
1000
0000
1000
0000
,
0101
0000
0100
0100
0100
0000
0010
0000
,
1001
1000
0001
0110
,
0010
0000
1001
0000
1000
0010
0100
0000
,
0001
0100
0110
0010
,
0100
0000
0100
0000
0010
0100
0010
0000
,
1000
0000
0010
0000
0010
1001
0100
1001
,
0001
0000
1000
0000
0110
0000
1000
0100
,
0001
0000
0001
0000
1000
0000
0001
0100
,
0010
0100
0110
1000
,
0011
0110
2001
3000
;

//--------------- dance-single - ----------------
#NOTES:
     dance-single:
     :
     Hard:
     13:
     0.620452,0.74351,0.676955,0.129306,0.007606,571,482,89,17,0,0,0.620452,0.74351,0.676955,0.129306,0.007606,571,482,89,17,0,0:
0000
0000
0000
0000
,
0000
0000
0000
0000
,
0000
0000
0000
0000
,
0000
0000
0000
0000
,
0000
0000
0000
0000
,
0000
0000
0000
0000
,
0000
0000
0000
0000
,
0000
0000
0000
0000
,
0000
0000
0000
0000
0000
0000
0000
1001
,
0000
0110
0000
2000
0000
3001
0000
0000
,
1001
0000
0010
1000
0100
0000
0110
0000
,
1001
0000
0010
0001
0100
0000
0110
0000
,
1001
0000
0010
1000
0100
0000
0110
0000
,
1001
0000
0010
0001
0100
0000
1001
0000
,
1000
1000
0001
0001
,
1001
1001
0110
1001
,
0001
0001
1000
1000
,
1001
0110
1001
1001
,
0010
0001
0100
0000
0010
1000
0100
0000
,
1000
0100
0010
0001
0100
1000
0010
0000
,
0100
0100
0100
0100
0100
0100
0100
0000
,
1001
0001
1000
0000
1001
0000
1100
0000
,
0001
0000
0100
0001
1000
0000
0010
0000
,
0100
1000
0001
0100
1000
0000
0101
0000
,
1000
0000
0100
1000
0001
0000
0010
0000
,
0100
0001
1000
0100
0001
0000
0010
0000
,
0010
0000
1001
0000
0001
0100
0010
0000
,
1010
0000
0101
0000
0000
0000
0010
0001
,
0001
0001
0010
0001
0001
0000
1000
0000
,
0001
1001
0010
0110
,
1001
0000
0010
0001
0100
0000
1010
0000
,
0101
0000
1000
0100
0001
0001
0001
0001
,
0000
0000
1100
0000
0100
0010
1000
0000
,
0010
0001
0100
0000
0010
0000
1010
0000
,
1000
0000
0001
0100
0000
1000
0100
0000
,
0010
0001
0000
0010
1000
1000
1000
1000
,
0000
0001
0110
0110
,
1001
1000
0001
1000
,
0001
0100
0010
0100
,
0010
1010
0100
0011
,
0100
0010
0010
0001
,
0100
1000
1000
0001
,
0001
0011
1100
0100
,
1001
1000
0101
0001
,
1100
0000
0001
0100
1000
0000
1001
0000
,
0000
0100
0010
0001
0100
0010
1000
0100
,
0010
0001
0000
1000
0000
1000
0000
0000
,
0000
0010
0100
1000
0010
0100
0001
0010
,
0100
1000
1001
0110
1000
0000
0100
1000
,
0100
0010
0100
0001
0100
0010
0100
0000
,
0110
0000
1001
0000
0000
0000
0010
0100
,
0001
0100
0010
0100
1000
0100
0100
0000
,
0010
0010
0000
0110
0000
1001
0000
1000
,
0000
0101
0000
0100
0000
0100
0000
0110
,
0000
0110
0011
1001
,
1200
0010
0001
0010
,
1300
0010
0100
0001
0000
0001
1100
0000
,
0201
0010
1000
0010
,
0301
0010
0100
1000
0010
0100
0001
0000
,
1200
0010
0001
0010
,
1300
0010
0100
0001
0000
0001
1100
0000
,
0201
0010
1000
0010
,
0301
0010
0100
1000
0010
0000
1000
0000
,
0001
0100
0010
0000
0110
0000
1001
0000
,
0001
0100
0010
0000
0101
0000
1001
0000
,
0001
0100
0010
0000
0110
0000
1001
0000
,
0110
0100
1000
0000
0110
0010
0001
0000
,
1000
0001
1000
0001
0000
0001
0001
0000
,
0200
0010
0010
0010
,
0310
0000
1000
2000
0000
0010
0010
0000
,
0001
0001
0000
0000
0000
0100
0000
0010
,
0001
0000
3001
0002
0000
1003
2000
0000
,
3001
0010
0100
0000
0000
0110
0000
1001
,
1000
0000
0001
0002
0000
0010
0010
0000
,
1000
1000
0000
0000
0000
0100
0000
0010
,
1000
0000
1003
2000
0000
3001
0002
0000
,
1003
0100
0010
0000
0000
0110
1001
1000
,
0010
1000
0010
0001
0010
0001
0010
0100
,
0001
0100
0001
0010
1000
0010
1000
0010
,
0100
1000
0000
0010
0100
0001
0000
1000
,
0001
1000
0001
0100
0000
1001
0000
0010
,
0001
0010
0100
0010
1000
0010
0100
1000
,
0100
0010
0100
0001
0000
0110
0000
1000
,
0001
1000
0001
1000
0001
0000
0000
0000
0010
0000
0001
0000
0100
0000
0000
0000
,
1010
0000
0101
0000
0010
1000
0100
0000
,
1000
0010
0001
0000
2000
3100
0200
0310
,
0020
0031
0002
0013
0010
0000
0100
0000
,
1001
1000
0001
0100
1000
0000
1000
0010
,
0101
0000
0100
0100
0100
0100
0010
0000
,
1001
0000
1000
0100
0001
1000
0100
0001
,
0010
1000
0001
0000
1000
0010
0100
0010
,
0001
0010
0100
0001
0010
1000
0010
0001
,
0100
1000
0100
0001
0010
0100
0010
0001
,
1000
0100
0010
1000
0010
1001
0110
1001
,
0001
0000
1000
0000
0110
0000
1000
0100
,
0001
0000
0001
0010
1000
0000
0001
0100
,
0011
0100
0110
1100
,
0011
0110
2001
3000
;
